  0
SECTION
  2
HEADER
  9
$ACADVER
  1
AC1015
  9
$ACADMAINTVER
 70
     6
  9
$DWGCODEPAGE
  3
ANSI_932
  9
$INSBASE
 10
0.0
 20
0.0
 30
0.0
  9
$EXTMIN
 10
-20.0
 20
-10.00000000000045
 30
-0.00000001
  9
$EXTMAX
 10
4208.90226575827
 20
3306.998128761224
 30
0.00000001
  9
$LIMMIN
 10
-20.0
 20
-10.0
  9
$LIMMAX
 10
3278.240000000002
 20
2276.159999999999
  9
$ORTHOMODE
 70
     0
  9
$REGENMODE
 70
     1
  9
$FILLMODE
 70
     1
  9
$QTEXTMODE
 70
     0
  9
$MIRRTEXT
 70
     0
  9
$LTSCALE
 40
4.0
  9
$ATTMODE
 70
     1
  9
$TEXTSIZE
 40
4.5
  9
$TRACEWID
 40
1.0
  9
$TEXTSTYLE
  7
表題
  9
$CLAYER
  8
AM_5
  9
$CELTYPE
  6
ByLayer
  9
$CECOLOR
 62
   256
  9
$CELTSCALE
 40
1.0
  9
$DISPSILH
 70
     0
  9
$DIMSCALE
 40
1.0
  9
$DIMASZ
 40
8.0
  9
$DIMEXO
 40
4.0
  9
$DIMDLI
 40
10.0
  9
$DIMRND
 40
0.0
  9
$DIMDLE
 40
0.0
  9
$DIMEXE
 40
4.0
  9
$DIMTP
 40
0.1
  9
$DIMTM
 40
0.1
  9
$DIMTXT
 40
14.0
  9
$DIMCEN
 40
0.0
  9
$DIMTSZ
 40
0.0
  9
$DIMTOL
 70
     0
  9
$DIMLIM
 70
     0
  9
$DIMTIH
 70
     0
  9
$DIMTOH
 70
     0
  9
$DIMSE1
 70
     0
  9
$DIMSE2
 70
     0
  9
$DIMTAD
 70
     3
  9
$DIMZIN
 70
     8
  9
$DIMBLK
  1
Open30
  9
$DIMASO
 70
     1
  9
$DIMSHO
 70
     1
  9
$DIMPOST
  1

  9
$DIMAPOST
  1
"
  9
$DIMALT
 70
     0
  9
$DIMALTD
 70
     2
  9
$DIMALTF
 40
0.0393701
  9
$DIMLFAC
 40
1.0
  9
$DIMTOFL
 70
     1
  9
$DIMTVP
 40
0.0
  9
$DIMTIX
 70
     0
  9
$DIMSOXD
 70
     0
  9
$DIMSAH
 70
     0
  9
$DIMBLK1
  1

  9
$DIMBLK2
  1

  9
$DIMSTYLE
  2
スタイル2
  9
$DIMCLRD
 70
   256
  9
$DIMCLRE
 70
   256
  9
$DIMCLRT
 70
     2
  9
$DIMTFAC
 40
0.71
  9
$DIMGAP
 40
2.0
  9
$DIMJUST
 70
     0
  9
$DIMSD1
 70
     0
  9
$DIMSD2
 70
     0
  9
$DIMTOLJ
 70
     0
  9
$DIMTZIN
 70
     0
  9
$DIMALTZ
 70
     0
  9
$DIMALTTZ
 70
     0
  9
$DIMUPT
 70
     0
  9
$DIMDEC
 70
     1
  9
$DIMTDEC
 70
     1
  9
$DIMALTU
 70
     2
  9
$DIMALTTD
 70
     2
  9
$DIMTXSTY
  7
スタイル１
  9
$DIMAUNIT
 70
     0
  9
$DIMADEC
 70
     0
  9
$DIMALTRND
 40
0.0
  9
$DIMAZIN
 70
     2
  9
$DIMDSEP
 70
    46
  9
$DIMATFIT
 70
     3
  9
$DIMFRAC
 70
     0
  9
$DIMLDRBLK
  1
Open30
  9
$DIMLUNIT
 70
     2
  9
$DIMLWD
 70
    -1
  9
$DIMLWE
 70
    -1
  9
$DIMTMOVE
 70
     0
  9
$LUNITS
 70
     2
  9
$LUPREC
 70
     4
  9
$SKETCHINC
 40
1.0
  9
$FILLETRAD
 40
10.0
  9
$AUNITS
 70
     0
  9
$AUPREC
 70
     0
  9
$MENU
  1
.
  9
$ELEVATION
 40
0.0
  9
$PELEVATION
 40
0.0
  9
$THICKNESS
 40
0.0
  9
$LIMCHECK
 70
     0
  9
$CHAMFERA
 40
10.0
  9
$CHAMFERB
 40
10.0
  9
$CHAMFERC
 40
20.0
  9
$CHAMFERD
 40
0.0
  9
$SKPOLY
 70
     0
  9
$TDCREATE
 40
2452325.295162384
  9
$TDUCREATE
 40
2452325.253495717
  9
$TDUPDATE
 40
2452716.782116203
  9
$TDUUPDATE
 40
2452716.740449537
  9
$TDINDWG
 40
0.6768278125
  9
$TDUSRTIMER
 40
0.6768278125
  9
$USRTIMER
 70
     1
  9
$ANGBASE
 50
0.0
  9
$ANGDIR
 70
     0
  9
$PDMODE
 70
     0
  9
$PDSIZE
 40
0.0
  9
$PLINEWID
 40
0.0
  9
$SPLFRAME
 70
     0
  9
$SPLINETYPE
 70
     6
  9
$SPLINESEGS
 70
     8
  9
$HANDSEED
  5
5B17
  9
$SURFTAB1
 70
     6
  9
$SURFTAB2
 70
     6
  9
$SURFTYPE
 70
     6
  9
$SURFU
 70
     6
  9
$SURFV
 70
     6
  9
$UCSBASE
  2

  9
$UCSNAME
  2

  9
$UCSORG
 10
0.0
 20
0.0
 30
0.0
  9
$UCSXDIR
 10
1.0
 20
0.0
 30
0.0
  9
$UCSYDIR
 10
0.0
 20
1.0
 30
0.0
  9
$UCSORTHOREF
  2

  9
$UCSORTHOVIEW
 70
     0
  9
$UCSORGTOP
 10
0.0
 20
0.0
 30
0.0
  9
$UCSORGBOTTOM
 10
0.0
 20
0.0
 30
0.0
  9
$UCSORGLEFT
 10
0.0
 20
0.0
 30
0.0
  9
$UCSORGRIGHT
 10
0.0
 20
0.0
 30
0.0
  9
$UCSORGFRONT
 10
0.0
 20
0.0
 30
0.0
  9
$UCSORGBACK
 10
0.0
 20
0.0
 30
0.0
  9
$PUCSBASE
  2

  9
$PUCSNAME
  2

  9
$PUCSORG
 10
0.0
 20
0.0
 30
0.0
  9
$PUCSXDIR
 10
1.0
 20
0.0
 30
0.0
  9
$PUCSYDIR
 10
0.0
 20
1.0
 30
0.0
  9
$PUCSORTHOREF
  2

  9
$PUCSORTHOVIEW
 70
     0
  9
$PUCSORGTOP
 10
0.0
 20
0.0
 30
0.0
  9
$PUCSORGBOTTOM
 10
0.0
 20
0.0
 30
0.0
  9
$PUCSORGLEFT
 10
0.0
 20
0.0
 30
0.0
  9
$PUCSORGRIGHT
 10
0.0
 20
0.0
 30
0.0
  9
$PUCSORGFRONT
 10
0.0
 20
0.0
 30
0.0
  9
$PUCSORGBACK
 10
0.0
 20
0.0
 30
0.0
  9
$USERI1
 70
     0
  9
$USERI2
 70
     0
  9
$USERI3
 70
     0
  9
$USERI4
 70
     0
  9
$USERI5
 70
     0
  9
$USERR1
 40
0.0
  9
$USERR2
 40
0.0
  9
$USERR3
 40
0.0
  9
$USERR4
 40
0.0
  9
$USERR5
 40
0.0
  9
$WORLDVIEW
 70
     1
  9
$SHADEDGE
 70
     3
  9
$SHADEDIF
 70
    70
  9
$TILEMODE
 70
     1
  9
$MAXACTVP
 70
    64
  9
$PINSBASE
 10
0.0
 20
0.0
 30
0.0
  9
$PLIMCHECK
 70
     0
  9
$PEXTMIN
 10
1.000000000000000E+20
 20
1.000000000000000E+20
 30
1.000000000000000E+20
  9
$PEXTMAX
 10
-1.000000000000000E+20
 20
-1.000000000000000E+20
 30
-1.000000000000000E+20
  9
$PLIMMIN
 10
0.0
 20
0.0
  9
$PLIMMAX
 10
420.0
 20
297.0
  9
$UNITMODE
 70
     0
  9
$VISRETAIN
 70
     1
  9
$PLINEGEN
 70
     0
  9
$PSLTSCALE
 70
     1
  9
$TREEDEPTH
 70
  3020
  9
$CMLSTYLE
  2
Standard
  9
$CMLJUST
 70
     0
  9
$CMLSCALE
 40
20.0
  9
$PROXYGRAPHICS
 70
     1
  9
$MEASUREMENT
 70
     1
  9
$CELWEIGHT
370
    -1
  9
$ENDCAPS
280
     0
  9
$JOINSTYLE
280
     0
  9
$LWDISPLAY
290
     0
  9
$INSUNITS
 70
     4
  9
$HYPERLINKBASE
  1

  9
$STYLESHEET
  1
monochrome.ctb
  9
$XEDIT
290
     1
  9
$CEPSNTYPE
380
     0
  9
$PSTYLEMODE
290
     1
  9
$FINGERPRINTGUID
  2
{6D68E1A4-2541-11D6-A2ED-90BA86E43932}
  9
$VERSIONGUID
  2
{2DCA3304-46D9-4527-95FA-C7927D7D024D}
  9
$EXTNAMES
290
     1
  9
$PSVPSCALE
 40
0.0
  9
$OLESTARTUP
290
     0
  0
ENDSEC
  0
SECTION
  2
CLASSES
  0
CLASS
  1
ACDBDICTIONARYWDFLT
  2
AcDbDictionaryWithDefault
  3
AutoCAD 2000
 90
        0
280
     0
281
     0
  0
CLASS
  1
ACDBPLACEHOLDER
  2
AcDbPlaceHolder
  3
AutoCAD 2000
 90
        0
280
     0
281
     0
  0
CLASS
  1
LAYOUT
  2
AcDbLayout
  3
AutoCAD 2000
 90
        0
280
     0
281
     0
  0
CLASS
  1
AMDTACMWBLOCKBOMENTITY
  2
AmdtAcmWblockBomEntity
  3
"AcmSymBB|Product Description: AutoCAD Mechanical 2000|Company: Autodesk"
 90
    33791
280
     1
281
     1
  0
CLASS
  1
ACDB_PROXY_ENTITY_DATA
  2
AcDbProxyEntityData
  3
AutoCAD 2000
 90
    32768
280
     0
281
     0
  0
CLASS
  1
DICTIONARYVAR
  2
AcDbDictionaryVar
  3
AutoCAD 2000
 90
        0
280
     0
281
     0
  0
ENDSEC
  0
SECTION
  2
TABLES
  0
TABLE
  2
VPORT
  5
19
330
0
100
AcDbSymbolTable
 70
     4
  0
VPORT
  5
5B16
330
19
100
AcDbSymbolTableRecord
100
AcDbViewportTableRecord
  2
*Active
 70
     0
 10
0.0
 20
0.0
 11
1.0
 21
1.0
 12
1459.288226105096
 22
1162.482616866935
 13
0.0
 23
0.0
 14
10.0
 24
10.0
 15
10.0
 25
10.0
 16
0.0
 26
0.0
 36
1.0
 17
0.0
 27
0.0
 37
0.0
 40
2333.211039068765
 41
1.702127659574468
 42
50.0
 43
0.0
 44
0.0
 50
0.0
 51
0.0
 71
     0
 72
   100
 73
     1
 74
     3
 75
     0
 76
     0
 77
     0
 78
     0
281
     0
 65
     1
110
0.0
120
0.0
130
0.0
111
1.0
121
0.0
131
0.0
112
0.0
122
1.0
132
0.0
 79
     0
146
0.0
  0
ENDTAB
  0
TABLE
  2
LTYPE
  5
14
330
0
100
AcDbSymbolTable
 70
     4
  0
LTYPE
  5
15
330
14
100
AcDbSymbolTableRecord
100
AcDbLinetypeTableRecord
  2
ByBlock
 70
     0
  3

 72
    65
 73
     0
 40
0.0
  0
LTYPE
  5
16
330
14
100
AcDbSymbolTableRecord
100
AcDbLinetypeTableRecord
  2
ByLayer
 70
     0
  3

 72
    65
 73
     0
 40
0.0
  0
LTYPE
  5
8
330
14
100
AcDbSymbolTableRecord
100
AcDbLinetypeTableRecord
  2
Continuous
 70
     0
  3
Solid line
 72
    65
 73
     0
 40
0.0
  0
LTYPE
  5
2D7
330
14
100
AcDbSymbolTableRecord
100
AcDbLinetypeTableRecord
  2
AM_ISO02W050
 70
     0
  3
__ __ __ __ __ __ __ __ __ __ __ __ __ __ __
 72
    65
 73
     2
 40
7.5
 49
6.0
 74
     0
 49
-1.5
 74
     0
  0
LTYPE
  5
4F
330
14
100
AcDbSymbolTableRecord
100
AcDbLinetypeTableRecord
  2
AM_ISO08W050
 70
     0
  3
____ . ____ . ____ . ____ . ____ . ____ . ____
 72
    65
 73
     4
 40
18.0
 49
12.0
 74
     0
 49
-1.5
 74
     0
 49
3.0
 74
     0
 49
-1.5
 74
     0
  0
LTYPE
  5
3318
330
14
100
AcDbSymbolTableRecord
100
AcDbLinetypeTableRecord
  2
AM_ISO09W050
 70
     0
  3
_____ . . _____ . . _____ . . ____ .. ____
 72
    65
 73
     6
 40
22.5
 49
12.0
 74
     0
 49
-1.5
 74
     0
 49
3.0
 74
     0
 49
-1.5
 74
     0
 49
3.0
 74
     0
 49
-1.5
 74
     0
  0
ENDTAB
  0
TABLE
  2
LAYER
  5
10
330
0
100
AcDbSymbolTable
 70
    23
  0
LAYER
  5
4
330
10
100
AcDbSymbolTableRecord
100
AcDbLayerTableRecord
  2
0
 70
     0
 62
    -7
  6
Continuous
290
     0
370
    -3
390
5
  0
LAYER
  5
62
330
10
100
AcDbSymbolTableRecord
100
AcDbLayerTableRecord
  2
AM_0
 70
     0
 62
     7
  6
Continuous
370
    50
390
5
  0
LAYER
  5
2D6
330
10
100
AcDbSymbolTableRecord
100
AcDbLayerTableRecord
  2
AM_3
 70
     0
 62
     6
  6
AM_ISO02W050
370
    18
390
5
  0
LAYER
  5
2A
330
10
100
AcDbSymbolTableRecord
100
AcDbLayerTableRecord
  2
AM_5
 70
     0
 62
     3
  6
Continuous
370
    18
390
5
  0
LAYER
  5
4E
330
10
100
AcDbSymbolTableRecord
100
AcDbLayerTableRecord
  2
AM_7
 70
     0
 62
     4
  6
AM_ISO08W050
370
    18
390
5
  0
LAYER
  5
B0
330
10
100
AcDbSymbolTableRecord
100
AcDbLayerTableRecord
  2
細線
 70
     0
 62
     2
  6
Continuous
370
    18
390
5
  0
LAYER
  5
98
330
10
100
AcDbSymbolTableRecord
100
AcDbLayerTableRecord
  2
AM_1
 70
     0
 62
    14
  6
Continuous
370
    50
390
5
  0
LAYER
  5
69
330
10
100
AcDbSymbolTableRecord
100
AcDbLayerTableRecord
  2
AM_2
 70
     0
 62
     5
  6
Continuous
370
    50
390
5
  0
LAYER
  5
6D
330
10
100
AcDbSymbolTableRecord
100
AcDbLayerTableRecord
  2
AM_6
 70
     0
 62
     2
  6
Continuous
370
    35
390
5
  0
LAYER
  5
3B
330
10
100
AcDbSymbolTableRecord
100
AcDbLayerTableRecord
  2
Defpoints
 70
     0
 62
     7
  6
Continuous
290
     0
370
    -3
390
5
  0
LAYER
  5
8F
330
10
100
AcDbSymbolTableRecord
100
AcDbLayerTableRecord
  2
AM_8
 70
     0
 62
     1
  6
Continuous
370
    18
390
5
  0
LAYER
  5
28
330
10
100
AcDbSymbolTableRecord
100
AcDbLayerTableRecord
  2
図面範囲
 70
     0
 62
    -7
  6
Continuous
290
     0
370
    -3
390
5
  0
LAYER
  5
25
330
10
100
AcDbSymbolTableRecord
100
AcDbLayerTableRecord
  2
A1枠
 70
     0
 62
     7
  6
Continuous
370
    50
390
5
  0
LAYER
  5
3319
330
10
100
AcDbSymbolTableRecord
100
AcDbLayerTableRecord
  2
AM_11
 70
     0
 62
     3
  6
AM_ISO09W050
370
    20
390
5
  0
LAYER
  5
37F7
330
10
100
AcDbSymbolTableRecord
100
AcDbLayerTableRecord
  2
AM_2_6
 70
     0
 62
    60
  6
Continuous
370
    50
390
5
  0
LAYER
  5
386C
330
10
100
AcDbSymbolTableRecord
100
AcDbLayerTableRecord
  2
AM_2_5
 70
     0
 62
   150
  6
Continuous
370
    50
390
5
  0
LAYER
  5
3911
330
10
100
AcDbSymbolTableRecord
100
AcDbLayerTableRecord
  2
AM_2_2
 70
     0
 62
   201
  6
Continuous
370
    50
390
5
  0
LAYER
  5
3957
330
10
100
AcDbSymbolTableRecord
100
AcDbLayerTableRecord
  2
架台
 70
     0
 62
    -7
  6
Continuous
370
    18
390
5
  0
LAYER
  5
3958
330
10
100
AcDbSymbolTableRecord
100
AcDbLayerTableRecord
  2
外槽板
 70
     0
 62
     8
  6
Continuous
370
    18
390
5
  0
LAYER
  5
3959
330
10
100
AcDbSymbolTableRecord
100
AcDbLayerTableRecord
  2
内槽板
 70
     0
 62
     8
  6
Continuous
370
    18
390
5
  0
LAYER
  5
395A
330
10
100
AcDbSymbolTableRecord
100
AcDbLayerTableRecord
  2
外槽側板
 70
     0
 62
     8
  6
Continuous
370
    18
390
5
  0
LAYER
  5
395B
330
10
100
AcDbSymbolTableRecord
100
AcDbLayerTableRecord
  2
内槽側板
 70
     0
 62
     8
  6
Continuous
370
    18
390
5
  0
LAYER
  5
398B
330
10
100
AcDbSymbolTableRecord
100
AcDbLayerTableRecord
  2
ノゾキ窓
 70
     0
 62
     2
  6
Continuous
370
    18
390
5
  0
ENDTAB
  0
TABLE
  2
STYLE
  5
11
330
0
100
AcDbSymbolTable
 70
     7
  0
STYLE
  5
12
330
11
100
AcDbSymbolTableRecord
100
AcDbTextStyleTableRecord
  2
Standard
 70
     0
 40
0.0
 41
1.0
 50
0.0
 71
     0
 42
2.5
  3
txt.shx
  4
bigfont.shx
  0
STYLE
  5
6E
330
11
100
AcDbSymbolTableRecord
100
AcDbTextStyleTableRecord
  2
ACJISTS
 70
     0
 40
1.0
 41
0.6
 50
0.0
 71
     0
 42
1.0
  3
MS PGothic.ttf
  4

1001
ACAD
1000
MS PGothic
1071
    32818
  0
STYLE
  5
243
330
11
100
AcDbSymbolTableRecord
100
AcDbTextStyleTableRecord
  2
スタイル１
 70
     0
 40
0.0
 41
1.0
 50
0.0
 71
     0
 42
4.5
  3
MS Gothic.ttf
  4

1001
ACAD
1000
MS Gothic
1071
    32817
  0
STYLE
  5
238
330
11
100
AcDbSymbolTableRecord
100
AcDbTextStyleTableRecord
  2
表題
 70
     0
 40
0.0
 41
1.0
 50
0.0
 71
     0
 42
4.5
  3
MS PMincho.ttf
  4

1001
ACAD
1000
MS PMincho
1071
    32786
  0
STYLE
  5
1143
330
11
100
AcDbSymbolTableRecord
100
AcDbTextStyleTableRecord
  2
大陽東洋酸素
 70
     0
 40
0.0
 41
0.8
 50
0.0
 71
     0
 42
4.5
  3
MS Mincho.ttf
  4

1001
ACAD
1000
MS Mincho
1071
    32785
  0
STYLE
  5
231E
330
11
100
AcDbSymbolTableRecord
100
AcDbTextStyleTableRecord
  2
DIM
 70
     0
 40
0.0
 41
0.8
 50
0.0
 71
     0
 42
0.8
  3
txt.shx
  4
bigfont.shx
  0
STYLE
  5
231F
330
11
100
AcDbSymbolTableRecord
100
AcDbTextStyleTableRecord
  2
TITLE
 70
     0
 40
0.0
 41
1.0
 50
0.0
 71
     0
 42
0.8
  3
MS Mincho.ttf
  4

1001
ACAD
1000
MS Mincho
1071
    32785
  0
ENDTAB
  0
TABLE
  2
VIEW
  5
17
330
0
100
AcDbSymbolTable
 70
     0
  0
ENDTAB
  0
TABLE
  2
UCS
  5
18
330
0
100
AcDbSymbolTable
 70
     0
  0
ENDTAB
  0
TABLE
  2
APPID
  5
1B
330
0
100
AcDbSymbolTable
 70
     3
  0
APPID
  5
1C
330
1B
100
AcDbSymbolTableRecord
100
AcDbRegAppTableRecord
  2
ACAD
 70
     0
  0
APPID
  5
2365
330
1B
100
AcDbSymbolTableRecord
100
AcDbRegAppTableRecord
  2
CONTENTTABDATA
 70
     0
  0
APPID
  5
2366
330
1B
100
AcDbSymbolTableRecord
100
AcDbRegAppTableRecord
  2
CONTENTCURRENTTAB
 70
     0
  0
ENDTAB
  0
TABLE
  2
DIMSTYLE
  5
1D
330
0
100
AcDbSymbolTable
 70
     3
100
AcDbDimStyleTable
 71
     1
340
32
  0
DIMSTYLE
105
32
102
{ACAD_REACTORS
330
386E
330
387B
330
3892
330
38D5
330
39C6
330
39C5
330
39D9
330
39C0
330
3ABB
330
3ABA
330
3AB7
330
3AB6
330
3AE2
330
3AB5
330
3B99
330
3BC7
330
3BE1
330
3BEE
330
3C0A
330
3C61
330
3C80
330
3CD5
330
3F81
330
3F8E
330
3FA8
330
3FB5
330
3FC6
330
3FD3
330
577E
330
57B1
330
57C7
330
588A
330
5897
330
58B1
330
58BE
330
58CB
330
58D8
330
5906
330
5920
330
39CC
330
3BFD
330
599A
102
}
330
1D
100
AcDbSymbolTableRecord
100
AcDbDimStyleTableRecord
  2
スタイル2
 70
     0
  4
"
 41
8.0
 42
4.0
 43
10.0
 44
4.0
 47
0.1
 48
0.1
 73
     0
 74
     0
 77
     3
 78
     8
 79
     2
140
14.0
141
0.0
143
0.0393701
146
0.71
147
2.0
172
     1
176
   256
177
   256
178
     2
271
     1
272
     1
283
     0
340
243
341
2C
342
2C
371
    -1
372
    -1
  0
DIMSTYLE
105
35
102
{ACAD_REACTORS
330
3BBE
330
43A0
330
43A9
330
574F
330
5758
102
}
330
1D
100
AcDbSymbolTableRecord
100
AcDbDimStyleTableRecord
  2
スタイル2$4
 70
     0
  4
"
 41
8.0
 42
4.0
 43
10.0
 44
4.0
 47
0.1
 48
0.1
 73
     0
 74
     0
 77
     3
 78
     8
 79
     2
140
14.0
141
0.0
143
0.0393701
146
0.71
147
2.0
176
   256
177
   256
178
     2
271
     1
272
     1
283
     0
288
     1
340
243
341
2C
342
2C
371
    -1
372
    -1
  0
DIMSTYLE
105
2320
330
1D
100
AcDbSymbolTableRecord
100
AcDbDimStyleTableRecord
  2
STANDARD
 70
     0
 41
2.0
 42
1.0
 43
6.0
 44
1.0
 73
     0
 74
     0
 77
     3
 78
     8
140
2.5
141
1.5
145
1.0
147
0.5
172
     1
174
     1
175
     1
178
     4
271
     3
272
     3
289
     1
340
231E
  0
ENDTAB
  0
TABLE
  2
BLOCK_RECORD
  5
1
330
0
100
AcDbSymbolTable
 70
    50
  0
BLOCK_RECORD
  5
2
330
1
100
AcDbSymbolTableRecord
100
AcDbBlockTableRecord
  2
*Model_Space
340
A
  0
BLOCK_RECORD
  5
C
330
1
100
AcDbSymbolTableRecord
100
AcDbBlockTableRecord
  2
*Paper_Space
340
F
  0
BLOCK_RECORD
  5
2C
330
1
100
AcDbSymbolTableRecord
100
AcDbBlockTableRecord
  2
_Open30
340
0
102
{BLKREFS
331
3E8A
331
3E8B
331
3E93
331
3E94
331
3E9E
331
3E9F
331
3F67
331
3F68
331
3F72
331
3F73
331
3F7B
331
3F7C
331
3F86
331
3F87
331
400F
331
4010
331
4021
331
4022
331
402A
331
402B
331
4032
331
4038
331
4039
331
4041
331
4042
331
404A
331
404B
331
4053
331
4054
331
405E
331
405F
331
4069
331
406A
331
407D
331
407E
331
4113
331
4114
331
411C
331
411D
331
4125
331
4126
331
412E
331
412F
331
4137
331
4138
331
4140
331
4141
331
4158
331
4162
331
5753
331
575C
331
5778
331
5779
331
5792
331
5793
331
579E
331
579F
331
57A7
331
57A8
331
57C1
331
57C2
331
57E3
331
57E4
331
583C
331
5841
331
588F
331
5890
331
589C
331
589D
331
58B6
331
58B7
331
58C3
331
58C4
331
58D0
331
58D1
331
58DD
331
58DE
331
590B
331
590C
331
593F
331
5940
331
5972
331
5973
331
597B
331
597C
331
59A1
331
59A2
331
59E8
331
59ED
331
5A59
331
5A5A
331
5A62
331
5A63
331
5A7D
331
5A7E
331
5A86
331
5A87
331
5A8F
331
5A90
331
5A99
331
5A9A
331
5AA2
331
5AA3
331
5AAB
331
5AAC
331
5AB4
331
5AB5
331
5ABD
331
5ABE
331
5AC6
331
5AC7
331
5ACF
331
5AD0
331
5AD8
331
5AD9
331
5AE1
331
5AE2
331
5AEA
331
5AEB
331
5AF3
331
5AF4
331
5AFC
331
5AFD
331
5B05
331
5B06
331
5B0E
331
5B0F
102
}
  0
BLOCK_RECORD
  5
1EE
330
1
100
AcDbSymbolTableRecord
100
AcDbBlockTableRecord
  2
_DotSmall
340
0
102
{BLKREFS
331
4157
331
4163
102
}
  0
BLOCK_RECORD
  5
51
330
1
100
AcDbSymbolTableRecord
100
AcDbBlockTableRecord
  2
_Dot
340
0
  0
BLOCK_RECORD
  5
386F
330
1
100
AcDbSymbolTableRecord
100
AcDbBlockTableRecord
  2
*D3
340
0
  0
BLOCK_RECORD
  5
387C
330
1
100
AcDbSymbolTableRecord
100
AcDbBlockTableRecord
  2
*D4
340
0
  0
BLOCK_RECORD
  5
3893
330
1
100
AcDbSymbolTableRecord
100
AcDbBlockTableRecord
  2
*D5
340
0
  0
BLOCK_RECORD
  5
38D6
330
1
100
AcDbSymbolTableRecord
100
AcDbBlockTableRecord
  2
*D6
340
0
  0
BLOCK_RECORD
  5
39EE
330
1
100
AcDbSymbolTableRecord
100
AcDbBlockTableRecord
  2
*D7
340
0
  0
BLOCK_RECORD
  5
39FA
330
1
100
AcDbSymbolTableRecord
100
AcDbBlockTableRecord
  2
*D8
340
0
  0
BLOCK_RECORD
  5
3A06
330
1
100
AcDbSymbolTableRecord
100
AcDbBlockTableRecord
  2
*D9
340
0
  0
BLOCK_RECORD
  5
3A12
330
1
100
AcDbSymbolTableRecord
100
AcDbBlockTableRecord
  2
*D10
340
0
  0
BLOCK_RECORD
  5
3A20
330
1
100
AcDbSymbolTableRecord
100
AcDbBlockTableRecord
  2
*D11
340
0
  0
BLOCK_RECORD
  5
3AEF
330
1
100
AcDbSymbolTableRecord
100
AcDbBlockTableRecord
  2
*D12
340
0
  0
BLOCK_RECORD
  5
3B09
330
1
100
AcDbSymbolTableRecord
100
AcDbBlockTableRecord
  2
*D13
340
0
  0
BLOCK_RECORD
  5
3B15
330
1
100
AcDbSymbolTableRecord
100
AcDbBlockTableRecord
  2
*D14
340
0
  0
BLOCK_RECORD
  5
3B21
330
1
100
AcDbSymbolTableRecord
100
AcDbBlockTableRecord
  2
*D15
340
0
  0
BLOCK_RECORD
  5
3B2D
330
1
100
AcDbSymbolTableRecord
100
AcDbBlockTableRecord
  2
*D16
340
0
  0
BLOCK_RECORD
  5
3B39
330
1
100
AcDbSymbolTableRecord
100
AcDbBlockTableRecord
  2
*D17
340
0
  0
BLOCK_RECORD
  5
3B9A
330
1
100
AcDbSymbolTableRecord
100
AcDbBlockTableRecord
  2
*D18
340
0
  0
BLOCK_RECORD
  5
3BBF
330
1
100
AcDbSymbolTableRecord
100
AcDbBlockTableRecord
  2
*D19
340
0
  0
BLOCK_RECORD
  5
3BC8
330
1
100
AcDbSymbolTableRecord
100
AcDbBlockTableRecord
  2
*D20
340
0
  0
BLOCK_RECORD
  5
3BE2
330
1
100
AcDbSymbolTableRecord
100
AcDbBlockTableRecord
  2
*D21
340
0
  0
BLOCK_RECORD
  5
3BEF
330
1
100
AcDbSymbolTableRecord
100
AcDbBlockTableRecord
  2
*D22
340
0
  0
BLOCK_RECORD
  5
3BFE
330
1
100
AcDbSymbolTableRecord
100
AcDbBlockTableRecord
  2
*D23
340
0
  0
BLOCK_RECORD
  5
3C0B
330
1
100
AcDbSymbolTableRecord
100
AcDbBlockTableRecord
  2
*D24
340
0
  0
BLOCK_RECORD
  5
3C62
330
1
100
AcDbSymbolTableRecord
100
AcDbBlockTableRecord
  2
*D25
340
0
  0
BLOCK_RECORD
  5
3C81
330
1
100
AcDbSymbolTableRecord
100
AcDbBlockTableRecord
  2
*D26
340
0
  0
BLOCK_RECORD
  5
3CD6
330
1
100
AcDbSymbolTableRecord
100
AcDbBlockTableRecord
  2
*D27
340
0
  0
BLOCK_RECORD
  5
3F82
330
1
100
AcDbSymbolTableRecord
100
AcDbBlockTableRecord
  2
*D28
340
0
  0
BLOCK_RECORD
  5
3F8F
330
1
100
AcDbSymbolTableRecord
100
AcDbBlockTableRecord
  2
*D29
340
0
  0
BLOCK_RECORD
  5
3FA9
330
1
100
AcDbSymbolTableRecord
100
AcDbBlockTableRecord
  2
*D30
340
0
  0
BLOCK_RECORD
  5
3FB6
330
1
100
AcDbSymbolTableRecord
100
AcDbBlockTableRecord
  2
*D31
340
0
  0
BLOCK_RECORD
  5
3FC7
330
1
100
AcDbSymbolTableRecord
100
AcDbBlockTableRecord
  2
*D32
340
0
  0
BLOCK_RECORD
  5
3FD4
330
1
100
AcDbSymbolTableRecord
100
AcDbBlockTableRecord
  2
*D33
340
0
  0
BLOCK_RECORD
  5
43A1
330
1
100
AcDbSymbolTableRecord
100
AcDbBlockTableRecord
  2
*D34
340
0
  0
BLOCK_RECORD
  5
43AA
330
1
100
AcDbSymbolTableRecord
100
AcDbBlockTableRecord
  2
*D35
340
0
  0
BLOCK_RECORD
  5
5750
330
1
100
AcDbSymbolTableRecord
100
AcDbBlockTableRecord
  2
*D36
340
0
  0
BLOCK_RECORD
  5
5759
330
1
100
AcDbSymbolTableRecord
100
AcDbBlockTableRecord
  2
*D37
340
0
  0
BLOCK_RECORD
  5
577F
330
1
100
AcDbSymbolTableRecord
100
AcDbBlockTableRecord
  2
*D38
340
0
  0
BLOCK_RECORD
  5
57B2
330
1
100
AcDbSymbolTableRecord
100
AcDbBlockTableRecord
  2
*D39
340
0
  0
BLOCK_RECORD
  5
57C8
330
1
100
AcDbSymbolTableRecord
100
AcDbBlockTableRecord
  2
*D40
340
0
  0
BLOCK_RECORD
  5
588B
330
1
100
AcDbSymbolTableRecord
100
AcDbBlockTableRecord
  2
*D41
340
0
  0
BLOCK_RECORD
  5
5898
330
1
100
AcDbSymbolTableRecord
100
AcDbBlockTableRecord
  2
*D42
340
0
  0
BLOCK_RECORD
  5
58B2
330
1
100
AcDbSymbolTableRecord
100
AcDbBlockTableRecord
  2
*D43
340
0
  0
BLOCK_RECORD
  5
58BF
330
1
100
AcDbSymbolTableRecord
100
AcDbBlockTableRecord
  2
*D44
340
0
  0
BLOCK_RECORD
  5
58CC
330
1
100
AcDbSymbolTableRecord
100
AcDbBlockTableRecord
  2
*D45
340
0
  0
BLOCK_RECORD
  5
58D9
330
1
100
AcDbSymbolTableRecord
100
AcDbBlockTableRecord
  2
*D46
340
0
  0
BLOCK_RECORD
  5
5907
330
1
100
AcDbSymbolTableRecord
100
AcDbBlockTableRecord
  2
*D47
340
0
  0
BLOCK_RECORD
  5
5921
330
1
100
AcDbSymbolTableRecord
100
AcDbBlockTableRecord
  2
*D48
340
0
  0
BLOCK_RECORD
  5
599B
330
1
100
AcDbSymbolTableRecord
100
AcDbBlockTableRecord
  2
*D49
340
0
  0
ENDTAB
  0
ENDSEC
  0
SECTION
  2
BLOCKS
  0
BLOCK
  5
3
330
2
100
AcDbEntity
  8
0
100
AcDbBlockBegin
  2
*Model_Space
 70
     2
 10
0.0
 20
0.0
 30
0.0
  3
*Model_Space
  1

  0
ENDBLK
  5
9
330
2
100
AcDbEntity
  8
0
100
AcDbBlockEnd
  0
BLOCK
  5
D
330
C
100
AcDbEntity
 67
     1
  8
0
100
AcDbBlockBegin
  2
*Paper_Space
 70
     0
 10
0.0
 20
0.0
 30
0.0
  3
*Paper_Space
  1

  0
ENDBLK
  5
E
330
C
100
AcDbEntity
 67
     1
  8
0
100
AcDbBlockEnd
  0
BLOCK
  5
30
330
2C
100
AcDbEntity
  8
0
100
AcDbBlockBegin
  2
_Open30
 70
     0
 10
0.0
 20
0.0
 30
0.0
  3
_Open30
  1

  0
LINE
  5
2D
330
2C
100
AcDbEntity
  8
0
 62
     0
370
    -2
380
     1
100
AcDbLine
 10
-1.0
 20
0.26794919
 30
0.0
 11
0.0
 21
0.0
 31
0.0
  0
LINE
  5
2E
330
2C
100
AcDbEntity
  8
0
 62
     0
370
    -2
380
     1
100
AcDbLine
 10
0.0
 20
0.0
 30
0.0
 11
-1.0
 21
-0.26794919
 31
0.0
  0
LINE
  5
2F
330
2C
100
AcDbEntity
  8
0
 62
     0
370
    -2
380
     1
100
AcDbLine
 10
0.0
 20
0.0
 30
0.0
 11
-1.0
 21
0.0
 31
0.0
  0
ENDBLK
  5
31
330
2C
100
AcDbEntity
  8
0
100
AcDbBlockEnd
  0
BLOCK
  5
1F0
330
1EE
100
AcDbEntity
  8
0
 62
     6
100
AcDbBlockBegin
  2
_DotSmall
 70
     0
 10
0.0
 20
0.0
 30
0.0
  3
_DotSmall
  1

  0
LWPOLYLINE
  5
1EF
330
1EE
100
AcDbEntity
  8
0
  6
ByBlock
 62
     0
100
AcDbPolyline
 90
        2
 70
     1
 43
0.5
 10
-0.0625
 20
0.0
 42
1.0
 10
0.0625
 20
0.0
 42
1.0
  0
ENDBLK
  5
1F1
330
1EE
100
AcDbEntity
  8
0
 62
     6
100
AcDbBlockEnd
  0
BLOCK
  5
54
330
51
100
AcDbEntity
  8
0
100
AcDbBlockBegin
  2
_Dot
 70
     0
 10
0.0
 20
0.0
 30
0.0
  3
_Dot
  1

  0
LWPOLYLINE
  5
52
330
51
100
AcDbEntity
  8
0
  6
ByBlock
 62
     0
100
AcDbPolyline
 90
        2
 70
     1
 43
0.5
 10
-0.25
 20
0.0
 42
1.0
 10
0.25
 20
0.0
 42
1.0
  0
LINE
  5
53
330
51
100
AcDbEntity
  8
0
  6
ByBlock
 62
     0
370
    -2
100
AcDbLine
 10
-0.5
 20
0.0
 30
0.0
 11
-1.0
 21
0.0
 31
0.0
  0
ENDBLK
  5
55
330
51
100
AcDbEntity
  8
0
100
AcDbBlockEnd
  0
BLOCK
  5
3879
330
386F
100
AcDbEntity
  8
0
100
AcDbBlockBegin
  2
*D3
 70
     1
 10
0.0
 20
0.0
 30
0.0
  3
*D3
  1

  0
LINE
  5
5B0B
330
386F
100
AcDbEntity
  8
AM_5
100
AcDbLine
 10
2898.192031226169
 20
1046.869800648287
 30
0.0
 11
2898.192031226169
 21
880.5455890951339
 31
0.0
  0
LINE
  5
5B0C
330
386F
100
AcDbEntity
  8
AM_5
100
AcDbLine
 10
3064.39203122617
 20
940.2702315187594
 30
0.0
 11
3064.39203122617
 21
880.5455890951339
 31
0.0
  0
LINE
  5
5B0D
330
386F
100
AcDbEntity
  8
AM_5
100
AcDbLine
 10
2906.192031226169
 20
884.5455890951338
 30
0.0
 11
3056.39203122617
 21
884.5455890951338
 31
0.0
  0
INSERT
  5
5B0E
330
386F
100
AcDbEntity
  8
AM_5
100
AcDbBlockReference
  2
_Open30
 10
2898.192031226169
 20
884.5455890951338
 30
0.0
 41
8.0
 42
8.0
 43
8.0
 50
180.0
  0
INSERT
  5
5B0F
330
386F
100
AcDbEntity
  8
AM_5
100
AcDbBlockReference
  2
_Open30
 10
3064.39203122617
 20
884.5455890951338
 30
0.0
 41
8.0
 42
8.0
 43
8.0
  0
MTEXT
  5
5B10
330
386F
100
AcDbEntity
  8
AM_5
 62
     2
100
AcDbMText
 10
2981.292031226169
 20
893.5811220900577
 30
0.0
 40
14.0
 41
0.0
 71
     5
 72
     1
  1
166.2 diam.
  7
スタイル１
 73
     1
 44
1.0
  0
POINT
  5
5B11
330
386F
100
AcDbEntity
  8
Defpoints
 62
     0
100
AcDbPoint
 10
2898.192031226169
 20
1050.869800648287
 30
0.0
  0
POINT
  5
5B12
330
386F
100
AcDbEntity
  8
Defpoints
 62
     0
100
AcDbPoint
 10
3064.39203122617
 20
944.2702315187593
 30
0.0
  0
POINT
  5
5B13
330
386F
100
AcDbEntity
  8
Defpoints
 62
     0
100
AcDbPoint
 10
3064.39203122617
 20
884.5455890951338
 30
0.0
  0
ENDBLK
  5
387A
330
386F
100
AcDbEntity
  8
0
100
AcDbBlockEnd
  0
BLOCK
  5
3886
330
387C
100
AcDbEntity
  8
0
100
AcDbBlockBegin
  2
*D4
 70
     1
 10
0.0
 20
0.0
 30
0.0
  3
*D4
  1

  0
LINE
  5
5B02
330
387C
100
AcDbEntity
  8
AM_5
100
AcDbLine
 10
2881.972909279557
 20
1078.790616670728
 30
0.0
 11
2959.940394108028
 21
1200.925612550651
 31
0.0
  0
LINE
  5
5B03
330
387C
100
AcDbEntity
  8
AM_5
100
AcDbLine
 10
3101.12537835428
 20
938.8899544190683
 30
0.0
 11
3179.092863182749
 21
1061.024950298992
 31
0.0
  0
LINE
  5
5B04
330
387C
100
AcDbEntity
  8
AM_5
100
AcDbLine
 10
2964.53122912184
 20
1193.249400341758
 30
0.0
 11
3170.197392407348
 21
1061.958009613277
 31
0.0
  0
INSERT
  5
5B05
330
387C
100
AcDbEntity
  8
AM_5
100
AcDbBlockReference
  2
_Open30
 10
2957.788076227233
 20
1197.554036103348
 30
0.0
 41
8.0
 42
8.0
 43
8.0
 50
147.4470044805551
  0
INSERT
  5
5B06
330
387C
100
AcDbEntity
  8
AM_5
100
AcDbBlockReference
  2
_Open30
 10
3176.940545301954
 20
1057.653373851688
 30
0.0
 41
8.0
 42
8.0
 43
8.0
 50
327.4470044805551
  0
MTEXT
  5
5B07
330
387C
100
AcDbEntity
  8
AM_5
 62
     2
100
AcDbMText
 10
3072.226145571465
 20
1135.219702536147
 30
0.0
 40
14.0
 41
0.0
 71
     5
 72
     1
  1
260 diam.
  7
スタイル１
 11
0.8428941118258535
 21
-0.5380794701986922
 31
0.0
 73
     1
 44
1.0
  0
POINT
  5
5B08
330
387C
100
AcDbEntity
  8
Defpoints
 62
     0
100
AcDbPoint
 10
2879.820591398763
 20
1075.419040223424
 30
0.0
  0
POINT
  5
5B09
330
387C
100
AcDbEntity
  8
Defpoints
 62
     0
100
AcDbPoint
 10
3098.973060473485
 20
935.5183779717652
 30
0.0
  0
POINT
  5
5B0A
330
387C
100
AcDbEntity
  8
Defpoints
 62
     0
100
AcDbPoint
 10
3176.940545301954
 20
1057.653373851688
 30
0.0
  0
ENDBLK
  5
3887
330
387C
100
AcDbEntity
  8
0
100
AcDbBlockEnd
  0
BLOCK
  5
389F
330
3893
100
AcDbEntity
  8
0
100
AcDbBlockBegin
  2
*D5
 70
     1
 10
0.0
 20
0.0
 30
0.0
  3
*D5
  1

  0
LINE
  5
3E99
330
3893
100
AcDbEntity
  8
AM_5
100
AcDbLine
 10
3102.557961701593
 20
933.7439814025886
 30
0.0
 11
3161.606994223948
 21
904.5168440133446
 31
0.0
  0
LINE
  5
3E9A
330
3893
100
AcDbEntity
  8
AM_5
100
AcDbLine
 10
3099.009168563242
 20
926.5741789463707
 30
0.0
 11
3158.058201085597
 21
897.3470415571267
 31
0.0
  0
LINE
  5
3E9B
330
3893
100
AcDbEntity
  8
AM_5
100
AcDbLine
 10
3161.57088613419
 20
913.4610430387382
 30
0.0
 11
3165.119679272542
 21
920.6308454949564
 31
0.0
  0
LINE
  5
3E9C
330
3893
100
AcDbEntity
  8
AM_5
100
AcDbLine
 10
3150.924506719136
 20
891.9516356700842
 30
0.0
 11
3138.256035782356
 21
866.3568966988391
 31
0.0
  0
LINE
  5
3E9D
330
3893
100
AcDbEntity
  8
AM_5
100
AcDbLine
 10
3158.022092995839
 20
906.2912405825201
 30
0.0
 11
3154.473299857488
 21
899.1214381263024
 31
0.0
  0
INSERT
  5
3E9E
330
3893
100
AcDbEntity
  8
AM_5
100
AcDbBlockReference
  2
_Open30
 10
3158.022092995839
 20
906.2912405825201
 30
0.0
 41
8.0
 42
8.0
 43
8.0
 50
243.666252923436
  0
INSERT
  5
3E9F
330
3893
100
AcDbEntity
  8
AM_5
100
AcDbBlockReference
  2
_Open30
 10
3154.473299857488
 20
899.1214381263024
 30
0.0
 41
8.0
 42
8.0
 43
8.0
 50
63.66625292343603
  0
MTEXT
  5
3EA0
330
3893
100
AcDbEntity
  8
AM_5
 62
     2
100
AcDbMText
 10
3134.749846918325
 20
879.5617572369978
 30
0.0
 40
14.0
 41
0.0
 71
     5
 72
     1
  1
t8
  7
スタイル１
 11
0.4435991422939273
 21
0.896225307027252
 31
0.0
 73
     1
 44
1.0
  0
POINT
  5
3EA1
330
3893
100
AcDbEntity
  8
Defpoints
 62
     0
100
AcDbPoint
 10
3098.973060473484
 20
935.5183779717643
 30
0.0
  0
POINT
  5
3EA2
330
3893
100
AcDbEntity
  8
Defpoints
 62
     0
100
AcDbPoint
 10
3095.424267335133
 20
928.3485755155464
 30
0.0
  0
POINT
  5
3EA3
330
3893
100
AcDbEntity
  8
Defpoints
 62
     0
100
AcDbPoint
 10
3154.473299857488
 20
899.1214381263024
 30
0.0
  0
ENDBLK
  5
38A0
330
3893
100
AcDbEntity
  8
0
100
AcDbBlockEnd
  0
BLOCK
  5
38E0
330
38D6
100
AcDbEntity
  8
0
100
AcDbBlockBegin
  2
*D6
 70
     1
 10
0.0
 20
0.0
 30
0.0
  3
*D6
  1

  0
LINE
  5
5AF9
330
38D6
100
AcDbEntity
  8
AM_5
100
AcDbLine
 10
2460.539478683092
 20
1045.874578035946
 30
0.0
 11
2460.539478683092
 21
1119.31701788685
 31
0.0
  0
LINE
  5
5AFA
330
38D6
100
AcDbEntity
  8
AM_5
100
AcDbLine
 10
2625.739478683093
 20
938.9118271907598
 30
0.0
 11
2625.739478683093
 21
1119.31701788685
 31
0.0
  0
LINE
  5
5AFB
330
38D6
100
AcDbEntity
  8
AM_5
100
AcDbLine
 10
2468.539478683091
 20
1115.31701788685
 30
0.0
 11
2617.739478683093
 21
1115.31701788685
 31
0.0
  0
INSERT
  5
5AFC
330
38D6
100
AcDbEntity
  8
AM_5
100
AcDbBlockReference
  2
_Open30
 10
2460.539478683092
 20
1115.31701788685
 30
0.0
 41
8.0
 42
8.0
 43
8.0
 50
180.0
  0
INSERT
  5
5AFD
330
38D6
100
AcDbEntity
  8
AM_5
100
AcDbBlockReference
  2
_Open30
 10
2625.739478683093
 20
1115.31701788685
 30
0.0
 41
8.0
 42
8.0
 43
8.0
  0
MTEXT
  5
5AFE
330
38D6
100
AcDbEntity
  8
AM_5
 62
     2
100
AcDbMText
 10
2543.139478683092
 20
1124.352550881774
 30
0.0
 40
14.0
 41
0.0
 71
     5
 72
     1
  1
165.2 diam.
  7
スタイル１
 73
     1
 44
1.0
  0
POINT
  5
5AFF
330
38D6
100
AcDbEntity
  8
Defpoints
 62
     0
100
AcDbPoint
 10
2460.539478683092
 20
1041.874578035946
 30
0.0
  0
POINT
  5
5B00
330
38D6
100
AcDbEntity
  8
Defpoints
 62
     0
100
AcDbPoint
 10
2625.739478683093
 20
934.9118271907597
 30
0.0
  0
POINT
  5
5B01
330
38D6
100
AcDbEntity
  8
Defpoints
 62
     0
100
AcDbPoint
 10
2625.739478683093
 20
1115.31701788685
 30
0.0
  0
ENDBLK
  5
38E1
330
38D6
100
AcDbEntity
  8
0
100
AcDbBlockEnd
  0
BLOCK
  5
39F8
330
39EE
100
AcDbEntity
  8
0
100
AcDbBlockBegin
  2
*D7
 70
     1
 10
0.0
 20
0.0
 30
0.0
  3
*D7
  1

  0
LINE
  5
579B
330
39EE
100
AcDbEntity
  8
AM_5
100
AcDbLine
 10
1841.208058167172
 20
1611.033497322392
 30
0.0
 11
1841.208058167172
 21
1717.389794619429
 31
0.0
  0
LINE
  5
579C
330
39EE
100
AcDbEntity
  8
AM_5
100
AcDbLine
 10
2081.208058167172
 20
1611.033497322392
 30
0.0
 11
2081.208058167172
 21
1717.389794619429
 31
0.0
  0
LINE
  5
579D
330
39EE
100
AcDbEntity
  8
AM_5
100
AcDbLine
 10
1849.208058167172
 20
1713.389794619429
 30
0.0
 11
2073.208058167173
 21
1713.389794619429
 31
0.0
  0
INSERT
  5
579E
330
39EE
100
AcDbEntity
  8
AM_5
100
AcDbBlockReference
  2
_Open30
 10
1841.208058167172
 20
1713.389794619429
 30
0.0
 41
8.0
 42
8.0
 43
8.0
 50
180.0
  0
INSERT
  5
579F
330
39EE
100
AcDbEntity
  8
AM_5
100
AcDbBlockReference
  2
_Open30
 10
2081.208058167172
 20
1713.389794619429
 30
0.0
 41
8.0
 42
8.0
 43
8.0
  0
MTEXT
  5
57A0
330
39EE
100
AcDbEntity
  8
AM_5
 62
     2
100
AcDbMText
 10
1961.208058167172
 20
1722.389794619429
 30
0.0
 40
14.0
 41
0.0
 71
     5
 72
     1
  1
P.C.D.240
  7
スタイル１
 73
     1
 44
1.0
  0
POINT
  5
57A1
330
39EE
100
AcDbEntity
  8
Defpoints
 62
     0
100
AcDbPoint
 10
1841.208058167172
 20
1607.033497322392
 30
0.0
  0
POINT
  5
57A2
330
39EE
100
AcDbEntity
  8
Defpoints
 62
     0
100
AcDbPoint
 10
2081.208058167172
 20
1607.033497322392
 30
0.0
  0
POINT
  5
57A3
330
39EE
100
AcDbEntity
  8
Defpoints
 62
     0
100
AcDbPoint
 10
2081.208058167172
 20
1713.389794619429
 30
0.0
  0
ENDBLK
  5
39F9
330
39EE
100
AcDbEntity
  8
0
100
AcDbBlockEnd
  0
BLOCK
  5
3A04
330
39FA
100
AcDbEntity
  8
0
100
AcDbBlockBegin
  2
*D8
 70
     1
 10
0.0
 20
0.0
 30
0.0
  3
*D8
  1

  0
LINE
  5
5A83
330
39FA
100
AcDbEntity
  8
AM_5
100
AcDbLine
 10
1821.208058167172
 20
1580.033497322392
 30
0.0
 11
1821.208058167172
 21
1754.057579903709
 31
0.0
  0
LINE
  5
5A84
330
39FA
100
AcDbEntity
  8
AM_5
100
AcDbLine
 10
2101.208058167172
 20
1580.033497322392
 30
0.0
 11
2101.208058167172
 21
1754.057579903709
 31
0.0
  0
LINE
  5
5A85
330
39FA
100
AcDbEntity
  8
AM_5
100
AcDbLine
 10
1829.208058167172
 20
1750.057579903709
 30
0.0
 11
2093.208058167172
 21
1750.057579903709
 31
0.0
  0
INSERT
  5
5A86
330
39FA
100
AcDbEntity
  8
AM_5
100
AcDbBlockReference
  2
_Open30
 10
1821.208058167172
 20
1750.057579903709
 30
0.0
 41
8.0
 42
8.0
 43
8.0
 50
180.0
  0
INSERT
  5
5A87
330
39FA
100
AcDbEntity
  8
AM_5
100
AcDbBlockReference
  2
_Open30
 10
2101.208058167172
 20
1750.057579903709
 30
0.0
 41
8.0
 42
8.0
 43
8.0
  0
MTEXT
  5
5A88
330
39FA
100
AcDbEntity
  8
AM_5
 62
     2
100
AcDbMText
 10
1961.208058167172
 20
1759.093112898633
 30
0.0
 40
14.0
 41
0.0
 71
     5
 72
     1
  1
280 diam.
  7
スタイル１
 73
     1
 44
1.0
  0
POINT
  5
5A89
330
39FA
100
AcDbEntity
  8
Defpoints
 62
     0
100
AcDbPoint
 10
1821.208058167172
 20
1576.033497322392
 30
0.0
  0
POINT
  5
5A8A
330
39FA
100
AcDbEntity
  8
Defpoints
 62
     0
100
AcDbPoint
 10
2101.208058167172
 20
1576.033497322392
 30
0.0
  0
POINT
  5
5A8B
330
39FA
100
AcDbEntity
  8
Defpoints
 62
     0
100
AcDbPoint
 10
2101.208058167172
 20
1750.057579903709
 30
0.0
  0
ENDBLK
  5
3A05
330
39FA
100
AcDbEntity
  8
0
100
AcDbBlockEnd
  0
BLOCK
  5
3A10
330
3A06
100
AcDbEntity
  8
0
100
AcDbBlockBegin
  2
*D9
 70
     1
 10
0.0
 20
0.0
 30
0.0
  3
*D9
  1

  0
LINE
  5
5ABA
330
3A06
100
AcDbEntity
  8
AM_5
100
AcDbLine
 10
1913.708058167172
 20
1600.033497322392
 30
0.0
 11
1913.708058167172
 21
1642.057017266287
 31
0.0
  0
LINE
  5
5ABB
330
3A06
100
AcDbEntity
  8
AM_5
100
AcDbLine
 10
2008.708058167172
 20
1600.033497322392
 30
0.0
 11
2008.708058167172
 21
1642.057017266287
 31
0.0
  0
LINE
  5
5ABC
330
3A06
100
AcDbEntity
  8
AM_5
100
AcDbLine
 10
1921.708058167172
 20
1638.057017266287
 30
0.0
 11
2000.708058167172
 21
1638.057017266287
 31
0.0
  0
INSERT
  5
5ABD
330
3A06
100
AcDbEntity
  8
AM_5
100
AcDbBlockReference
  2
_Open30
 10
1913.708058167172
 20
1638.057017266287
 30
0.0
 41
8.0
 42
8.0
 43
8.0
 50
180.0
  0
INSERT
  5
5ABE
330
3A06
100
AcDbEntity
  8
AM_5
100
AcDbBlockReference
  2
_Open30
 10
2008.708058167172
 20
1638.057017266287
 30
0.0
 41
8.0
 42
8.0
 43
8.0
  0
MTEXT
  5
5ABF
330
3A06
100
AcDbEntity
  8
AM_5
 62
     2
100
AcDbMText
 10
1961.208058167172
 20
1657.447753306896
 30
0.0
 40
14.0
 41
0.0
 71
     5
 72
     1
  1
95{\H9.940000;\S 0.0^ -0.2;}\Pdiam.
  7
スタイル１
 73
     1
 44
0.75
  0
POINT
  5
5AC0
330
3A06
100
AcDbEntity
  8
Defpoints
 62
     0
100
AcDbPoint
 10
1913.708058167172
 20
1596.033497322392
 30
0.0
  0
POINT
  5
5AC1
330
3A06
100
AcDbEntity
  8
Defpoints
 62
     0
100
AcDbPoint
 10
2008.708058167172
 20
1596.033497322392
 30
0.0
  0
POINT
  5
5AC2
330
3A06
100
AcDbEntity
  8
Defpoints
 62
     0
100
AcDbPoint
 10
2008.708058167172
 20
1638.057017266287
 30
0.0
  0
ENDBLK
  5
3A11
330
3A06
100
AcDbEntity
  8
0
100
AcDbBlockEnd
  0
BLOCK
  5
3A1E
330
3A12
100
AcDbEntity
  8
0
100
AcDbBlockBegin
  2
*D10
 70
     1
 10
0.0
 20
0.0
 30
0.0
  3
*D10
  1

  0
LINE
  5
415C
330
3A12
100
AcDbEntity
  8
AM_5
100
AcDbLine
 10
2105.208058167173
 20
1554.033497322392
 30
0.0
 11
2189.152192145184
 21
1554.033497322392
 31
0.0
  0
LINE
  5
415D
330
3A12
100
AcDbEntity
  8
AM_5
100
AcDbLine
 10
2105.208058167173
 20
1576.033497322392
 30
0.0
 11
2189.152192145184
 21
1576.033497322392
 31
0.0
  0
LINE
  5
415E
330
3A12
100
AcDbEntity
  8
AM_5
100
AcDbLine
 10
2185.152192145184
 20
1546.033497322392
 30
0.0
 11
2185.152192145184
 21
1538.033497322392
 31
0.0
  0
LINE
  5
415F
330
3A12
100
AcDbEntity
  8
AM_5
100
AcDbLine
 10
2185.152192145184
 20
1576.033497322392
 30
0.0
 11
2185.152192145184
 21
1584.033497322392
 31
0.0
  0
MTEXT
  5
4160
330
3A12
100
AcDbEntity
  8
AM_5
 62
     2
100
AcDbMText
 10
2173.854119540718
 20
1537.081446647179
 30
0.0
 40
14.0
 41
0.0
 71
     5
 72
     1
  1
22
  7
スタイル１
 11
0.0000000000000001
 21
1.0
 31
0.0
 73
     1
 44
1.0
  0
LINE
  5
4161
330
3A12
100
AcDbEntity
  8
AM_5
100
AcDbLine
 10
2185.152192145184
 20
1554.033497322392
 30
0.0
 11
2185.152192145184
 21
1576.033497322392
 31
0.0
  0
INSERT
  5
4162
330
3A12
100
AcDbEntity
  8
AM_5
100
AcDbBlockReference
  2
_Open30
 10
2185.152192145184
 20
1554.033497322392
 30
0.0
 41
8.0
 42
8.0
 43
8.0
 50
90.0
  0
INSERT
  5
4163
330
3A12
100
AcDbEntity
  8
AM_5
100
AcDbBlockReference
  2
_DotSmall
 10
2185.152192145184
 20
1576.033497322392
 30
0.0
 41
8.0
 42
8.0
 43
8.0
 50
270.0
  0
POINT
  5
4164
330
3A12
100
AcDbEntity
  8
Defpoints
 62
     0
100
AcDbPoint
 10
2101.208058167172
 20
1554.033497322392
 30
0.0
  0
POINT
  5
4165
330
3A12
100
AcDbEntity
  8
Defpoints
 62
     0
100
AcDbPoint
 10
2101.208058167172
 20
1576.033497322392
 30
0.0
  0
POINT
  5
4166
330
3A12
100
AcDbEntity
  8
Defpoints
 62
     0
100
AcDbPoint
 10
2185.152192145184
 20
1576.033497322392
 30
0.0
  0
ENDBLK
  5
3A1F
330
3A12
100
AcDbEntity
  8
0
100
AcDbBlockEnd
  0
BLOCK
  5
3A2C
330
3A20
100
AcDbEntity
  8
0
100
AcDbBlockBegin
  2
*D11
 70
     1
 10
0.0
 20
0.0
 30
0.0
  3
*D11
  1

  0
LINE
  5
4151
330
3A20
100
AcDbEntity
  8
AM_5
100
AcDbLine
 10
2105.208058167173
 20
1576.033497322392
 30
0.0
 11
2189.152192145184
 21
1576.033497322392
 31
0.0
  0
LINE
  5
4152
330
3A20
100
AcDbEntity
  8
AM_5
100
AcDbLine
 10
2012.708058167172
 20
1596.033497322392
 30
0.0
 11
2189.152192145184
 21
1596.033497322392
 31
0.0
  0
LINE
  5
4153
330
3A20
100
AcDbEntity
  8
AM_5
100
AcDbLine
 10
2185.152192145184
 20
1576.033497322392
 30
0.0
 11
2185.152192145184
 21
1568.033497322392
 31
0.0
  0
LINE
  5
4154
330
3A20
100
AcDbEntity
  8
AM_5
100
AcDbLine
 10
2185.152192145184
 20
1604.033497322392
 30
0.0
 11
2185.152192145184
 21
1612.033497322392
 31
0.0
  0
MTEXT
  5
4155
330
3A20
100
AcDbEntity
  8
AM_5
 62
     2
100
AcDbMText
 10
2174.984914305276
 20
1612.807688917925
 30
0.0
 40
14.0
 41
0.0
 71
     5
 72
     1
  1
20
  7
スタイル１
 11
0.0000000000000001
 21
1.0
 31
0.0
 73
     1
 44
1.0
  0
LINE
  5
4156
330
3A20
100
AcDbEntity
  8
AM_5
100
AcDbLine
 10
2185.152192145184
 20
1576.033497322392
 30
0.0
 11
2185.152192145184
 21
1596.033497322392
 31
0.0
  0
INSERT
  5
4157
330
3A20
100
AcDbEntity
  8
AM_5
100
AcDbBlockReference
  2
_DotSmall
 10
2185.152192145184
 20
1576.033497322392
 30
0.0
 41
8.0
 42
8.0
 43
8.0
 50
90.0
  0
INSERT
  5
4158
330
3A20
100
AcDbEntity
  8
AM_5
100
AcDbBlockReference
  2
_Open30
 10
2185.152192145184
 20
1596.033497322392
 30
0.0
 41
8.0
 42
8.0
 43
8.0
 50
270.0
  0
POINT
  5
4159
330
3A20
100
AcDbEntity
  8
Defpoints
 62
     0
100
AcDbPoint
 10
2101.208058167172
 20
1576.033497322392
 30
0.0
  0
POINT
  5
415A
330
3A20
100
AcDbEntity
  8
Defpoints
 62
     0
100
AcDbPoint
 10
2008.708058167172
 20
1596.033497322392
 30
0.0
  0
POINT
  5
415B
330
3A20
100
AcDbEntity
  8
Defpoints
 62
     0
100
AcDbPoint
 10
2185.152192145184
 20
1596.033497322392
 30
0.0
  0
ENDBLK
  5
3A2D
330
3A20
100
AcDbEntity
  8
0
100
AcDbBlockEnd
  0
BLOCK
  5
3AF9
330
3AEF
100
AcDbEntity
  8
0
100
AcDbBlockBegin
  2
*D12
 70
     1
 10
0.0
 20
0.0
 30
0.0
  3
*D12
  1

  0
LINE
  5
5AD5
330
3AEF
100
AcDbEntity
  8
AM_5
100
AcDbLine
 10
1833.196604665829
 20
933.4136899151635
 30
0.0
 11
1833.196604665829
 21
1119.31701788685
 31
0.0
  0
LINE
  5
5AD6
330
3AEF
100
AcDbEntity
  8
AM_5
100
AcDbLine
 10
2113.19660466583
 20
933.4136899151635
 30
0.0
 11
2113.19660466583
 21
1119.31701788685
 31
0.0
  0
LINE
  5
5AD7
330
3AEF
100
AcDbEntity
  8
AM_5
100
AcDbLine
 10
1841.19660466583
 20
1115.31701788685
 30
0.0
 11
2105.19660466583
 21
1115.31701788685
 31
0.0
  0
INSERT
  5
5AD8
330
3AEF
100
AcDbEntity
  8
AM_5
100
AcDbBlockReference
  2
_Open30
 10
1833.196604665829
 20
1115.31701788685
 30
0.0
 41
8.0
 42
8.0
 43
8.0
 50
180.0
  0
INSERT
  5
5AD9
330
3AEF
100
AcDbEntity
  8
AM_5
100
AcDbBlockReference
  2
_Open30
 10
2113.19660466583
 20
1115.31701788685
 30
0.0
 41
8.0
 42
8.0
 43
8.0
  0
MTEXT
  5
5ADA
330
3AEF
100
AcDbEntity
  8
AM_5
 62
     2
100
AcDbMText
 10
1973.19660466583
 20
1124.352550881774
 30
0.0
 40
14.0
 41
0.0
 71
     5
 72
     1
  1
280 diam.
  7
スタイル１
 73
     1
 44
1.0
  0
POINT
  5
5ADB
330
3AEF
100
AcDbEntity
  8
Defpoints
 62
     0
100
AcDbPoint
 10
1833.196604665829
 20
929.4136899151636
 30
0.0
  0
POINT
  5
5ADC
330
3AEF
100
AcDbEntity
  8
Defpoints
 62
     0
100
AcDbPoint
 10
2113.19660466583
 20
929.4136899151636
 30
0.0
  0
POINT
  5
5ADD
330
3AEF
100
AcDbEntity
  8
Defpoints
 62
     0
100
AcDbPoint
 10
2113.19660466583
 20
1115.31701788685
 30
0.0
  0
ENDBLK
  5
3AFA
330
3AEF
100
AcDbEntity
  8
0
100
AcDbBlockEnd
  0
BLOCK
  5
3B13
330
3B09
100
AcDbEntity
  8
0
100
AcDbBlockBegin
  2
*D13
 70
     1
 10
0.0
 20
0.0
 30
0.0
  3
*D13
  1

  0
LINE
  5
5ADE
330
3B09
100
AcDbEntity
  8
AM_5
100
AcDbLine
 10
1890.196604665829
 20
933.4136899151635
 30
0.0
 11
1890.196604665829
 21
1052.230648027497
 31
0.0
  0
LINE
  5
5ADF
330
3B09
100
AcDbEntity
  8
AM_5
100
AcDbLine
 10
2056.196604665829
 20
933.4136899151635
 30
0.0
 11
2056.196604665829
 21
1052.230648027497
 31
0.0
  0
LINE
  5
5AE0
330
3B09
100
AcDbEntity
  8
AM_5
100
AcDbLine
 10
1898.19660466583
 20
1048.230648027497
 30
0.0
 11
2048.19660466583
 21
1048.230648027497
 31
0.0
  0
INSERT
  5
5AE1
330
3B09
100
AcDbEntity
  8
AM_5
100
AcDbBlockReference
  2
_Open30
 10
1890.196604665829
 20
1048.230648027497
 30
0.0
 41
8.0
 42
8.0
 43
8.0
 50
180.0
  0
INSERT
  5
5AE2
330
3B09
100
AcDbEntity
  8
AM_5
100
AcDbBlockReference
  2
_Open30
 10
2056.196604665829
 20
1048.230648027497
 30
0.0
 41
8.0
 42
8.0
 43
8.0
  0
MTEXT
  5
5AE3
330
3B09
100
AcDbEntity
  8
AM_5
 62
     2
100
AcDbMText
 10
1973.19660466583
 20
1057.266181022421
 30
0.0
 40
14.0
 41
0.0
 71
     5
 72
     1
  1
166 diam.
  7
スタイル１
 73
     1
 44
1.0
  0
POINT
  5
5AE4
330
3B09
100
AcDbEntity
  8
Defpoints
 62
     0
100
AcDbPoint
 10
1890.196604665829
 20
929.4136899151636
 30
0.0
  0
POINT
  5
5AE5
330
3B09
100
AcDbEntity
  8
Defpoints
 62
     0
100
AcDbPoint
 10
2056.196604665829
 20
929.4136899151636
 30
0.0
  0
POINT
  5
5AE6
330
3B09
100
AcDbEntity
  8
Defpoints
 62
     0
100
AcDbPoint
 10
2056.196604665829
 20
1048.230648027497
 30
0.0
  0
ENDBLK
  5
3B14
330
3B09
100
AcDbEntity
  8
0
100
AcDbBlockEnd
  0
BLOCK
  5
3B1F
330
3B15
100
AcDbEntity
  8
0
100
AcDbBlockBegin
  2
*D14
 70
     1
 10
0.0
 20
0.0
 30
0.0
  3
*D14
  1

  0
LINE
  5
5AE7
330
3B15
100
AcDbEntity
  8
AM_5
100
AcDbLine
 10
1885.69660466583
 20
904.413689915164
 30
0.0
 11
1885.69660466583
 21
840.3591801610399
 31
0.0
  0
LINE
  5
5AE8
330
3B15
100
AcDbEntity
  8
AM_5
100
AcDbLine
 10
2060.696604665829
 20
904.4136899151631
 30
0.0
 11
2060.696604665829
 21
840.3591801610399
 31
0.0
  0
LINE
  5
5AE9
330
3B15
100
AcDbEntity
  8
AM_5
100
AcDbLine
 10
1893.696604665829
 20
844.35918016104
 30
0.0
 11
2052.696604665829
 21
844.35918016104
 31
0.0
  0
INSERT
  5
5AEA
330
3B15
100
AcDbEntity
  8
AM_5
100
AcDbBlockReference
  2
_Open30
 10
1885.69660466583
 20
844.35918016104
 30
0.0
 41
8.0
 42
8.0
 43
8.0
 50
180.0
  0
INSERT
  5
5AEB
330
3B15
100
AcDbEntity
  8
AM_5
100
AcDbBlockReference
  2
_Open30
 10
2060.696604665829
 20
844.35918016104
 30
0.0
 41
8.0
 42
8.0
 43
8.0
  0
MTEXT
  5
5AEC
330
3B15
100
AcDbEntity
  8
AM_5
 62
     2
100
AcDbMText
 10
1973.19660466583
 20
853.3947131559639
 30
0.0
 40
14.0
 41
0.0
 71
     5
 72
     1
  1
175 diam.
  7
スタイル１
 73
     1
 44
1.0
  0
POINT
  5
5AED
330
3B15
100
AcDbEntity
  8
Defpoints
 62
     0
100
AcDbPoint
 10
1885.69660466583
 20
908.4136899151641
 30
0.0
  0
POINT
  5
5AEE
330
3B15
100
AcDbEntity
  8
Defpoints
 62
     0
100
AcDbPoint
 10
2060.696604665829
 20
908.413689915163
 30
0.0
  0
POINT
  5
5AEF
330
3B15
100
AcDbEntity
  8
Defpoints
 62
     0
100
AcDbPoint
 10
2060.696604665829
 20
844.35918016104
 30
0.0
  0
ENDBLK
  5
3B20
330
3B15
100
AcDbEntity
  8
0
100
AcDbBlockEnd
  0
BLOCK
  5
3B2B
330
3B21
100
AcDbEntity
  8
0
100
AcDbBlockBegin
  2
*D15
 70
     1
 10
0.0
 20
0.0
 30
0.0
  3
*D15
  1

  0
LINE
  5
5AF0
330
3B21
100
AcDbEntity
  8
AM_5
100
AcDbLine
 10
1880.696604665829
 20
904.4136899151631
 30
0.0
 11
1880.696604665829
 21
805.889639098752
 31
0.0
  0
LINE
  5
5AF1
330
3B21
100
AcDbEntity
  8
AM_5
100
AcDbLine
 10
2065.69660466583
 20
904.413689915164
 30
0.0
 11
2065.69660466583
 21
805.889639098752
 31
0.0
  0
LINE
  5
5AF2
330
3B21
100
AcDbEntity
  8
AM_5
100
AcDbLine
 10
1888.696604665829
 20
809.8896390987519
 30
0.0
 11
2057.696604665829
 21
809.8896390987519
 31
0.0
  0
INSERT
  5
5AF3
330
3B21
100
AcDbEntity
  8
AM_5
100
AcDbBlockReference
  2
_Open30
 10
1880.696604665829
 20
809.8896390987519
 30
0.0
 41
8.0
 42
8.0
 43
8.0
 50
180.0
  0
INSERT
  5
5AF4
330
3B21
100
AcDbEntity
  8
AM_5
100
AcDbBlockReference
  2
_Open30
 10
2065.69660466583
 20
809.8896390987519
 30
0.0
 41
8.0
 42
8.0
 43
8.0
  0
MTEXT
  5
5AF5
330
3B21
100
AcDbEntity
  8
AM_5
 62
     2
100
AcDbMText
 10
1973.19660466583
 20
818.9251720936759
 30
0.0
 40
14.0
 41
0.0
 71
     5
 72
     1
  1
185 diam.
  7
スタイル１
 73
     1
 44
1.0
  0
POINT
  5
5AF6
330
3B21
100
AcDbEntity
  8
Defpoints
 62
     0
100
AcDbPoint
 10
1880.696604665829
 20
908.413689915163
 30
0.0
  0
POINT
  5
5AF7
330
3B21
100
AcDbEntity
  8
Defpoints
 62
     0
100
AcDbPoint
 10
2065.69660466583
 20
908.4136899151641
 30
0.0
  0
POINT
  5
5AF8
330
3B21
100
AcDbEntity
  8
Defpoints
 62
     0
100
AcDbPoint
 10
2065.69660466583
 20
809.8896390987519
 30
0.0
  0
ENDBLK
  5
3B2C
330
3B21
100
AcDbEntity
  8
0
100
AcDbBlockEnd
  0
BLOCK
  5
3B37
330
3B2D
100
AcDbEntity
  8
0
100
AcDbBlockBegin
  2
*D16
 70
     1
 10
0.0
 20
0.0
 30
0.0
  3
*D16
  1

  0
LINE
  5
413D
330
3B2D
100
AcDbEntity
  8
AM_5
100
AcDbLine
 10
2117.196604665829
 20
929.4136899151636
 30
0.0
 11
2189.392851122462
 21
929.4136899151636
 31
0.0
  0
LINE
  5
413E
330
3B2D
100
AcDbEntity
  8
AM_5
100
AcDbLine
 10
2117.196604665829
 20
907.4136899151636
 30
0.0
 11
2189.392851122462
 21
907.4136899151636
 31
0.0
  0
LINE
  5
413F
330
3B2D
100
AcDbEntity
  8
AM_5
100
AcDbLine
 10
2185.392851122462
 20
921.4136899151636
 30
0.0
 11
2185.392851122462
 21
915.4136899151636
 31
0.0
  0
INSERT
  5
4140
330
3B2D
100
AcDbEntity
  8
AM_5
100
AcDbBlockReference
  2
_Open30
 10
2185.392851122462
 20
929.4136899151636
 30
0.0
 41
8.0
 42
8.0
 43
8.0
 50
90.0
  0
INSERT
  5
4141
330
3B2D
100
AcDbEntity
  8
AM_5
100
AcDbBlockReference
  2
_Open30
 10
2185.392851122462
 20
907.4136899151636
 30
0.0
 41
8.0
 42
8.0
 43
8.0
 50
270.0
  0
MTEXT
  5
4142
330
3B2D
100
AcDbEntity
  8
AM_5
 62
     2
100
AcDbMText
 10
2176.392851122463
 20
918.4136899151638
 30
0.0
 40
14.0
 41
0.0
 71
     5
 72
     1
  1
22
  7
スタイル１
 11
0.0000000000000001
 21
1.0
 31
0.0
 73
     1
 44
1.0
  0
POINT
  5
4143
330
3B2D
100
AcDbEntity
  8
Defpoints
 62
     0
100
AcDbPoint
 10
2113.19660466583
 20
929.4136899151636
 30
0.0
  0
POINT
  5
4144
330
3B2D
100
AcDbEntity
  8
Defpoints
 62
     0
100
AcDbPoint
 10
2113.19660466583
 20
907.4136899151636
 30
0.0
  0
POINT
  5
4145
330
3B2D
100
AcDbEntity
  8
Defpoints
 62
     0
100
AcDbPoint
 10
2185.392851122462
 20
907.4136899151636
 30
0.0
  0
ENDBLK
  5
3B38
330
3B2D
100
AcDbEntity
  8
0
100
AcDbBlockEnd
  0
BLOCK
  5
3B43
330
3B39
100
AcDbEntity
  8
0
100
AcDbBlockBegin
  2
*D17
 70
     1
 10
0.0
 20
0.0
 30
0.0
  3
*D17
  1

  0
LINE
  5
4122
330
3B39
100
AcDbEntity
  8
AM_5
100
AcDbLine
 10
1853.19660466583
 20
953.4136899151635
 30
0.0
 11
1853.19660466583
 21
1083.671323781279
 31
0.0
  0
LINE
  5
4123
330
3B39
100
AcDbEntity
  8
AM_5
100
AcDbLine
 10
2093.19660466583
 20
953.4136899151635
 30
0.0
 11
2093.19660466583
 21
1083.671323781279
 31
0.0
  0
LINE
  5
4124
330
3B39
100
AcDbEntity
  8
AM_5
100
AcDbLine
 10
1861.196604665829
 20
1079.671323781279
 30
0.0
 11
2085.19660466583
 21
1079.671323781279
 31
0.0
  0
INSERT
  5
4125
330
3B39
100
AcDbEntity
  8
AM_5
100
AcDbBlockReference
  2
_Open30
 10
1853.19660466583
 20
1079.671323781279
 30
0.0
 41
8.0
 42
8.0
 43
8.0
 50
180.0
  0
INSERT
  5
4126
330
3B39
100
AcDbEntity
  8
AM_5
100
AcDbBlockReference
  2
_Open30
 10
2093.19660466583
 20
1079.671323781279
 30
0.0
 41
8.0
 42
8.0
 43
8.0
  0
MTEXT
  5
4127
330
3B39
100
AcDbEntity
  8
AM_5
 62
     2
100
AcDbMText
 10
1973.19660466583
 20
1088.671323781279
 30
0.0
 40
14.0
 41
0.0
 71
     5
 72
     1
  1
P.C.D.240
  7
スタイル１
 73
     1
 44
1.0
  0
POINT
  5
4128
330
3B39
100
AcDbEntity
  8
Defpoints
 62
     0
100
AcDbPoint
 10
1853.19660466583
 20
949.4136899151635
 30
0.0
  0
POINT
  5
4129
330
3B39
100
AcDbEntity
  8
Defpoints
 62
     0
100
AcDbPoint
 10
2093.19660466583
 20
949.4136899151635
 30
0.0
  0
POINT
  5
412A
330
3B39
100
AcDbEntity
  8
Defpoints
 62
     0
100
AcDbPoint
 10
2093.19660466583
 20
1079.671323781279
 30
0.0
  0
ENDBLK
  5
3B44
330
3B39
100
AcDbEntity
  8
0
100
AcDbBlockEnd
  0
BLOCK
  5
3BA6
330
3B9A
100
AcDbEntity
  8
0
100
AcDbBlockBegin
  2
*D18
 70
     1
 10
0.0
 20
0.0
 30
0.0
  3
*D18
  1

  0
LINE
  5
4064
330
3B9A
100
AcDbEntity
  8
AM_5
100
AcDbLine
 10
2639.275617248069
 20
1863.746603693541
 30
0.0
 11
2695.931936309457
 21
1830.908989266491
 31
0.0
  0
LINE
  5
4065
330
3B9A
100
AcDbEntity
  8
AM_5
100
AcDbLine
 10
2635.765434542632
 20
1857.690316268496
 30
0.0
 11
2692.421753604021
 21
1824.852701841447
 31
0.0
  0
LINE
  5
4066
330
3B9A
100
AcDbEntity
  8
AM_5
100
AcDbLine
 10
2696.482838015644
 20
1839.836279298193
 30
0.0
 11
2700.494475393274
 21
1846.75775064108
 31
0.0
  0
LINE
  5
4067
330
3B9A
100
AcDbEntity
  8
AM_5
100
AcDbLine
 10
2684.949380554948
 20
1819.937049187375
 30
0.0
 11
2670.771195153045
 21
1795.474742474254
 31
0.0
  0
LINE
  5
4068
330
3B9A
100
AcDbEntity
  8
AM_5
100
AcDbLine
 10
2692.471200638014
 20
1832.914807955306
 30
0.0
 11
2688.961017932577
 21
1826.858520530262
 31
0.0
  0
INSERT
  5
4069
330
3B9A
100
AcDbEntity
  8
AM_5
100
AcDbBlockReference
  2
_Open30
 10
2692.471200638014
 20
1832.914807955306
 30
0.0
 41
8.0
 42
8.0
 43
8.0
 50
239.9037129049722
  0
INSERT
  5
406A
330
3B9A
100
AcDbEntity
  8
AM_5
100
AcDbBlockReference
  2
_Open30
 10
2688.961017932577
 20
1826.858520530262
 30
0.0
 41
8.0
 42
8.0
 43
8.0
 50
59.90371290497229
  0
MTEXT
  5
406B
330
3B9A
100
AcDbEntity
  8
AM_5
 62
     2
100
AcDbMText
 10
2668.067813904434
 20
1808.758252209204
 30
0.0
 40
14.0
 41
0.0
 71
     5
 72
     1
  1
t7
  7
スタイル１
 11
0.5014546722037256
 21
0.8651839178608524
 31
0.0
 73
     1
 44
1.0
  0
POINT
  5
406C
330
3B9A
100
AcDbEntity
  8
Defpoints
 62
     0
100
AcDbPoint
 10
2635.814881576625
 20
1865.752422382355
 30
0.0
  0
POINT
  5
406D
330
3B9A
100
AcDbEntity
  8
Defpoints
 62
     0
100
AcDbPoint
 10
2632.304698871188
 20
1859.696134957311
 30
0.0
  0
POINT
  5
406E
330
3B9A
100
AcDbEntity
  8
Defpoints
 62
     0
100
AcDbPoint
 10
2688.961017932577
 20
1826.858520530262
 30
0.0
  0
ENDBLK
  5
3BA7
330
3B9A
100
AcDbEntity
  8
0
100
AcDbBlockEnd
  0
BLOCK
  5
3BC5
330
3BBF
100
AcDbEntity
  8
0
100
AcDbBlockBegin
  2
*D19
 70
     1
 10
0.0
 20
0.0
 30
0.0
  3
*D19
  1

  0
LINE
  5
4030
330
3BBF
100
AcDbEntity
  8
AM_5
100
AcDbLine
 10
2656.174724011462
 20
1981.044326513587
 30
0.0
 11
2602.00790092044
 21
1895.610011237693
 31
0.0
  0
MTEXT
  5
4031
330
3BBF
100
AcDbEntity
  8
AM_5
 62
     2
100
AcDbMText
 10
2635.744306236176
 20
1965.628411359093
 30
0.0
 40
14.0
 41
0.0
 71
     5
 72
     1
  1
R1120
  7
スタイル１
 11
0.5354642207951836
 21
0.8445579129036723
 31
0.0
 73
     1
 44
1.0
  0
INSERT
  5
4032
330
3BBF
100
AcDbEntity
  8
AM_5
100
AcDbBlockReference
  2
_Open30
 10
2597.724187154078
 20
1888.853547934464
 30
0.0
 41
8.0
 42
8.0
 43
8.0
 50
237.6246007985872
  0
POINT
  5
4033
330
3BBF
100
AcDbEntity
  8
Defpoints
 62
     0
100
AcDbPoint
 10
2597.724187154078
 20
1888.853547934464
 30
0.0
  0
POINT
  5
4034
330
3BBF
100
AcDbEntity
  8
Defpoints
 62
     0
100
AcDbPoint
 10
3197.444114444684
 20
2834.758410386577
 30
0.0
  0
ENDBLK
  5
3BC6
330
3BBF
100
AcDbEntity
  8
0
100
AcDbBlockEnd
  0
BLOCK
  5
3BD2
330
3BC8
100
AcDbEntity
  8
0
100
AcDbBlockBegin
  2
*D20
 70
     1
 10
0.0
 20
0.0
 30
0.0
  3
*D20
  1

  0
LINE
  5
5A56
330
3BC8
100
AcDbEntity
  8
AM_5
100
AcDbLine
 10
2467.120274715696
 20
1990.884870676303
 30
0.0
 11
2542.41229312795
 21
2096.535270582468
 31
0.0
  0
LINE
  5
5A57
330
3BC8
100
AcDbEntity
  8
AM_5
100
AcDbLine
 10
2638.136310148053
 20
1869.009870676305
 30
0.0
 11
2713.428328560306
 21
1974.66027058247
 31
0.0
  0
LINE
  5
5A58
330
3BC8
100
AcDbEntity
  8
AM_5
100
AcDbLine
 10
2546.60576114442
 20
2088.634965145661
 30
0.0
 11
2704.592003400978
 21
1976.045679431377
 31
0.0
  0
INSERT
  5
5A59
330
3BC8
100
AcDbEntity
  8
AM_5
100
AcDbBlockReference
  2
_Open30
 10
2540.090864556521
 20
2093.277822288518
 30
0.0
 41
8.0
 42
8.0
 43
8.0
 50
144.5243339138667
  0
INSERT
  5
5A5A
330
3BC8
100
AcDbEntity
  8
AM_5
100
AcDbBlockReference
  2
_Open30
 10
2711.106899988878
 20
1971.40282228852
 30
0.0
 41
8.0
 42
8.0
 43
8.0
 50
324.5243339138667
  0
MTEXT
  5
5A5B
330
3BC8
100
AcDbEntity
  8
AM_5
 62
     2
100
AcDbMText
 10
2630.842718385825
 20
2039.698517673329
 30
0.0
 40
14.0
 41
0.0
 71
     5
 72
     1
  1
210 diam.
  7
スタイル１
 11
0.8143620734874076
 21
-0.5803571428571291
 31
0.0
 73
     1
 44
1.0
  0
POINT
  5
5A5C
330
3BC8
100
AcDbEntity
  8
Defpoints
 62
     0
100
AcDbPoint
 10
2464.798846144268
 20
1987.627422382353
 30
0.0
  0
POINT
  5
5A5D
330
3BC8
100
AcDbEntity
  8
Defpoints
 62
     0
100
AcDbPoint
 10
2635.814881576624
 20
1865.752422382356
 30
0.0
  0
POINT
  5
5A5E
330
3BC8
100
AcDbEntity
  8
Defpoints
 62
     0
100
AcDbPoint
 10
2711.106899988878
 20
1971.40282228852
 30
0.0
  0
ENDBLK
  5
3BD3
330
3BC8
100
AcDbEntity
  8
0
100
AcDbBlockEnd
  0
BLOCK
  5
3BEC
330
3BE2
100
AcDbEntity
  8
0
100
AcDbBlockBegin
  2
*D21
 70
     1
 10
0.0
 20
0.0
 30
0.0
  3
*D21
  1

  0
LINE
  5
5A7A
330
3BE2
100
AcDbEntity
  8
AM_5
100
AcDbLine
 10
2489.944114444683
 20
1872.075590054407
 30
0.0
 11
2489.944114444683
 21
1770.031536597565
 31
0.0
  0
LINE
  5
5A7B
330
3BE2
100
AcDbEntity
  8
AM_5
100
AcDbLine
 10
2604.94411444468
 20
1872.075590054407
 30
0.0
 11
2604.94411444468
 21
1770.031536597565
 31
0.0
  0
LINE
  5
5A7C
330
3BE2
100
AcDbEntity
  8
AM_5
100
AcDbLine
 10
2497.944114444683
 20
1774.031536597565
 30
0.0
 11
2596.944114444681
 21
1774.031536597565
 31
0.0
  0
INSERT
  5
5A7D
330
3BE2
100
AcDbEntity
  8
AM_5
100
AcDbBlockReference
  2
_Open30
 10
2489.944114444683
 20
1774.031536597565
 30
0.0
 41
8.0
 42
8.0
 43
8.0
 50
180.0
  0
INSERT
  5
5A7E
330
3BE2
100
AcDbEntity
  8
AM_5
100
AcDbBlockReference
  2
_Open30
 10
2604.94411444468
 20
1774.031536597565
 30
0.0
 41
8.0
 42
8.0
 43
8.0
  0
MTEXT
  5
5A7F
330
3BE2
100
AcDbEntity
  8
AM_5
 62
     2
100
AcDbMText
 10
2547.444114444681
 20
1783.067069592489
 30
0.0
 40
14.0
 41
0.0
 71
     5
 72
     1
  1
115 diam.
  7
スタイル１
 73
     1
 44
1.0
  0
POINT
  5
5A80
330
3BE2
100
AcDbEntity
  8
Defpoints
 62
     0
100
AcDbPoint
 10
2489.944114444683
 20
1876.075590054407
 30
0.0
  0
POINT
  5
5A81
330
3BE2
100
AcDbEntity
  8
Defpoints
 62
     0
100
AcDbPoint
 10
2604.94411444468
 20
1876.075590054407
 30
0.0
  0
POINT
  5
5A82
330
3BE2
100
AcDbEntity
  8
Defpoints
 62
     0
100
AcDbPoint
 10
2604.94411444468
 20
1774.031536597565
 30
0.0
  0
ENDBLK
  5
3BED
330
3BE2
100
AcDbEntity
  8
0
100
AcDbBlockEnd
  0
BLOCK
  5
3BFB
330
3BEF
100
AcDbEntity
  8
0
100
AcDbBlockBegin
  2
*D22
 70
     1
 10
0.0
 20
0.0
 30
0.0
  3
*D22
  1

  0
LINE
  5
4078
330
3BEF
100
AcDbEntity
  8
AM_5
100
AcDbLine
 10
2489.944114444683
 20
1872.075590054407
 30
0.0
 11
2489.944114444683
 21
1804.277199623174
 31
0.0
  0
LINE
  5
4079
330
3BEF
100
AcDbEntity
  8
AM_5
100
AcDbLine
 10
2499.944114444682
 20
1848.075590054406
 30
0.0
 11
2499.944114444682
 21
1804.277199623174
 31
0.0
  0
LINE
  5
407A
330
3BEF
100
AcDbEntity
  8
AM_5
100
AcDbLine
 10
2507.944114444683
 20
1808.277199623175
 30
0.0
 11
2515.944114444682
 21
1808.277199623175
 31
0.0
  0
LINE
  5
407B
330
3BEF
100
AcDbEntity
  8
AM_5
100
AcDbLine
 10
2481.944114444683
 20
1808.277199623175
 30
0.0
 11
2454.238530688337
 21
1808.277199623175
 31
0.0
  0
LINE
  5
407C
330
3BEF
100
AcDbEntity
  8
AM_5
100
AcDbLine
 10
2499.944114444682
 20
1808.277199623175
 30
0.0
 11
2489.944114444683
 21
1808.277199623175
 31
0.0
  0
INSERT
  5
407D
330
3BEF
100
AcDbEntity
  8
AM_5
100
AcDbBlockReference
  2
_Open30
 10
2499.944114444682
 20
1808.277199623175
 30
0.0
 41
8.0
 42
8.0
 43
8.0
 50
180.0
  0
INSERT
  5
407E
330
3BEF
100
AcDbEntity
  8
AM_5
100
AcDbBlockReference
  2
_Open30
 10
2489.944114444683
 20
1808.277199623175
 30
0.0
 41
8.0
 42
8.0
 43
8.0
  0
MTEXT
  5
407F
330
3BEF
100
AcDbEntity
  8
AM_5
 62
     2
100
AcDbMText
 10
2464.091322566511
 20
1817.277199623174
 30
0.0
 40
14.0
 41
0.0
 71
     5
 72
     1
  1
10
  7
スタイル１
 73
     1
 44
1.0
  0
POINT
  5
4080
330
3BEF
100
AcDbEntity
  8
Defpoints
 62
     0
100
AcDbPoint
 10
2489.944114444683
 20
1876.075590054407
 30
0.0
  0
POINT
  5
4081
330
3BEF
100
AcDbEntity
  8
Defpoints
 62
     0
100
AcDbPoint
 10
2499.944114444682
 20
1852.075590054406
 30
0.0
  0
POINT
  5
4082
330
3BEF
100
AcDbEntity
  8
Defpoints
 62
     0
100
AcDbPoint
 10
2499.944114444682
 20
1808.277199623175
 30
0.0
  0
ENDBLK
  5
3BFC
330
3BEF
100
AcDbEntity
  8
0
100
AcDbBlockEnd
  0
BLOCK
  5
3C08
330
3BFE
100
AcDbEntity
  8
0
100
AcDbBlockBegin
  2
*D23
 70
     1
 10
0.0
 20
0.0
 30
0.0
  3
*D23
  1

  0
LINE
  5
5AB1
330
3BFE
100
AcDbEntity
  8
AM_5
100
AcDbLine
 10
2499.944114444682
 20
1848.075590054406
 30
0.0
 11
2499.944114444682
 21
1804.277199623174
 31
0.0
  0
LINE
  5
5AB2
330
3BFE
100
AcDbEntity
  8
AM_5
100
AcDbLine
 10
2594.94411444469
 20
1848.075590054406
 30
0.0
 11
2594.94411444469
 21
1804.277199623174
 31
0.0
  0
LINE
  5
5AB3
330
3BFE
100
AcDbEntity
  8
AM_5
100
AcDbLine
 10
2507.944114444683
 20
1808.277199623175
 30
0.0
 11
2586.944114444689
 21
1808.277199623175
 31
0.0
  0
INSERT
  5
5AB4
330
3BFE
100
AcDbEntity
  8
AM_5
100
AcDbBlockReference
  2
_Open30
 10
2499.944114444682
 20
1808.277199623175
 30
0.0
 41
8.0
 42
8.0
 43
8.0
 50
180.0
  0
INSERT
  5
5AB5
330
3BFE
100
AcDbEntity
  8
AM_5
100
AcDbBlockReference
  2
_Open30
 10
2594.94411444469
 20
1808.277199623175
 30
0.0
 41
8.0
 42
8.0
 43
8.0
  0
MTEXT
  5
5AB6
330
3BFE
100
AcDbEntity
  8
AM_5
 62
     2
100
AcDbMText
 10
2547.444114444686
 20
1827.667935663784
 30
0.0
 40
14.0
 41
0.0
 71
     5
 72
     1
  1
95{\H9.940000;\S 0.0^ -0.2;}\Pdiam.
  7
スタイル１
 73
     1
 44
0.75
  0
POINT
  5
5AB7
330
3BFE
100
AcDbEntity
  8
Defpoints
 62
     0
100
AcDbPoint
 10
2499.944114444682
 20
1852.075590054406
 30
0.0
  0
POINT
  5
5AB8
330
3BFE
100
AcDbEntity
  8
Defpoints
 62
     0
100
AcDbPoint
 10
2594.94411444469
 20
1852.075590054406
 30
0.0
  0
POINT
  5
5AB9
330
3BFE
100
AcDbEntity
  8
Defpoints
 62
     0
100
AcDbPoint
 10
2594.94411444469
 20
1808.277199623175
 30
0.0
  0
ENDBLK
  5
3C09
330
3BFE
100
AcDbEntity
  8
0
100
AcDbBlockEnd
  0
BLOCK
  5
3C1A
330
3C0B
100
AcDbEntity
  8
0
100
AcDbBlockBegin
  2
*D24
 70
     1
 10
0.0
 20
0.0
 30
0.0
  3
*D24
  1

  0
LINE
  5
4059
330
3C0B
100
AcDbEntity
  8
AM_5
100
AcDbLine
 10
2594.94411444469
 20
1848.075590054406
 30
0.0
 11
2594.94411444469
 21
1804.277199623174
 31
0.0
  0
LINE
  5
405A
330
3C0B
100
AcDbEntity
  8
AM_5
100
AcDbLine
 10
2604.944114444681
 20
1872.075590054407
 30
0.0
 11
2604.944114444681
 21
1804.277199623174
 31
0.0
  0
LINE
  5
405B
330
3C0B
100
AcDbEntity
  8
AM_5
100
AcDbLine
 10
2586.944114444689
 20
1808.277199623175
 30
0.0
 11
2578.94411444469
 21
1808.277199623175
 31
0.0
  0
LINE
  5
405C
330
3C0B
100
AcDbEntity
  8
AM_5
100
AcDbLine
 10
2612.944114444681
 20
1808.277199623175
 30
0.0
 11
2640.649698201027
 21
1808.277199623175
 31
0.0
  0
LINE
  5
405D
330
3C0B
100
AcDbEntity
  8
AM_5
100
AcDbLine
 10
2594.94411444469
 20
1808.277199623175
 30
0.0
 11
2604.944114444681
 21
1808.277199623175
 31
0.0
  0
INSERT
  5
405E
330
3C0B
100
AcDbEntity
  8
AM_5
100
AcDbBlockReference
  2
_Open30
 10
2594.94411444469
 20
1808.277199623175
 30
0.0
 41
8.0
 42
8.0
 43
8.0
  0
INSERT
  5
405F
330
3C0B
100
AcDbEntity
  8
AM_5
100
AcDbBlockReference
  2
_Open30
 10
2604.944114444681
 20
1808.277199623175
 30
0.0
 41
8.0
 42
8.0
 43
8.0
 50
180.0
  0
MTEXT
  5
4060
330
3C0B
100
AcDbEntity
  8
AM_5
 62
     2
100
AcDbMText
 10
2630.796906322854
 20
1817.277199623174
 30
0.0
 40
14.0
 41
0.0
 71
     5
 72
     1
  1
10
  7
スタイル１
 73
     1
 44
1.0
  0
POINT
  5
4061
330
3C0B
100
AcDbEntity
  8
Defpoints
 62
     0
100
AcDbPoint
 10
2594.94411444469
 20
1852.075590054406
 30
0.0
  0
POINT
  5
4062
330
3C0B
100
AcDbEntity
  8
Defpoints
 62
     0
100
AcDbPoint
 10
2604.944114444681
 20
1876.075590054407
 30
0.0
  0
POINT
  5
4063
330
3C0B
100
AcDbEntity
  8
Defpoints
 62
     0
100
AcDbPoint
 10
2604.944114444681
 20
1808.277199623175
 30
0.0
  0
ENDBLK
  5
3C1B
330
3C0B
100
AcDbEntity
  8
0
100
AcDbBlockEnd
  0
BLOCK
  5
3C6C
330
3C62
100
AcDbEntity
  8
0
100
AcDbBlockBegin
  2
*D25
 70
     1
 10
0.0
 20
0.0
 30
0.0
  3
*D25
  1

  0
LINE
  5
5ACC
330
3C62
100
AcDbEntity
  8
AM_5
100
AcDbLine
 10
2933.792031226168
 20
1777.08811943352
 30
0.0
 11
2933.792031226168
 21
1846.878024854795
 31
0.0
  0
LINE
  5
5ACD
330
3C62
100
AcDbEntity
  8
AM_5
100
AcDbLine
 10
3028.792031226167
 20
1777.08811943352
 30
0.0
 11
3028.792031226167
 21
1846.878024854795
 31
0.0
  0
LINE
  5
5ACE
330
3C62
100
AcDbEntity
  8
AM_5
100
AcDbLine
 10
2941.792031226168
 20
1842.878024854795
 30
0.0
 11
3020.792031226168
 21
1842.878024854795
 31
0.0
  0
INSERT
  5
5ACF
330
3C62
100
AcDbEntity
  8
AM_5
100
AcDbBlockReference
  2
_Open30
 10
2933.792031226168
 20
1842.878024854795
 30
0.0
 41
8.0
 42
8.0
 43
8.0
 50
180.0
  0
INSERT
  5
5AD0
330
3C62
100
AcDbEntity
  8
AM_5
100
AcDbBlockReference
  2
_Open30
 10
3028.792031226167
 20
1842.878024854795
 30
0.0
 41
8.0
 42
8.0
 43
8.0
  0
MTEXT
  5
5AD1
330
3C62
100
AcDbEntity
  8
AM_5
 62
     2
100
AcDbMText
 10
2981.292031226168
 20
1862.268760895404
 30
0.0
 40
14.0
 41
0.0
 71
     5
 72
     1
  1
95{\H9.940000;\S 0.0^ -0.2;}\Pdiam.
  7
スタイル１
 73
     1
 44
0.75
  0
POINT
  5
5AD2
330
3C62
100
AcDbEntity
  8
Defpoints
 62
     0
100
AcDbPoint
 10
2933.792031226168
 20
1773.08811943352
 30
0.0
  0
POINT
  5
5AD3
330
3C62
100
AcDbEntity
  8
Defpoints
 62
     0
100
AcDbPoint
 10
3028.792031226167
 20
1773.08811943352
 30
0.0
  0
POINT
  5
5AD4
330
3C62
100
AcDbEntity
  8
Defpoints
 62
     0
100
AcDbPoint
 10
3028.792031226167
 20
1842.878024854795
 30
0.0
  0
ENDBLK
  5
3C6D
330
3C62
100
AcDbEntity
  8
0
100
AcDbBlockEnd
  0
BLOCK
  5
3C8D
330
3C81
100
AcDbEntity
  8
0
100
AcDbBlockBegin
  2
*D26
 70
     1
 10
0.0
 20
0.0
 30
0.0
  3
*D26
  1

  0
LINE
  5
3F6D
330
3C81
100
AcDbEntity
  8
AM_5
100
AcDbLine
 10
2923.792031226168
 20
1777.08811943352
 30
0.0
 11
2923.792031226168
 21
1846.878024854795
 31
0.0
  0
LINE
  5
3F6E
330
3C81
100
AcDbEntity
  8
AM_5
100
AcDbLine
 10
2933.792031226168
 20
1777.08811943352
 30
0.0
 11
2933.792031226168
 21
1846.878024854795
 31
0.0
  0
LINE
  5
3F6F
330
3C81
100
AcDbEntity
  8
AM_5
100
AcDbLine
 10
2941.792031226168
 20
1842.878024854795
 30
0.0
 11
2949.792031226168
 21
1842.878024854795
 31
0.0
  0
LINE
  5
3F70
330
3C81
100
AcDbEntity
  8
AM_5
100
AcDbLine
 10
2915.792031226169
 20
1842.878024854795
 30
0.0
 11
2877.9240109216
 21
1842.878024854795
 31
0.0
  0
LINE
  5
3F71
330
3C81
100
AcDbEntity
  8
AM_5
100
AcDbLine
 10
2933.792031226168
 20
1842.878024854795
 30
0.0
 11
2923.792031226168
 21
1842.878024854795
 31
0.0
  0
INSERT
  5
3F72
330
3C81
100
AcDbEntity
  8
AM_5
100
AcDbBlockReference
  2
_Open30
 10
2933.792031226168
 20
1842.878024854795
 30
0.0
 41
8.0
 42
8.0
 43
8.0
 50
180.0
  0
INSERT
  5
3F73
330
3C81
100
AcDbEntity
  8
AM_5
100
AcDbBlockReference
  2
_Open30
 10
2923.792031226168
 20
1842.878024854795
 30
0.0
 41
8.0
 42
8.0
 43
8.0
  0
MTEXT
  5
3F74
330
3C81
100
AcDbEntity
  8
AM_5
 62
     2
100
AcDbMText
 10
2892.858021073884
 20
1851.878024854795
 30
0.0
 40
14.0
 41
0.0
 71
     5
 72
     1
  1
t10
  7
スタイル１
 73
     1
 44
1.0
  0
POINT
  5
3F75
330
3C81
100
AcDbEntity
  8
Defpoints
 62
     0
100
AcDbPoint
 10
2923.792031226168
 20
1773.08811943352
 30
0.0
  0
POINT
  5
3F76
330
3C81
100
AcDbEntity
  8
Defpoints
 62
     0
100
AcDbPoint
 10
2933.792031226168
 20
1773.08811943352
 30
0.0
  0
POINT
  5
3F77
330
3C81
100
AcDbEntity
  8
Defpoints
 62
     0
100
AcDbPoint
 10
2933.792031226168
 20
1842.878024854795
 30
0.0
  0
ENDBLK
  5
3C8E
330
3C81
100
AcDbEntity
  8
0
100
AcDbBlockEnd
  0
BLOCK
  5
3CE0
330
3CD6
100
AcDbEntity
  8
0
100
AcDbBlockBegin
  2
*D27
 70
     1
 10
0.0
 20
0.0
 30
0.0
  3
*D27
  1

  0
LINE
  5
5AC3
330
3CD6
100
AcDbEntity
  8
AM_5
100
AcDbLine
 10
2923.792031226168
 20
1777.08811943352
 30
0.0
 11
2923.792031226168
 21
1884.557915383273
 31
0.0
  0
LINE
  5
5AC4
330
3CD6
100
AcDbEntity
  8
AM_5
100
AcDbLine
 10
3038.792031226166
 20
1777.08811943352
 30
0.0
 11
3038.792031226166
 21
1884.557915383273
 31
0.0
  0
LINE
  5
5AC5
330
3CD6
100
AcDbEntity
  8
AM_5
100
AcDbLine
 10
2931.792031226169
 20
1880.557915383273
 30
0.0
 11
3030.792031226166
 21
1880.557915383273
 31
0.0
  0
INSERT
  5
5AC6
330
3CD6
100
AcDbEntity
  8
AM_5
100
AcDbBlockReference
  2
_Open30
 10
2923.792031226168
 20
1880.557915383273
 30
0.0
 41
8.0
 42
8.0
 43
8.0
 50
180.0
  0
INSERT
  5
5AC7
330
3CD6
100
AcDbEntity
  8
AM_5
100
AcDbBlockReference
  2
_Open30
 10
3038.792031226166
 20
1880.557915383273
 30
0.0
 41
8.0
 42
8.0
 43
8.0
  0
MTEXT
  5
5AC8
330
3CD6
100
AcDbEntity
  8
AM_5
 62
     2
100
AcDbMText
 10
2981.292031226168
 20
1889.593448378197
 30
0.0
 40
14.0
 41
0.0
 71
     5
 72
     1
  1
115 diam.
  7
スタイル１
 73
     1
 44
1.0
  0
POINT
  5
5AC9
330
3CD6
100
AcDbEntity
  8
Defpoints
 62
     0
100
AcDbPoint
 10
2923.792031226168
 20
1773.08811943352
 30
0.0
  0
POINT
  5
5ACA
330
3CD6
100
AcDbEntity
  8
Defpoints
 62
     0
100
AcDbPoint
 10
3038.792031226166
 20
1773.08811943352
 30
0.0
  0
POINT
  5
5ACB
330
3CD6
100
AcDbEntity
  8
Defpoints
 62
     0
100
AcDbPoint
 10
3038.792031226166
 20
1880.557915383273
 30
0.0
  0
ENDBLK
  5
3CE1
330
3CD6
100
AcDbEntity
  8
0
100
AcDbBlockEnd
  0
BLOCK
  5
3F8C
330
3F82
100
AcDbEntity
  8
0
100
AcDbBlockBegin
  2
*D28
 70
     1
 10
0.0
 20
0.0
 30
0.0
  3
*D28
  1

  0
LINE
  5
3F83
330
3F82
100
AcDbEntity
  8
AM_5
100
AcDbLine
 10
2919.792031226169
 20
1773.08811943352
 30
0.0
 11
2842.983914070119
 21
1773.08811943352
 31
0.0
  0
LINE
  5
3F84
330
3F82
100
AcDbEntity
  8
AM_5
100
AcDbLine
 10
2919.792031226169
 20
1522.770939765648
 30
0.0
 11
2842.983914070119
 21
1522.770939765648
 31
0.0
  0
LINE
  5
3F85
330
3F82
100
AcDbEntity
  8
AM_5
100
AcDbLine
 10
2846.983914070118
 20
1765.08811943352
 30
0.0
 11
2846.983914070118
 21
1530.770939765648
 31
0.0
  0
INSERT
  5
3F86
330
3F82
100
AcDbEntity
  8
AM_5
100
AcDbBlockReference
  2
_Open30
 10
2846.983914070118
 20
1773.08811943352
 30
0.0
 41
8.0
 42
8.0
 43
8.0
 50
90.0
  0
INSERT
  5
3F87
330
3F82
100
AcDbEntity
  8
AM_5
100
AcDbBlockReference
  2
_Open30
 10
2846.983914070118
 20
1522.770939765648
 30
0.0
 41
8.0
 42
8.0
 43
8.0
 50
270.0
  0
MTEXT
  5
3F88
330
3F82
100
AcDbEntity
  8
AM_5
 62
     2
100
AcDbMText
 10
2837.983914070118
 20
1647.929529599585
 30
0.0
 40
14.0
 41
0.0
 71
     5
 72
     1
  1
250.3
  7
スタイル１
 11
0.0000000000000001
 21
1.0
 31
0.0
 73
     1
 44
1.0
  0
POINT
  5
3F89
330
3F82
100
AcDbEntity
  8
Defpoints
 62
     0
100
AcDbPoint
 10
2923.792031226168
 20
1773.08811943352
 30
0.0
  0
POINT
  5
3F8A
330
3F82
100
AcDbEntity
  8
Defpoints
 62
     0
100
AcDbPoint
 10
2923.792031226169
 20
1522.770939765648
 30
0.0
  0
POINT
  5
3F8B
330
3F82
100
AcDbEntity
  8
Defpoints
 62
     0
100
AcDbPoint
 10
2846.983914070118
 20
1522.770939765648
 30
0.0
  0
ENDBLK
  5
3F8D
330
3F82
100
AcDbEntity
  8
0
100
AcDbBlockEnd
  0
BLOCK
  5
3F99
330
3F8F
100
AcDbEntity
  8
0
100
AcDbBlockBegin
  2
*D29
 70
     1
 10
0.0
 20
0.0
 30
0.0
  3
*D29
  1

  0
LINE
  5
4047
330
3F8F
100
AcDbEntity
  8
AM_5
100
AcDbLine
 10
2485.944114444683
 20
1876.075590054407
 30
0.0
 11
2402.049606981883
 21
1876.075590054407
 31
0.0
  0
LINE
  5
4048
330
3F8F
100
AcDbEntity
  8
AM_5
100
AcDbLine
 10
2495.944114444682
 20
1852.075590054406
 30
0.0
 11
2402.049606981883
 21
1852.075590054406
 31
0.0
  0
LINE
  5
4049
330
3F8F
100
AcDbEntity
  8
AM_5
100
AcDbLine
 10
2406.049606981884
 20
1868.075590054406
 30
0.0
 11
2406.049606981884
 21
1860.075590054407
 31
0.0
  0
INSERT
  5
404A
330
3F8F
100
AcDbEntity
  8
AM_5
100
AcDbBlockReference
  2
_Open30
 10
2406.049606981884
 20
1876.075590054407
 30
0.0
 41
8.0
 42
8.0
 43
8.0
 50
90.0
  0
INSERT
  5
404B
330
3F8F
100
AcDbEntity
  8
AM_5
100
AcDbBlockReference
  2
_Open30
 10
2406.049606981884
 20
1852.075590054406
 30
0.0
 41
8.0
 42
8.0
 43
8.0
 50
270.0
  0
MTEXT
  5
404C
330
3F8F
100
AcDbEntity
  8
AM_5
 62
     2
100
AcDbMText
 10
2397.049606981883
 20
1864.075590054407
 30
0.0
 40
14.0
 41
0.0
 71
     5
 72
     1
  1
24
  7
スタイル１
 11
0.0000000000000001
 21
1.0
 31
0.0
 73
     1
 44
1.0
  0
POINT
  5
404D
330
3F8F
100
AcDbEntity
  8
Defpoints
 62
     0
100
AcDbPoint
 10
2489.944114444683
 20
1876.075590054407
 30
0.0
  0
POINT
  5
404E
330
3F8F
100
AcDbEntity
  8
Defpoints
 62
     0
100
AcDbPoint
 10
2499.944114444682
 20
1852.075590054406
 30
0.0
  0
POINT
  5
404F
330
3F8F
100
AcDbEntity
  8
Defpoints
 62
     0
100
AcDbPoint
 10
2406.049606981884
 20
1852.075590054406
 30
0.0
  0
ENDBLK
  5
3F9A
330
3F8F
100
AcDbEntity
  8
0
100
AcDbBlockEnd
  0
BLOCK
  5
3FB3
330
3FA9
100
AcDbEntity
  8
0
100
AcDbBlockBegin
  2
*D30
 70
     1
 10
0.0
 20
0.0
 30
0.0
  3
*D30
  1

  0
LINE
  5
403E
330
3FA9
100
AcDbEntity
  8
AM_5
100
AcDbLine
 10
2495.944114444682
 20
1852.075590054406
 30
0.0
 11
2367.439665940088
 21
1852.075590054406
 31
0.0
  0
LINE
  5
403F
330
3FA9
100
AcDbEntity
  8
AM_5
100
AcDbLine
 10
2543.444114444683
 20
1922.67288808069
 30
0.0
 11
2367.439665940088
 21
1922.67288808069
 31
0.0
  0
LINE
  5
4040
330
3FA9
100
AcDbEntity
  8
AM_5
100
AcDbLine
 10
2371.439665940088
 20
1860.075590054407
 30
0.0
 11
2371.439665940088
 21
1914.67288808069
 31
0.0
  0
INSERT
  5
4041
330
3FA9
100
AcDbEntity
  8
AM_5
100
AcDbBlockReference
  2
_Open30
 10
2371.439665940088
 20
1852.075590054406
 30
0.0
 41
8.0
 42
8.0
 43
8.0
 50
270.0
  0
INSERT
  5
4042
330
3FA9
100
AcDbEntity
  8
AM_5
100
AcDbBlockReference
  2
_Open30
 10
2371.439665940088
 20
1922.67288808069
 30
0.0
 41
8.0
 42
8.0
 43
8.0
 50
90.0
  0
MTEXT
  5
4043
330
3FA9
100
AcDbEntity
  8
AM_5
 62
     2
100
AcDbMText
 10
2362.439665940087
 20
1887.374239067549
 30
0.0
 40
14.0
 41
0.0
 71
     5
 72
     1
  1
70.6
  7
スタイル１
 11
0.0000000000000001
 21
1.0
 31
0.0
 73
     1
 44
1.0
  0
POINT
  5
4044
330
3FA9
100
AcDbEntity
  8
Defpoints
 62
     0
100
AcDbPoint
 10
2499.944114444682
 20
1852.075590054406
 30
0.0
  0
POINT
  5
4045
330
3FA9
100
AcDbEntity
  8
Defpoints
 62
     0
100
AcDbPoint
 10
2547.444114444683
 20
1922.67288808069
 30
0.0
  0
POINT
  5
4046
330
3FA9
100
AcDbEntity
  8
Defpoints
 62
     0
100
AcDbPoint
 10
2371.439665940088
 20
1922.67288808069
 30
0.0
  0
ENDBLK
  5
3FB4
330
3FA9
100
AcDbEntity
  8
0
100
AcDbBlockEnd
  0
BLOCK
  5
3FC0
330
3FB6
100
AcDbEntity
  8
0
100
AcDbBlockBegin
  2
*D31
 70
     1
 10
0.0
 20
0.0
 30
0.0
  3
*D31
  1

  0
LINE
  5
4035
330
3FB6
100
AcDbEntity
  8
AM_5
100
AcDbLine
 10
2495.944114444682
 20
1852.075590054406
 30
0.0
 11
2328.757954617663
 21
1852.075590054406
 31
0.0
  0
LINE
  5
4036
330
3FB6
100
AcDbEntity
  8
AM_5
100
AcDbLine
 10
2485.944114444684
 20
1957.505453708724
 30
0.0
 11
2328.757954617663
 21
1957.505453708724
 31
0.0
  0
LINE
  5
4037
330
3FB6
100
AcDbEntity
  8
AM_5
100
AcDbLine
 10
2332.757954617663
 20
1860.075590054407
 30
0.0
 11
2332.757954617663
 21
1949.505453708724
 31
0.0
  0
INSERT
  5
4038
330
3FB6
100
AcDbEntity
  8
AM_5
100
AcDbBlockReference
  2
_Open30
 10
2332.757954617663
 20
1852.075590054406
 30
0.0
 41
8.0
 42
8.0
 43
8.0
 50
270.0
  0
INSERT
  5
4039
330
3FB6
100
AcDbEntity
  8
AM_5
100
AcDbBlockReference
  2
_Open30
 10
2332.757954617663
 20
1957.505453708724
 30
0.0
 41
8.0
 42
8.0
 43
8.0
 50
90.0
  0
MTEXT
  5
403A
330
3FB6
100
AcDbEntity
  8
AM_5
 62
     2
100
AcDbMText
 10
2323.757954617663
 20
1904.790521881565
 30
0.0
 40
14.0
 41
0.0
 71
     5
 72
     1
  1
105.4
  7
スタイル１
 11
0.0000000000000001
 21
1.0
 31
0.0
 73
     1
 44
1.0
  0
POINT
  5
403B
330
3FB6
100
AcDbEntity
  8
Defpoints
 62
     0
100
AcDbPoint
 10
2499.944114444682
 20
1852.075590054406
 30
0.0
  0
POINT
  5
403C
330
3FB6
100
AcDbEntity
  8
Defpoints
 62
     0
100
AcDbPoint
 10
2489.944114444684
 20
1957.505453708724
 30
0.0
  0
POINT
  5
403D
330
3FB6
100
AcDbEntity
  8
Defpoints
 62
     0
100
AcDbPoint
 10
2332.757954617663
 20
1957.505453708724
 30
0.0
  0
ENDBLK
  5
3FC1
330
3FB6
100
AcDbEntity
  8
0
100
AcDbBlockEnd
  0
BLOCK
  5
3FD1
330
3FC7
100
AcDbEntity
  8
0
100
AcDbBlockBegin
  2
*D32
 70
     1
 10
0.0
 20
0.0
 30
0.0
  3
*D32
  1

  0
LINE
  5
401E
330
3FC7
100
AcDbEntity
  8
AM_5
100
AcDbLine
 10
2456.539478683091
 20
1041.874578035946
 30
0.0
 11
2373.782416409533
 21
1041.874578035946
 31
0.0
  0
LINE
  5
401F
330
3FC7
100
AcDbEntity
  8
AM_5
100
AcDbLine
 10
2456.539478683092
 20
794.2940854114985
 30
0.0
 11
2373.782416409532
 21
794.2940854114985
 31
0.0
  0
LINE
  5
4020
330
3FC7
100
AcDbEntity
  8
AM_5
100
AcDbLine
 10
2377.782416409533
 20
1033.874578035946
 30
0.0
 11
2377.782416409532
 21
802.2940854114986
 31
0.0
  0
INSERT
  5
4021
330
3FC7
100
AcDbEntity
  8
AM_5
100
AcDbBlockReference
  2
_Open30
 10
2377.782416409533
 20
1041.874578035946
 30
0.0
 41
8.0
 42
8.0
 43
8.0
 50
90.0
  0
INSERT
  5
4022
330
3FC7
100
AcDbEntity
  8
AM_5
100
AcDbBlockReference
  2
_Open30
 10
2377.782416409532
 20
794.2940854114985
 30
0.0
 41
8.0
 42
8.0
 43
8.0
 50
270.0
  0
MTEXT
  5
4023
330
3FC7
100
AcDbEntity
  8
AM_5
 62
     2
100
AcDbMText
 10
2368.782416409533
 20
918.0843317237231
 30
0.0
 40
14.0
 41
0.0
 71
     5
 72
     1
  1
247.6
  7
スタイル１
 11
0.0000000000000001
 21
1.0
 31
0.0
 73
     1
 44
1.0
  0
POINT
  5
4024
330
3FC7
100
AcDbEntity
  8
Defpoints
 62
     0
100
AcDbPoint
 10
2460.539478683091
 20
1041.874578035946
 30
0.0
  0
POINT
  5
4025
330
3FC7
100
AcDbEntity
  8
Defpoints
 62
     0
100
AcDbPoint
 10
2460.539478683092
 20
794.2940854114985
 30
0.0
  0
POINT
  5
4026
330
3FC7
100
AcDbEntity
  8
Defpoints
 62
     0
100
AcDbPoint
 10
2377.782416409532
 20
794.2940854114985
 30
0.0
  0
ENDBLK
  5
3FD2
330
3FC7
100
AcDbEntity
  8
0
100
AcDbBlockEnd
  0
BLOCK
  5
3FDE
330
3FD4
100
AcDbEntity
  8
0
100
AcDbBlockBegin
  2
*D33
 70
     1
 10
0.0
 20
0.0
 30
0.0
  3
*D33
  1

  0
LINE
  5
4027
330
3FD4
100
AcDbEntity
  8
AM_5
100
AcDbLine
 10
2629.739478683093
 20
934.9118271907597
 30
0.0
 11
2707.926169129616
 21
934.9118271907597
 31
0.0
  0
LINE
  5
4028
330
3FD4
100
AcDbEntity
  8
AM_5
100
AcDbLine
 10
2629.739478683092
 20
794.2940854114985
 30
0.0
 11
2707.926169129616
 21
794.2940854114985
 31
0.0
  0
LINE
  5
4029
330
3FD4
100
AcDbEntity
  8
AM_5
100
AcDbLine
 10
2703.926169129616
 20
926.9118271907599
 30
0.0
 11
2703.926169129616
 21
802.2940854114986
 31
0.0
  0
INSERT
  5
402A
330
3FD4
100
AcDbEntity
  8
AM_5
100
AcDbBlockReference
  2
_Open30
 10
2703.926169129616
 20
934.9118271907597
 30
0.0
 41
8.0
 42
8.0
 43
8.0
 50
90.0
  0
INSERT
  5
402B
330
3FD4
100
AcDbEntity
  8
AM_5
100
AcDbBlockReference
  2
_Open30
 10
2703.926169129616
 20
794.2940854114985
 30
0.0
 41
8.0
 42
8.0
 43
8.0
 50
270.0
  0
MTEXT
  5
402C
330
3FD4
100
AcDbEntity
  8
AM_5
 62
     2
100
AcDbMText
 10
2694.926169129616
 20
864.6029563011296
 30
0.0
 40
14.0
 41
0.0
 71
     5
 72
     1
  1
140.6
  7
スタイル１
 11
0.0000000000000001
 21
1.0
 31
0.0
 73
     1
 44
1.0
  0
POINT
  5
402D
330
3FD4
100
AcDbEntity
  8
Defpoints
 62
     0
100
AcDbPoint
 10
2625.739478683093
 20
934.9118271907597
 30
0.0
  0
POINT
  5
402E
330
3FD4
100
AcDbEntity
  8
Defpoints
 62
     0
100
AcDbPoint
 10
2625.739478683092
 20
794.2940854114985
 30
0.0
  0
POINT
  5
402F
330
3FD4
100
AcDbEntity
  8
Defpoints
 62
     0
100
AcDbPoint
 10
2703.926169129616
 20
794.2940854114985
 30
0.0
  0
ENDBLK
  5
3FDF
330
3FD4
100
AcDbEntity
  8
0
100
AcDbBlockEnd
  0
BLOCK
  5
43A7
330
43A1
100
AcDbEntity
  8
0
100
AcDbBlockBegin
  2
*D34
 70
     1
 10
0.0
 20
0.0
 30
0.0
  3
*D34
  1

  0
LINE
  5
59E6
330
43A1
100
AcDbEntity
  8
AM_5
100
AcDbLine
 10
782.4214213855005
 20
1459.331507538166
 30
0.0
 11
525.8064765110431
 21
1307.790221830039
 31
0.0
  0
MTEXT
  5
59E7
330
43A1
100
AcDbEntity
  8
AM_5
 62
     2
100
AcDbMText
 10
660.2399313096209
 20
1398.99244984575
 30
0.0
 40
14.0
 41
0.0
 71
     5
 72
     1
  1
R1120(Inner Vessel Outer Wall)
  7
スタイル１
 11
0.8610658431768072
 21
0.5084934746033757
 31
0.0
 73
     1
 44
1.0
  0
INSERT
  5
59E8
330
43A1
100
AcDbEntity
  8
AM_5
100
AcDbBlockReference
  2
_Open30
 10
518.9179497656289
 20
1303.722274033212
 30
0.0
 41
8.0
 42
8.0
 43
8.0
 50
210.5635328486664
  0
POINT
  5
59E9
330
43A1
100
AcDbEntity
  8
Defpoints
 62
     0
100
AcDbPoint
 10
518.9179497656289
 20
1303.722274033212
 30
0.0
  0
POINT
  5
59EA
330
43A1
100
AcDbEntity
  8
Defpoints
 62
     0
100
AcDbPoint
 10
1483.31169412365
 20
1873.234965588991
 30
0.0
  0
ENDBLK
  5
43A8
330
43A1
100
AcDbEntity
  8
0
100
AcDbBlockEnd
  0
BLOCK
  5
43B0
330
43AA
100
AcDbEntity
  8
0
100
AcDbBlockBegin
  2
*D35
 70
     1
 10
0.0
 20
0.0
 30
0.0
  3
*D35
  1

  0
LINE
  5
59EB
330
43AA
100
AcDbEntity
  8
AM_5
100
AcDbLine
 10
830.1604972102643
 20
1408.270500900263
 30
0.0
 11
512.2371366821623
 21
1181.947612970847
 31
0.0
  0
MTEXT
  5
59EC
330
43AA
100
AcDbEntity
  8
AM_5
 62
     2
100
AcDbMText
 10
713.5582514544832
 20
1337.750754126189
 30
0.0
 40
14.0
 41
0.0
 71
     5
 72
     1
  1
R1200(Outer Vessel Outer Wall)
  7
スタイル１
 11
0.8146598636254118
 21
0.5799390542098586
 31
0.0
 73
     1
 44
1.0
  0
INSERT
  5
59ED
330
43AA
100
AcDbEntity
  8
AM_5
100
AcDbBlockReference
  2
_Open30
 10
505.7198577731589
 20
1177.308100537168
 30
0.0
 41
8.0
 42
8.0
 43
8.0
 50
215.4462561513997
  0
POINT
  5
59EE
330
43AA
100
AcDbEntity
  8
Defpoints
 62
     0
100
AcDbPoint
 10
505.7198577731589
 20
1177.308100537168
 30
0.0
  0
POINT
  5
59EF
330
43AA
100
AcDbEntity
  8
Defpoints
 62
     0
100
AcDbPoint
 10
1483.311694123654
 20
1873.234965588998
 30
0.0
  0
ENDBLK
  5
43B1
330
43AA
100
AcDbEntity
  8
0
100
AcDbBlockEnd
  0
BLOCK
  5
5756
330
5750
100
AcDbEntity
  8
0
100
AcDbBlockBegin
  2
*D36
 70
     1
 10
0.0
 20
0.0
 30
0.0
  3
*D36
  1

  0
LINE
  5
5751
330
5750
100
AcDbEntity
  8
AM_5
100
AcDbLine
 10
3090.208321113416
 20
1059.808051493222
 30
0.0
 11
3041.905782806063
 21
974.8961587593084
 31
0.0
  0
MTEXT
  5
5752
330
5750
100
AcDbEntity
  8
AM_5
 62
     2
100
AcDbMText
 10
3070.538716428896
 20
1043.432488538685
 30
0.0
 40
14.0
 41
0.0
 71
     5
 72
     1
  1
R1200
  7
スタイル１
 11
0.4944515506880308
 21
0.8692051909774825
 31
0.0
 73
     1
 44
1.0
  0
INSERT
  5
5753
330
5750
100
AcDbEntity
  8
AM_5
100
AcDbBlockReference
  2
_Open30
 10
3037.950170400559
 20
967.9425172314886
 30
0.0
 41
8.0
 42
8.0
 43
8.0
 50
240.3664085291625
  0
POINT
  5
5754
330
5750
100
AcDbEntity
  8
Defpoints
 62
     0
100
AcDbPoint
 10
3037.950170400559
 20
967.9425172314886
 30
0.0
  0
POINT
  5
5755
330
5750
100
AcDbEntity
  8
Defpoints
 62
     0
100
AcDbPoint
 10
3631.292031226195
 20
2010.988746404465
 30
0.0
  0
ENDBLK
  5
5757
330
5750
100
AcDbEntity
  8
0
100
AcDbBlockEnd
  0
BLOCK
  5
575F
330
5759
100
AcDbEntity
  8
0
100
AcDbBlockBegin
  2
*D37
 70
     1
 10
0.0
 20
0.0
 30
0.0
  3
*D37
  1

  0
LINE
  5
575A
330
5759
100
AcDbEntity
  8
AM_5
100
AcDbLine
 10
2616.547055522892
 20
1040.104510489201
 30
0.0
 11
2575.709324731805
 21
972.6647385448645
 31
0.0
  0
MTEXT
  5
575B
330
5759
100
AcDbEntity
  8
AM_5
 62
     2
100
AcDbMText
 10
2596.438066839263
 20
1024.271602207871
 30
0.0
 40
14.0
 41
0.0
 71
     5
 72
     1
  1
R1200
  7
スタイル１
 11
0.5179783170732285
 21
0.8553937473713412
 31
0.0
 73
     1
 44
1.0
  0
INSERT
  5
575C
330
5759
100
AcDbEntity
  8
AM_5
100
AcDbBlockReference
  2
_Open30
 10
2571.565498195219
 20
965.8215885658938
 30
0.0
 41
8.0
 42
8.0
 43
8.0
 50
238.8032615522079
  0
POINT
  5
575D
330
5759
100
AcDbEntity
  8
Defpoints
 62
     0
100
AcDbPoint
 10
2571.565498195219
 20
965.8215885658938
 30
0.0
  0
POINT
  5
575E
330
5759
100
AcDbEntity
  8
Defpoints
 62
     0
100
AcDbPoint
 10
3193.139478683093
 20
1992.294085411503
 30
0.0
  0
ENDBLK
  5
5760
330
5759
100
AcDbEntity
  8
0
100
AcDbBlockEnd
  0
BLOCK
  5
578B
330
577F
100
AcDbEntity
  8
0
100
AcDbBlockBegin
  2
*D38
 70
     1
 10
0.0
 20
0.0
 30
0.0
  3
*D38
  1

  0
LINE
  5
578D
330
577F
100
AcDbEntity
  8
AM_5
100
AcDbLine
 10
2460.539478683092
 20
1045.874578035946
 30
0.0
 11
2460.539478683092
 21
1083.671323781279
 31
0.0
  0
LINE
  5
578E
330
577F
100
AcDbEntity
  8
AM_5
100
AcDbLine
 10
2471.539478683093
 20
1037.496171354532
 30
0.0
 11
2471.539478683093
 21
1083.671323781279
 31
0.0
  0
LINE
  5
578F
330
577F
100
AcDbEntity
  8
AM_5
100
AcDbLine
 10
2452.539478683091
 20
1079.671323781279
 30
0.0
 11
2444.539478683092
 21
1079.671323781279
 31
0.0
  0
LINE
  5
5790
330
577F
100
AcDbEntity
  8
AM_5
100
AcDbLine
 10
2479.539478683092
 20
1079.671323781279
 30
0.0
 11
2514.564859393752
 21
1079.671323781279
 31
0.0
  0
LINE
  5
5791
330
577F
100
AcDbEntity
  8
AM_5
100
AcDbLine
 10
2460.539478683092
 20
1079.671323781279
 30
0.0
 11
2471.539478683093
 21
1079.671323781279
 31
0.0
  0
INSERT
  5
5792
330
577F
100
AcDbEntity
  8
AM_5
100
AcDbBlockReference
  2
_Open30
 10
2460.539478683092
 20
1079.671323781279
 30
0.0
 41
8.0
 42
8.0
 43
8.0
  0
INSERT
  5
5793
330
577F
100
AcDbEntity
  8
AM_5
100
AcDbBlockReference
  2
_Open30
 10
2471.539478683093
 20
1079.671323781279
 30
0.0
 41
8.0
 42
8.0
 43
8.0
 50
180.0
  0
MTEXT
  5
5794
330
577F
100
AcDbEntity
  8
AM_5
 62
     2
100
AcDbMText
 10
2501.052169038422
 20
1088.671323781279
 30
0.0
 40
14.0
 41
0.0
 71
     5
 72
     1
  1
t11
  7
スタイル１
 73
     1
 44
1.0
  0
POINT
  5
5795
330
577F
100
AcDbEntity
  8
Defpoints
 62
     0
100
AcDbPoint
 10
2460.539478683092
 20
1041.874578035946
 30
0.0
  0
POINT
  5
5796
330
577F
100
AcDbEntity
  8
Defpoints
 62
     0
100
AcDbPoint
 10
2471.539478683093
 20
1033.496171354532
 30
0.0
  0
POINT
  5
5797
330
577F
100
AcDbEntity
  8
Defpoints
 62
     0
100
AcDbPoint
 10
2471.539478683093
 20
1079.671323781279
 30
0.0
  0
ENDBLK
  5
578C
330
577F
100
AcDbEntity
  8
0
100
AcDbBlockEnd
  0
BLOCK
  5
57BC
330
57B2
100
AcDbEntity
  8
0
100
AcDbBlockBegin
  2
*D39
 70
     1
 10
0.0
 20
0.0
 30
0.0
  3
*D39
  1

  0
LINE
  5
5A8C
330
57B2
100
AcDbEntity
  8
AM_5
100
AcDbLine
 10
1891.208058167172
 20
1580.033497322392
 30
0.0
 11
1891.208058167172
 21
1680.722009335148
 31
0.0
  0
LINE
  5
5A8D
330
57B2
100
AcDbEntity
  8
AM_5
100
AcDbLine
 10
2031.208058167172
 20
1580.033497322392
 30
0.0
 11
2031.208058167172
 21
1680.722009335148
 31
0.0
  0
LINE
  5
5A8E
330
57B2
100
AcDbEntity
  8
AM_5
100
AcDbLine
 10
1899.208058167172
 20
1676.722009335149
 30
0.0
 11
2023.208058167172
 21
1676.722009335149
 31
0.0
  0
INSERT
  5
5A8F
330
57B2
100
AcDbEntity
  8
AM_5
100
AcDbBlockReference
  2
_Open30
 10
1891.208058167172
 20
1676.722009335149
 30
0.0
 41
8.0
 42
8.0
 43
8.0
 50
180.0
  0
INSERT
  5
5A90
330
57B2
100
AcDbEntity
  8
AM_5
100
AcDbBlockReference
  2
_Open30
 10
2031.208058167172
 20
1676.722009335149
 30
0.0
 41
8.0
 42
8.0
 43
8.0
  0
MTEXT
  5
5A91
330
57B2
100
AcDbEntity
  8
AM_5
 62
     2
100
AcDbMText
 10
1961.208058167172
 20
1685.757542330072
 30
0.0
 40
14.0
 41
0.0
 71
     5
 72
     1
  1
140 diam.
  7
スタイル１
 73
     1
 44
1.0
  0
POINT
  5
5A92
330
57B2
100
AcDbEntity
  8
Defpoints
 62
     0
100
AcDbPoint
 10
1891.208058167172
 20
1576.033497322392
 30
0.0
  0
POINT
  5
5A93
330
57B2
100
AcDbEntity
  8
Defpoints
 62
     0
100
AcDbPoint
 10
2031.208058167172
 20
1576.033497322392
 30
0.0
  0
POINT
  5
5A94
330
57B2
100
AcDbEntity
  8
Defpoints
 62
     0
100
AcDbPoint
 10
2031.208058167172
 20
1676.722009335149
 30
0.0
  0
ENDBLK
  5
57BD
330
57B2
100
AcDbEntity
  8
0
100
AcDbBlockEnd
  0
BLOCK
  5
57D2
330
57C8
100
AcDbEntity
  8
0
100
AcDbBlockBegin
  2
*D40
 70
     1
 10
0.0
 20
0.0
 30
0.0
  3
*D40
  1

  0
LINE
  5
5A95
330
57C8
100
AcDbEntity
  8
AM_5
100
AcDbLine
 10
2031.208058167172
 20
1580.033497322392
 30
0.0
 11
2031.208058167172
 21
1680.722009335148
 31
0.0
  0
LINE
  5
5A96
330
57C8
100
AcDbEntity
  8
AM_5
100
AcDbLine
 10
2101.208058167172
 20
1580.033497322392
 30
0.0
 11
2101.208058167172
 21
1680.722009335148
 31
0.0
  0
LINE
  5
5A97
330
57C8
100
AcDbEntity
  8
AM_5
100
AcDbLine
 10
2039.208058167172
 20
1676.722009335149
 30
0.0
 11
2093.208058167172
 21
1676.722009335149
 31
0.0
  0
LINE
  5
5A98
330
57C8
100
AcDbEntity
  8
AM_5
100
AcDbLine
 10
2101.208058167172
 20
1676.722009335149
 30
0.0
 11
2229.61414953773
 21
1676.722009335149
 31
0.0
  0
INSERT
  5
5A99
330
57C8
100
AcDbEntity
  8
AM_5
100
AcDbBlockReference
  2
_Open30
 10
2031.208058167172
 20
1676.722009335149
 30
0.0
 41
8.0
 42
8.0
 43
8.0
 50
180.0
  0
INSERT
  5
5A9A
330
57C8
100
AcDbEntity
  8
AM_5
100
AcDbBlockReference
  2
_Open30
 10
2101.208058167172
 20
1676.722009335149
 30
0.0
 41
8.0
 42
8.0
 43
8.0
  0
MTEXT
  5
5A9B
330
57C8
100
AcDbEntity
  8
AM_5
 62
     2
100
AcDbMText
 10
2169.411103852451
 20
1685.757542330072
 30
0.0
 40
14.0
 41
0.0
 71
     5
 72
     1
  1
Polished Area
  7
スタイル１
 73
     1
 44
1.0
  0
POINT
  5
5A9C
330
57C8
100
AcDbEntity
  8
Defpoints
 62
     0
100
AcDbPoint
 10
2031.208058167172
 20
1576.033497322392
 30
0.0
  0
POINT
  5
5A9D
330
57C8
100
AcDbEntity
  8
Defpoints
 62
     0
100
AcDbPoint
 10
2101.208058167172
 20
1576.033497322392
 30
0.0
  0
POINT
  5
5A9E
330
57C8
100
AcDbEntity
  8
Defpoints
 62
     0
100
AcDbPoint
 10
2101.208058167172
 20
1676.722009335149
 30
0.0
  0
ENDBLK
  5
57D3
330
57C8
100
AcDbEntity
  8
0
100
AcDbBlockEnd
  0
BLOCK
  5
5895
330
588B
100
AcDbEntity
  8
0
100
AcDbBlockBegin
  2
*D41
 70
     1
 10
0.0
 20
0.0
 30
0.0
  3
*D41
  1

  0
LINE
  5
588C
330
588B
100
AcDbEntity
  8
AM_5
100
AcDbLine
 10
1264.311694123599
 20
770.8547946099392
 30
0.0
 11
1264.311694123599
 21
419.4963641085378
 31
0.0
  0
LINE
  5
588D
330
588B
100
AcDbEntity
  8
AM_5
100
AcDbLine
 10
1383.31169412385
 20
682.795333749182
 30
0.0
 11
1383.31169412385
 21
419.4963641085378
 31
0.0
  0
LINE
  5
588E
330
588B
100
AcDbEntity
  8
AM_5
100
AcDbLine
 10
1272.311694123599
 20
423.4963641085378
 30
0.0
 11
1375.31169412385
 21
423.4963641085378
 31
0.0
  0
INSERT
  5
588F
330
588B
100
AcDbEntity
  8
AM_5
100
AcDbBlockReference
  2
_Open30
 10
1264.311694123599
 20
423.4963641085378
 30
0.0
 41
8.0
 42
8.0
 43
8.0
 50
180.0
  0
INSERT
  5
5890
330
588B
100
AcDbEntity
  8
AM_5
100
AcDbBlockReference
  2
_Open30
 10
1383.31169412385
 20
423.4963641085378
 30
0.0
 41
8.0
 42
8.0
 43
8.0
  0
MTEXT
  5
5891
330
588B
100
AcDbEntity
  8
AM_5
 62
     2
100
AcDbMText
 10
1323.811694123725
 20
432.4963641085378
 30
0.0
 40
14.0
 41
0.0
 71
     5
 72
     1
  1
119
  7
スタイル１
 73
     1
 44
1.0
  0
POINT
  5
5892
330
588B
100
AcDbEntity
  8
Defpoints
 62
     0
100
AcDbPoint
 10
1264.311694123599
 20
774.8547946099392
 30
0.0
  0
POINT
  5
5893
330
588B
100
AcDbEntity
  8
Defpoints
 62
     0
100
AcDbPoint
 10
1383.31169412385
 20
686.7953337491819
 30
0.0
  0
POINT
  5
5894
330
588B
100
AcDbEntity
  8
Defpoints
 62
     0
100
AcDbPoint
 10
1383.31169412385
 20
423.4963641085378
 30
0.0
  0
ENDBLK
  5
5896
330
588B
100
AcDbEntity
  8
0
100
AcDbBlockEnd
  0
BLOCK
  5
58A2
330
5898
100
AcDbEntity
  8
0
100
AcDbBlockBegin
  2
*D42
 70
     1
 10
0.0
 20
0.0
 30
0.0
  3
*D42
  1

  0
LINE
  5
5899
330
5898
100
AcDbEntity
  8
AM_5
100
AcDbLine
 10
1383.31169412385
 20
682.795333749182
 30
0.0
 11
1383.31169412385
 21
419.4963641085378
 31
0.0
  0
LINE
  5
589A
330
5898
100
AcDbEntity
  8
AM_5
100
AcDbLine
 10
1483.311694123653
 20
587.2349655889934
 30
0.0
 11
1483.311694123653
 21
419.4963641085378
 31
0.0
  0
LINE
  5
589B
330
5898
100
AcDbEntity
  8
AM_5
100
AcDbLine
 10
1391.311694123849
 20
423.4963641085378
 30
0.0
 11
1475.311694123653
 21
423.4963641085378
 31
0.0
  0
INSERT
  5
589C
330
5898
100
AcDbEntity
  8
AM_5
100
AcDbBlockReference
  2
_Open30
 10
1383.31169412385
 20
423.4963641085378
 30
0.0
 41
8.0
 42
8.0
 43
8.0
 50
180.0
  0
INSERT
  5
589D
330
5898
100
AcDbEntity
  8
AM_5
100
AcDbBlockReference
  2
_Open30
 10
1483.311694123653
 20
423.4963641085378
 30
0.0
 41
8.0
 42
8.0
 43
8.0
  0
MTEXT
  5
589E
330
5898
100
AcDbEntity
  8
AM_5
 62
     2
100
AcDbMText
 10
1433.311694123751
 20
432.4963641085378
 30
0.0
 40
14.0
 41
0.0
 71
     5
 72
     1
  1
100
  7
スタイル１
 73
     1
 44
1.0
  0
POINT
  5
589F
330
5898
100
AcDbEntity
  8
Defpoints
 62
     0
100
AcDbPoint
 10
1383.31169412385
 20
686.7953337491819
 30
0.0
  0
POINT
  5
58A0
330
5898
100
AcDbEntity
  8
Defpoints
 62
     0
100
AcDbPoint
 10
1483.311694123653
 20
591.2349655889934
 30
0.0
  0
POINT
  5
58A1
330
5898
100
AcDbEntity
  8
Defpoints
 62
     0
100
AcDbPoint
 10
1483.311694123653
 20
423.4963641085378
 30
0.0
  0
ENDBLK
  5
58A3
330
5898
100
AcDbEntity
  8
0
100
AcDbBlockEnd
  0
BLOCK
  5
58BC
330
58B2
100
AcDbEntity
  8
0
100
AcDbBlockBegin
  2
*D43
 70
     1
 10
0.0
 20
0.0
 30
0.0
  3
*D43
  1

  0
LINE
  5
58B3
330
58B2
100
AcDbEntity
  8
AM_5
100
AcDbLine
 10
833.3116941236541
 20
588.2349655889938
 30
0.0
 11
833.3116941236541
 21
419.4963641085378
 31
0.0
  0
LINE
  5
58B4
330
58B2
100
AcDbEntity
  8
AM_5
100
AcDbLine
 10
1264.311694123599
 20
766.8547946099392
 30
0.0
 11
1264.311694123599
 21
419.4963641085378
 31
0.0
  0
LINE
  5
58B5
330
58B2
100
AcDbEntity
  8
AM_5
100
AcDbLine
 10
841.3116941236541
 20
423.4963641085378
 30
0.0
 11
1256.311694123599
 21
423.4963641085378
 31
0.0
  0
INSERT
  5
58B6
330
58B2
100
AcDbEntity
  8
AM_5
100
AcDbBlockReference
  2
_Open30
 10
833.3116941236541
 20
423.4963641085378
 30
0.0
 41
8.0
 42
8.0
 43
8.0
 50
180.0
  0
INSERT
  5
58B7
330
58B2
100
AcDbEntity
  8
AM_5
100
AcDbBlockReference
  2
_Open30
 10
1264.311694123599
 20
423.4963641085378
 30
0.0
 41
8.0
 42
8.0
 43
8.0
  0
MTEXT
  5
58B8
330
58B2
100
AcDbEntity
  8
AM_5
 62
     2
100
AcDbMText
 10
1048.811694123627
 20
432.4963641085378
 30
0.0
 40
14.0
 41
0.0
 71
     5
 72
     1
  1
431
  7
スタイル１
 73
     1
 44
1.0
  0
POINT
  5
58B9
330
58B2
100
AcDbEntity
  8
Defpoints
 62
     0
100
AcDbPoint
 10
833.3116941236541
 20
592.2349655889938
 30
0.0
  0
POINT
  5
58BA
330
58B2
100
AcDbEntity
  8
Defpoints
 62
     0
100
AcDbPoint
 10
1264.311694123599
 20
770.8547946099392
 30
0.0
  0
POINT
  5
58BB
330
58B2
100
AcDbEntity
  8
Defpoints
 62
     0
100
AcDbPoint
 10
1264.311694123599
 20
423.4963641085378
 30
0.0
  0
ENDBLK
  5
58BD
330
58B2
100
AcDbEntity
  8
0
100
AcDbBlockEnd
  0
BLOCK
  5
58C9
330
58BF
100
AcDbEntity
  8
0
100
AcDbBlockBegin
  2
*D44
 70
     1
 10
0.0
 20
0.0
 30
0.0
  3
*D44
  1

  0
LINE
  5
58C0
330
58BF
100
AcDbEntity
  8
AM_5
100
AcDbLine
 10
833.3116941236541
 20
584.2349655889939
 30
0.0
 11
833.3116941236541
 21
359.2129782945667
 31
0.0
  0
LINE
  5
58C1
330
58BF
100
AcDbEntity
  8
AM_5
100
AcDbLine
 10
1368.311694123653
 20
674.7580926441941
 30
0.0
 11
1368.311694123653
 21
359.2129782945667
 31
0.0
  0
LINE
  5
58C2
330
58BF
100
AcDbEntity
  8
AM_5
100
AcDbLine
 10
841.3116941236541
 20
363.2129782945667
 30
0.0
 11
1360.311694123653
 21
363.2129782945667
 31
0.0
  0
INSERT
  5
58C3
330
58BF
100
AcDbEntity
  8
AM_5
100
AcDbBlockReference
  2
_Open30
 10
833.3116941236541
 20
363.2129782945667
 30
0.0
 41
8.0
 42
8.0
 43
8.0
 50
180.0
  0
INSERT
  5
58C4
330
58BF
100
AcDbEntity
  8
AM_5
100
AcDbBlockReference
  2
_Open30
 10
1368.311694123653
 20
363.2129782945667
 30
0.0
 41
8.0
 42
8.0
 43
8.0
  0
MTEXT
  5
58C5
330
58BF
100
AcDbEntity
  8
AM_5
 62
     2
100
AcDbMText
 10
1100.811694123653
 20
372.2129782945667
 30
0.0
 40
14.0
 41
0.0
 71
     5
 72
     1
  1
535
  7
スタイル１
 73
     1
 44
1.0
  0
POINT
  5
58C6
330
58BF
100
AcDbEntity
  8
Defpoints
 62
     0
100
AcDbPoint
 10
833.3116941236541
 20
588.2349655889938
 30
0.0
  0
POINT
  5
58C7
330
58BF
100
AcDbEntity
  8
Defpoints
 62
     0
100
AcDbPoint
 10
1368.311694123653
 20
678.7580926441941
 30
0.0
  0
POINT
  5
58C8
330
58BF
100
AcDbEntity
  8
Defpoints
 62
     0
100
AcDbPoint
 10
1368.311694123653
 20
363.2129782945667
 30
0.0
  0
ENDBLK
  5
58CA
330
58BF
100
AcDbEntity
  8
0
100
AcDbBlockEnd
  0
BLOCK
  5
58D6
330
58CC
100
AcDbEntity
  8
0
100
AcDbBlockBegin
  2
*D45
 70
     1
 10
0.0
 20
0.0
 30
0.0
  3
*D45
  1

  0
LINE
  5
58CD
330
58CC
100
AcDbEntity
  8
AM_5
100
AcDbLine
 10
1368.311694123653
 20
674.7580926441941
 30
0.0
 11
1368.311694123653
 21
359.2129782945667
 31
0.0
  0
LINE
  5
58CE
330
58CC
100
AcDbEntity
  8
AM_5
100
AcDbLine
 10
1483.311694123653
 20
587.2349655889934
 30
0.0
 11
1483.311694123653
 21
359.2129782945667
 31
0.0
  0
LINE
  5
58CF
330
58CC
100
AcDbEntity
  8
AM_5
100
AcDbLine
 10
1376.311694123653
 20
363.2129782945667
 30
0.0
 11
1475.311694123653
 21
363.2129782945667
 31
0.0
  0
INSERT
  5
58D0
330
58CC
100
AcDbEntity
  8
AM_5
100
AcDbBlockReference
  2
_Open30
 10
1368.311694123653
 20
363.2129782945667
 30
0.0
 41
8.0
 42
8.0
 43
8.0
 50
180.0
  0
INSERT
  5
58D1
330
58CC
100
AcDbEntity
  8
AM_5
100
AcDbBlockReference
  2
_Open30
 10
1483.311694123653
 20
363.2129782945667
 30
0.0
 41
8.0
 42
8.0
 43
8.0
  0
MTEXT
  5
58D2
330
58CC
100
AcDbEntity
  8
AM_5
 62
     2
100
AcDbMText
 10
1425.811694123653
 20
372.2129782945667
 30
0.0
 40
14.0
 41
0.0
 71
     5
 72
     1
  1
115
  7
スタイル１
 73
     1
 44
1.0
  0
POINT
  5
58D3
330
58CC
100
AcDbEntity
  8
Defpoints
 62
     0
100
AcDbPoint
 10
1368.311694123653
 20
678.7580926441941
 30
0.0
  0
POINT
  5
58D4
330
58CC
100
AcDbEntity
  8
Defpoints
 62
     0
100
AcDbPoint
 10
1483.311694123653
 20
591.2349655889934
 30
0.0
  0
POINT
  5
58D5
330
58CC
100
AcDbEntity
  8
Defpoints
 62
     0
100
AcDbPoint
 10
1483.311694123653
 20
363.2129782945667
 30
0.0
  0
ENDBLK
  5
58D7
330
58CC
100
AcDbEntity
  8
0
100
AcDbBlockEnd
  0
BLOCK
  5
58E3
330
58D9
100
AcDbEntity
  8
0
100
AcDbBlockBegin
  2
*D46
 70
     1
 10
0.0
 20
0.0
 30
0.0
  3
*D46
  1

  0
LINE
  5
58DA
330
58D9
100
AcDbEntity
  8
AM_5
100
AcDbLine
 10
833.3116941236541
 20
580.2349655889939
 30
0.0
 11
833.3116941236541
 21
302.9484939543454
 31
0.0
  0
LINE
  5
58DB
330
58D9
100
AcDbEntity
  8
AM_5
100
AcDbLine
 10
1483.311694123653
 20
583.2349655889934
 30
0.0
 11
1483.311694123653
 21
302.9484939543454
 31
0.0
  0
LINE
  5
58DC
330
58D9
100
AcDbEntity
  8
AM_5
100
AcDbLine
 10
841.3116941236541
 20
306.9484939543453
 30
0.0
 11
1475.311694123653
 21
306.9484939543453
 31
0.0
  0
INSERT
  5
58DD
330
58D9
100
AcDbEntity
  8
AM_5
100
AcDbBlockReference
  2
_Open30
 10
833.3116941236541
 20
306.9484939543453
 30
0.0
 41
8.0
 42
8.0
 43
8.0
 50
180.0
  0
INSERT
  5
58DE
330
58D9
100
AcDbEntity
  8
AM_5
100
AcDbBlockReference
  2
_Open30
 10
1483.311694123653
 20
306.9484939543453
 30
0.0
 41
8.0
 42
8.0
 43
8.0
  0
MTEXT
  5
58DF
330
58D9
100
AcDbEntity
  8
AM_5
 62
     2
100
AcDbMText
 10
1158.311694123653
 20
315.9484939543454
 30
0.0
 40
14.0
 41
0.0
 71
     5
 72
     1
  1
650
  7
スタイル１
 73
     1
 44
1.0
  0
POINT
  5
58E0
330
58D9
100
AcDbEntity
  8
Defpoints
 62
     0
100
AcDbPoint
 10
833.3116941236541
 20
584.2349655889939
 30
0.0
  0
POINT
  5
58E1
330
58D9
100
AcDbEntity
  8
Defpoints
 62
     0
100
AcDbPoint
 10
1483.311694123653
 20
587.2349655889934
 30
0.0
  0
POINT
  5
58E2
330
58D9
100
AcDbEntity
  8
Defpoints
 62
     0
100
AcDbPoint
 10
1483.311694123653
 20
306.9484939543453
 30
0.0
  0
ENDBLK
  5
58E4
330
58D9
100
AcDbEntity
  8
0
100
AcDbBlockEnd
  0
BLOCK
  5
5911
330
5907
100
AcDbEntity
  8
0
100
AcDbBlockBegin
  2
*D47
 70
     1
 10
0.0
 20
0.0
 30
0.0
  3
*D47
  1

  0
LINE
  5
5908
330
5907
100
AcDbEntity
  8
AM_5
100
AcDbLine
 10
977.3116941236528
 20
642.2349655889938
 30
0.0
 11
1619.279242705328
 21
642.2349655889937
 31
0.0
  0
LINE
  5
5909
330
5907
100
AcDbEntity
  8
AM_5
100
AcDbLine
 10
1622.775528561062
 20
1873.234965588993
 30
0.0
 11
1611.279242705328
 21
1873.234965588993
 31
0.0
  0
LINE
  5
590A
330
5907
100
AcDbEntity
  8
AM_5
100
AcDbLine
 10
1615.279242705328
 20
650.2349655889937
 30
0.0
 11
1615.279242705328
 21
1865.234965588993
 31
0.0
  0
INSERT
  5
590B
330
5907
100
AcDbEntity
  8
AM_5
100
AcDbBlockReference
  2
_Open30
 10
1615.279242705328
 20
642.2349655889937
 30
0.0
 41
8.0
 42
8.0
 43
8.0
 50
270.0
  0
INSERT
  5
590C
330
5907
100
AcDbEntity
  8
AM_5
100
AcDbBlockReference
  2
_Open30
 10
1615.279242705328
 20
1873.234965588993
 30
0.0
 41
8.0
 42
8.0
 43
8.0
 50
90.0
  0
MTEXT
  5
590D
330
5907
100
AcDbEntity
  8
AM_5
 62
     2
100
AcDbMText
 10
1606.279242705328
 20
1257.734965588994
 30
0.0
 40
14.0
 41
0.0
 71
     5
 72
     1
  1
1231
  7
スタイル１
 11
0.0000000000000001
 21
1.0
 31
0.0
 73
     1
 44
1.0
  0
POINT
  5
590E
330
5907
100
AcDbEntity
  8
Defpoints
 62
     0
100
AcDbPoint
 10
973.3116941236529
 20
642.2349655889938
 30
0.0
  0
POINT
  5
590F
330
5907
100
AcDbEntity
  8
Defpoints
 62
     0
100
AcDbPoint
 10
1626.775528561061
 20
1873.234965588993
 30
0.0
  0
POINT
  5
5910
330
5907
100
AcDbEntity
  8
Defpoints
 62
     0
100
AcDbPoint
 10
1615.279242705328
 20
1873.234965588993
 30
0.0
  0
ENDBLK
  5
5912
330
5907
100
AcDbEntity
  8
0
100
AcDbBlockEnd
  0
BLOCK
  5
592D
330
5921
100
AcDbEntity
  8
0
100
AcDbBlockBegin
  2
*D48
 70
     1
 10
0.0
 20
0.0
 30
0.0
  3
*D48
  1

  0
LINE
  5
593A
330
5921
100
AcDbEntity
  8
AM_5
100
AcDbLine
 10
1880.696604665829
 20
904.4136899151631
 30
0.0
 11
1880.696604665829
 21
840.3591801610399
 31
0.0
  0
LINE
  5
593B
330
5921
100
AcDbEntity
  8
AM_5
100
AcDbLine
 10
1885.69660466583
 20
904.413689915164
 30
0.0
 11
1885.69660466583
 21
840.3591801610399
 31
0.0
  0
LINE
  5
593C
330
5921
100
AcDbEntity
  8
AM_5
100
AcDbLine
 10
1893.696604665829
 20
844.35918016104
 30
0.0
 11
1901.69660466583
 21
844.35918016104
 31
0.0
  0
LINE
  5
593D
330
5921
100
AcDbEntity
  8
AM_5
100
AcDbLine
 10
1872.69660466583
 20
844.35918016104
 30
0.0
 11
1853.447873701362
 21
844.35918016104
 31
0.0
  0
LINE
  5
593E
330
5921
100
AcDbEntity
  8
AM_5
100
AcDbLine
 10
1885.69660466583
 20
844.35918016104
 30
0.0
 11
1880.696604665829
 21
844.35918016104
 31
0.0
  0
INSERT
  5
593F
330
5921
100
AcDbEntity
  8
AM_5
100
AcDbBlockReference
  2
_Open30
 10
1885.69660466583
 20
844.35918016104
 30
0.0
 41
8.0
 42
8.0
 43
8.0
 50
180.0
  0
INSERT
  5
5940
330
5921
100
AcDbEntity
  8
AM_5
100
AcDbBlockReference
  2
_Open30
 10
1880.696604665829
 20
844.35918016104
 30
0.0
 41
8.0
 42
8.0
 43
8.0
  0
MTEXT
  5
5941
330
5921
100
AcDbEntity
  8
AM_5
 62
     2
100
AcDbMText
 10
1859.072239183596
 20
853.35918016104
 30
0.0
 40
14.0
 41
0.0
 71
     5
 72
     1
  1
5
  7
スタイル１
 73
     1
 44
1.0
  0
POINT
  5
5942
330
5921
100
AcDbEntity
  8
Defpoints
 62
     0
100
AcDbPoint
 10
1880.696604665829
 20
908.413689915163
 30
0.0
  0
POINT
  5
5943
330
5921
100
AcDbEntity
  8
Defpoints
 62
     0
100
AcDbPoint
 10
1885.69660466583
 20
908.4136899151641
 30
0.0
  0
POINT
  5
5944
330
5921
100
AcDbEntity
  8
Defpoints
 62
     0
100
AcDbPoint
 10
1885.69660466583
 20
844.35918016104
 30
0.0
  0
ENDBLK
  5
592E
330
5921
100
AcDbEntity
  8
0
100
AcDbBlockEnd
  0
BLOCK
  5
59A7
330
599B
100
AcDbEntity
  8
0
100
AcDbBlockBegin
  2
*D49
 70
     1
 10
0.0
 20
0.0
 30
0.0
  3
*D49
  1

  0
LINE
  5
599C
330
599B
100
AcDbEntity
  8
AM_5
100
AcDbLine
 10
2069.69660466583
 20
910.4136899151635
 30
0.0
 11
2162.202211885969
 21
910.4136899151635
 31
0.0
  0
LINE
  5
599D
330
599B
100
AcDbEntity
  8
AM_5
100
AcDbLine
 10
2121.19660466583
 20
907.4136899151636
 30
0.0
 11
2162.202211885969
 21
907.4136899151636
 31
0.0
  0
LINE
  5
599E
330
599B
100
AcDbEntity
  8
AM_5
100
AcDbLine
 10
2158.202211885969
 20
918.4136899151635
 30
0.0
 11
2158.202211885969
 21
926.4136899151635
 31
0.0
  0
LINE
  5
599F
330
599B
100
AcDbEntity
  8
AM_5
100
AcDbLine
 10
2158.202211885969
 20
899.4136899151635
 30
0.0
 11
2158.202211885969
 21
880.1649589506965
 31
0.0
  0
LINE
  5
59A0
330
599B
100
AcDbEntity
  8
AM_5
100
AcDbLine
 10
2158.202211885969
 20
910.4136899151635
 30
0.0
 11
2158.202211885969
 21
907.4136899151636
 31
0.0
  0
INSERT
  5
59A1
330
599B
100
AcDbEntity
  8
AM_5
100
AcDbBlockReference
  2
_Open30
 10
2158.202211885969
 20
910.4136899151635
 30
0.0
 41
8.0
 42
8.0
 43
8.0
 50
270.0
  0
INSERT
  5
59A2
330
599B
100
AcDbEntity
  8
AM_5
100
AcDbBlockReference
  2
_Open30
 10
2158.202211885969
 20
907.4136899151636
 30
0.0
 41
8.0
 42
8.0
 43
8.0
 50
90.0
  0
MTEXT
  5
59A3
330
599B
100
AcDbEntity
  8
AM_5
 62
     2
100
AcDbMText
 10
2149.202211885969
 20
885.7893244329304
 30
0.0
 40
14.0
 41
0.0
 71
     5
 72
     1
  1
3
  7
スタイル１
 11
0.0000000000000001
 21
1.0
 31
0.0
 73
     1
 44
1.0
  0
POINT
  5
59A4
330
599B
100
AcDbEntity
  8
Defpoints
 62
     0
100
AcDbPoint
 10
2065.69660466583
 20
910.4136899151635
 30
0.0
  0
POINT
  5
59A5
330
599B
100
AcDbEntity
  8
Defpoints
 62
     0
100
AcDbPoint
 10
2117.196604665829
 20
907.4136899151636
 30
0.0
  0
POINT
  5
59A6
330
599B
100
AcDbEntity
  8
Defpoints
 62
     0
100
AcDbPoint
 10
2158.202211885969
 20
907.4136899151636
 30
0.0
  0
ENDBLK
  5
59A8
330
599B
100
AcDbEntity
  8
0
100
AcDbBlockEnd
  0
ENDSEC
  0
SECTION
  2
ENTITIES
  0
LINE
  5
24
330
2
100
AcDbEntity
  8
A1枠
100
AcDbLine
 10
3200.0
 20
2266.0
 30
0.0
 11
40.0
 21
2266.0
 31
0.0
  0
LINE
  5
26
330
2
100
AcDbEntity
  8
A1枠
100
AcDbLine
 10
40.0
 20
53.99999999999955
 30
0.0
 11
3200.0
 21
53.99999999999955
 31
0.0
  0
LWPOLYLINE
  5
27
330
2
100
AcDbEntity
  8
図面範囲
 62
     5
100
AcDbPolyline
 90
        4
 70
     1
 43
0.0
 10
-20.0
 20
2276.159999999999
 10
3278.240000000002
 20
2276.159999999999
 10
3278.240000000002
 20
-10.00000000000045
 10
-20.0
 20
-10.0
  0
LINE
  5
33
330
2
100
AcDbEntity
  8
A1枠
100
AcDbLine
 10
40.0
 20
2266.0
 30
0.0
 11
40.0
 21
53.99999999999955
 31
0.0
  0
LINE
  5
222
330
2
100
AcDbEntity
  8
A1枠
100
AcDbLine
 10
3200.0
 20
53.99999999999955
 30
0.0
 11
3200.0
 21
2266.0
 31
0.0
  0
LWPOLYLINE
  5
235
330
2
100
AcDbEntity
  8
A1枠
100
AcDbPolyline
 90
        4
 70
     1
 43
0.0
 10
2582.799998875414
 20
282.0000000000001
 10
2742.799998875414
 20
282.0000000000001
 10
2742.799998875414
 20
302.0000000000001
 10
2582.799998875414
 20
302.0000000000001
  0
LWPOLYLINE
  5
236
330
2
100
AcDbEntity
  8
A1枠
100
AcDbPolyline
 90
        4
 70
     1
 43
0.0
 10
2582.799998875414
 20
322.0000000000001
 10
2742.799998875414
 20
322.0000000000001
 10
2742.799998875414
 20
342.0000000000001
 10
2582.799998875414
 20
342.0000000000001
  0
ATTDEF
  5
237
330
2
100
AcDbEntity
  8
A1枠
100
AcDbText
 10
2589.502531825329
 20
306.0000000000001
 30
0.0
 40
12.0
  1

  7
表題
 11
2589.502531825329
 21
312.0
 31
0.0
100
AcDbAttributeDefinition
  3
部品名称
  2
M20xL42ﾎﾞﾙﾄ,ﾜｯｼｬｰ
 70
     0
 74
     2
  0
LWPOLYLINE
  5
239
330
2
100
AcDbEntity
  8
A1枠
100
AcDbPolyline
 90
        4
 70
     1
 43
0.0
 10
2582.799998875414
 20
302.0000000000001
 10
2742.799998875414
 20
302.0000000000001
 10
2742.799998875414
 20
322.0000000000001
 10
2582.799998875414
 20
322.0000000000001
  0
LWPOLYLINE
  5
23D
330
2
100
AcDbEntity
  8
A1枠
100
AcDbPolyline
 90
        4
 70
     1
 43
0.0
 10
2582.799998875414
 20
182.0000000000001
 10
2742.799998875414
 20
182.0000000000001
 10
2742.799998875414
 20
202.0000000000001
 10
2582.799998875414
 20
202.0000000000001
  0
LWPOLYLINE
  5
23E
330
2
100
AcDbEntity
  8
A1枠
100
AcDbPolyline
 90
        4
 70
     1
 43
0.0
 10
2582.799998875414
 20
202.0000000000001
 10
2742.799998875414
 20
202.0000000000001
 10
2742.799998875414
 20
222.0000000000001
 10
2582.799998875414
 20
222.0000000000001
  0
LWPOLYLINE
  5
23F
330
2
100
AcDbEntity
  8
A1枠
100
AcDbPolyline
 90
        4
 70
     1
 43
0.0
 10
2582.799998875414
 20
222.0000000000001
 10
2742.799998875414
 20
222.0000000000001
 10
2742.799998875414
 20
242.0000000000001
 10
2582.799998875414
 20
242.0000000000001
  0
LWPOLYLINE
  5
240
330
2
100
AcDbEntity
  8
A1枠
100
AcDbPolyline
 90
        4
 70
     1
 43
0.0
 10
2582.799998875414
 20
242.0000000000001
 10
2742.799998875414
 20
242.0000000000001
 10
2742.799998875414
 20
262.0
 10
2582.799998875414
 20
262.0
  0
LWPOLYLINE
  5
241
330
2
100
AcDbEntity
  8
A1枠
100
AcDbPolyline
 90
        4
 70
     1
 43
0.0
 10
2582.799998875414
 20
262.0
 10
2742.799998875414
 20
262.0
 10
2742.799998875414
 20
282.0000000000001
 10
2582.799998875414
 20
282.0000000000001
  0
LINE
  5
248
330
2
100
AcDbEntity
  8
A1枠
 62
     7
100
AcDbLine
 10
2542.799998875413
 20
182.0
 30
0.0
 11
3198.799998875413
 21
182.0
 31
0.0
  0
ATTDEF
  5
272
330
2
100
AcDbEntity
  8
A1枠
100
AcDbText
 10
2566.170785392268
 20
306.0000000000001
 30
0.0
 40
12.0
  1

  7
表題
 72
     2
 11
2574.799998875413
 21
312.0
 31
0.0
100
AcDbAttributeDefinition
  3
品番
  2
7
 70
     0
 74
     2
  0
LWPOLYLINE
  5
273
330
2
100
AcDbEntity
  8
A1枠
100
AcDbPolyline
 90
        4
 70
     1
 43
0.0
 10
2542.799998875413
 20
302.0000000000001
 10
2582.799998875414
 20
302.0000000000001
 10
2582.799998875414
 20
322.0000000000001
 10
2542.799998875413
 20
322.0000000000001
  0
LWPOLYLINE
  5
276
330
2
100
AcDbEntity
  8
A1枠
100
AcDbPolyline
 90
        4
 70
     1
 43
0.0
 10
2542.799998875413
 20
182.0000000000001
 10
2582.799998875414
 20
182.0000000000001
 10
2582.799998875414
 20
202.0000000000001
 10
2542.799998875413
 20
202.0000000000001
  0
LWPOLYLINE
  5
277
330
2
100
AcDbEntity
  8
A1枠
100
AcDbPolyline
 90
        4
 70
     1
 43
0.0
 10
2542.799998875413
 20
202.0000000000001
 10
2582.799998875414
 20
202.0000000000001
 10
2582.799998875414
 20
222.0000000000001
 10
2542.799998875413
 20
222.0000000000001
  0
LWPOLYLINE
  5
278
330
2
100
AcDbEntity
  8
A1枠
100
AcDbPolyline
 90
        4
 70
     1
 43
0.0
 10
2542.799998875413
 20
222.0000000000001
 10
2582.799998875414
 20
222.0000000000001
 10
2582.799998875414
 20
242.0000000000001
 10
2542.799998875413
 20
242.0000000000001
  0
LWPOLYLINE
  5
279
330
2
100
AcDbEntity
  8
A1枠
100
AcDbPolyline
 90
        4
 70
     1
 43
0.0
 10
2542.799998875413
 20
242.0000000000001
 10
2582.799998875414
 20
242.0000000000001
 10
2582.799998875414
 20
262.0
 10
2542.799998875413
 20
262.0
  0
LWPOLYLINE
  5
27A
330
2
100
AcDbEntity
  8
A1枠
100
AcDbPolyline
 90
        4
 70
     1
 43
0.0
 10
2542.799998875413
 20
262.0
 10
2582.799998875414
 20
262.0
 10
2582.799998875414
 20
282.0000000000001
 10
2542.799998875413
 20
282.0000000000001
  0
LWPOLYLINE
  5
27B
330
2
100
AcDbEntity
  8
A1枠
100
AcDbPolyline
 90
        4
 70
     1
 43
0.0
 10
2542.799998875413
 20
282.0000000000001
 10
2582.799998875414
 20
282.0000000000001
 10
2582.799998875414
 20
302.0000000000001
 10
2542.799998875413
 20
302.0000000000001
  0
ATTDEF
  5
27D
330
2
100
AcDbEntity
  8
A1枠
100
AcDbText
 10
2566.170785392268
 20
186.0000000000001
 30
0.0
 40
12.0
  1

  7
表題
 72
     2
 11
2574.799998875413
 21
192.0
 31
0.0
100
AcDbAttributeDefinition
  3
品番
  2
1
 70
     0
 74
     2
  0
ATTDEF
  5
27E
330
2
100
AcDbEntity
  8
A1枠
100
AcDbText
 10
2589.502531825329
 20
186.0000000000001
 30
0.0
 40
12.0
  1

  7
表題
 11
2589.502531825329
 21
192.0
 31
0.0
100
AcDbAttributeDefinition
  3
部品名称
  2
BLANK_FLANGE
 70
     0
 74
     2
  0
ATTDEF
  5
281
330
2
100
AcDbEntity
  8
A1枠
100
AcDbText
 10
2589.502531825329
 20
286.0000000000001
 30
0.0
 40
12.0
  1

  7
表題
 11
2589.502531825329
 21
292.0000000000001
 31
0.0
100
AcDbAttributeDefinition
  3
部品名称
  2
SUPPORT_PLATE
 70
     0
 74
     2
  0
ATTDEF
  5
282
330
2
100
AcDbEntity
  8
A1枠
100
AcDbText
 10
2589.502531825329
 20
246.0000000000001
 30
0.0
 40
12.0
  1

  7
表題
 11
2589.502531825329
 21
252.0000000000001
 31
0.0
100
AcDbAttributeDefinition
  3
部品名称
  2
FLANGE
 70
     0
 74
     2
  0
ATTDEF
  5
283
330
2
100
AcDbEntity
  8
A1枠
100
AcDbText
 10
2589.502531825329
 20
206.0000000000001
 30
0.0
 40
12.0
  1

  7
表題
 11
2589.502531825329
 21
212.0
 31
0.0
100
AcDbAttributeDefinition
  3
部品名称
  2
BASE
 70
     0
 74
     2
  0
ATTDEF
  5
284
330
2
100
AcDbEntity
  8
A1枠
100
AcDbText
 10
2589.502531825329
 20
226.0000000000001
 30
0.0
 40
12.0
  1

  7
表題
 11
2589.502531825329
 21
232.0000000000001
 31
0.0
100
AcDbAttributeDefinition
  3
部品名称
  2
GUIDE_PIPE
 70
     0
 74
     2
  0
ATTDEF
  5
285
330
2
100
AcDbEntity
  8
A1枠
100
AcDbText
 10
2589.502531825329
 20
266.0000000000001
 30
0.0
 40
12.0
  1

  7
表題
 11
2589.502531825329
 21
272.0000000000001
 31
0.0
100
AcDbAttributeDefinition
  3
部品名称
  2
PIPE
 70
     0
 74
     2
  0
ATTDEF
  5
286
330
2
100
AcDbEntity
  8
A1枠
100
AcDbText
 10
2566.170785392268
 20
246.0000000000001
 30
0.0
 40
12.0
  1

  7
表題
 72
     2
 11
2574.799998875413
 21
252.0000000000001
 31
0.0
100
AcDbAttributeDefinition
  3
品番
  2
4
 70
     0
 74
     2
  0
ATTDEF
  5
287
330
2
100
AcDbEntity
  8
A1枠
100
AcDbText
 10
2566.170785392268
 20
206.0000000000001
 30
0.0
 40
12.0
  1

  7
表題
 72
     2
 11
2574.799998875413
 21
212.0
 31
0.0
100
AcDbAttributeDefinition
  3
品番
  2
2
 70
     0
 74
     2
  0
ATTDEF
  5
288
330
2
100
AcDbEntity
  8
A1枠
100
AcDbText
 10
2566.170785392268
 20
226.0000000000001
 30
0.0
 40
12.0
  1

  7
表題
 72
     2
 11
2574.799998875413
 21
232.0000000000001
 31
0.0
100
AcDbAttributeDefinition
  3
品番
  2
3
 70
     0
 74
     2
  0
ATTDEF
  5
289
330
2
100
AcDbEntity
  8
A1枠
100
AcDbText
 10
2566.170785392268
 20
286.0000000000001
 30
0.0
 40
12.0
  1

  7
表題
 72
     2
 11
2574.799998875413
 21
292.0000000000001
 31
0.0
100
AcDbAttributeDefinition
  3
品番
  2
6
 70
     0
 74
     2
  0
ATTDEF
  5
28A
330
2
100
AcDbEntity
  8
A1枠
100
AcDbText
 10
2566.170785392268
 20
266.0000000000001
 30
0.0
 40
12.0
  1

  7
表題
 72
     2
 11
2574.799998875413
 21
272.0000000000001
 31
0.0
100
AcDbAttributeDefinition
  3
品番
  2
5
 70
     0
 74
     2
  0
LWPOLYLINE
  5
28B
330
2
100
AcDbEntity
  8
A1枠
100
AcDbPolyline
 90
        4
 70
     1
 43
0.0
 10
2542.799998875413
 20
322.0000000000001
 10
2582.799998875414
 20
322.0000000000001
 10
2582.799998875414
 20
342.0000000000001
 10
2542.799998875413
 20
342.0000000000001
  0
ATTDEF
  5
28C
330
2
100
AcDbEntity
  8
A1枠
100
AcDbText
 10
2589.502531825329
 20
326.0000000000001
 30
0.0
 40
12.0
  1

  7
表題
 11
2589.502531825329
 21
332.0000000000001
 31
0.0
100
AcDbAttributeDefinition
  3
部品名称
  2
O-RING
 70
     0
 74
     2
  0
ATTDEF
  5
28D
330
2
100
AcDbEntity
  8
A1枠
100
AcDbText
 10
2566.170785392268
 20
326.0000000000001
 30
0.0
 40
12.0
  1

  7
表題
 72
     2
 11
2574.799998875413
 21
332.0000000000001
 31
0.0
100
AcDbAttributeDefinition
  3
品番
  2
8
 70
     0
 74
     2
  0
LWPOLYLINE
  5
2EC
330
2
100
AcDbEntity
  8
A1枠
100
AcDbPolyline
 90
        4
 70
     1
 43
0.0
 10
3102.799998875413
 20
182.0000000000001
 10
3199.999999999999
 20
182.0000000000001
 10
3199.999999999999
 20
202.0000000000001
 10
3102.799998875413
 20
202.0000000000001
  0
LWPOLYLINE
  5
2ED
330
2
100
AcDbEntity
  8
A1枠
100
AcDbPolyline
 90
        4
 70
     1
 43
0.0
 10
3102.799998875413
 20
202.0000000000001
 10
3199.999999999999
 20
202.0000000000001
 10
3199.999999999999
 20
222.0000000000001
 10
3102.799998875413
 20
222.0000000000001
  0
LWPOLYLINE
  5
2EE
330
2
100
AcDbEntity
  8
A1枠
100
AcDbPolyline
 90
        4
 70
     1
 43
0.0
 10
3102.799998875413
 20
222.0000000000001
 10
3199.999999999999
 20
222.0000000000001
 10
3199.999999999999
 20
242.0000000000001
 10
3102.799998875413
 20
242.0000000000001
  0
LWPOLYLINE
  5
2EF
330
2
100
AcDbEntity
  8
A1枠
100
AcDbPolyline
 90
        4
 70
     1
 43
0.0
 10
3102.799998875413
 20
242.0000000000001
 10
3199.999999999999
 20
242.0000000000001
 10
3199.999999999999
 20
262.0
 10
3102.799998875413
 20
262.0
  0
LWPOLYLINE
  5
2F0
330
2
100
AcDbEntity
  8
A1枠
100
AcDbPolyline
 90
        4
 70
     1
 43
0.0
 10
3102.799998875413
 20
302.0000000000001
 10
3199.999999999999
 20
302.0000000000001
 10
3199.999999999999
 20
322.0000000000001
 10
3102.799998875413
 20
322.0000000000001
  0
LWPOLYLINE
  5
2F1
330
2
100
AcDbEntity
  8
A1枠
100
AcDbPolyline
 90
        4
 70
     1
 43
0.0
 10
3102.799998875413
 20
282.0000000000001
 10
3199.999999999999
 20
282.0000000000001
 10
3199.999999999999
 20
302.0000000000001
 10
3102.799998875413
 20
302.0000000000001
  0
LWPOLYLINE
  5
2F2
330
2
100
AcDbEntity
  8
A1枠
100
AcDbPolyline
 90
        4
 70
     1
 43
0.0
 10
3102.799998875413
 20
262.0
 10
3199.999999999999
 20
262.0
 10
3199.999999999999
 20
282.0000000000001
 10
3102.799998875413
 20
282.0000000000001
  0
LWPOLYLINE
  5
2F3
330
2
100
AcDbEntity
  8
A1枠
100
AcDbPolyline
 90
        4
 70
     1
 43
0.0
 10
3102.799998875413
 20
322.0000000000001
 10
3199.999999999999
 20
322.0000000000001
 10
3199.999999999999
 20
342.0000000000001
 10
3102.799998875413
 20
342.0000000000001
  0
ATTDEF
  5
351
330
2
100
AcDbEntity
  8
A1枠
100
AcDbText
 10
2847.389543540254
 20
266.4000000000001
 30
0.0
 40
11.2
  1

  7
表題
 11
2847.389543540254
 21
272.0000000000001
 31
0.0
100
AcDbAttributeDefinition
  3
備考
  2
150AxSch80S
 70
     0
 74
     2
  0
LWPOLYLINE
  5
352
330
2
100
AcDbEntity
  8
A1枠
100
AcDbPolyline
 90
        4
 70
     1
 43
0.0
 10
2842.799998875413
 20
182.0000000000001
 10
2982.799998875414
 20
182.0000000000001
 10
2982.799998875414
 20
202.0000000000001
 10
2842.799998875413
 20
202.0000000000001
  0
LWPOLYLINE
  5
353
330
2
100
AcDbEntity
  8
A1枠
100
AcDbPolyline
 90
        4
 70
     1
 43
0.0
 10
2842.799998875413
 20
202.0000000000001
 10
2982.799998875414
 20
202.0000000000001
 10
2982.799998875414
 20
222.0000000000001
 10
2842.799998875413
 20
222.0000000000001
  0
LWPOLYLINE
  5
354
330
2
100
AcDbEntity
  8
A1枠
100
AcDbPolyline
 90
        4
 70
     1
 43
0.0
 10
2842.799998875413
 20
222.0000000000001
 10
2982.799998875414
 20
222.0000000000001
 10
2982.799998875414
 20
242.0000000000001
 10
2842.799998875413
 20
242.0000000000001
  0
LWPOLYLINE
  5
355
330
2
100
AcDbEntity
  8
A1枠
100
AcDbPolyline
 90
        4
 70
     1
 43
0.0
 10
2842.799998875413
 20
242.0000000000001
 10
2982.799998875414
 20
242.0000000000001
 10
2982.799998875414
 20
262.0
 10
2842.799998875413
 20
262.0
  0
LWPOLYLINE
  5
356
330
2
100
AcDbEntity
  8
A1枠
100
AcDbPolyline
 90
        4
 70
     1
 43
0.0
 10
2842.799998875413
 20
322.0000000000001
 10
2982.799998875414
 20
322.0000000000001
 10
2982.799998875414
 20
342.0000000000001
 10
2842.799998875413
 20
342.0000000000001
  0
LWPOLYLINE
  5
357
330
2
100
AcDbEntity
  8
A1枠
100
AcDbPolyline
 90
        4
 70
     1
 43
0.0
 10
2842.799998875413
 20
302.0000000000001
 10
2982.799998875414
 20
302.0000000000001
 10
2982.799998875414
 20
322.0000000000001
 10
2842.799998875413
 20
322.0000000000001
  0
LWPOLYLINE
  5
358
330
2
100
AcDbEntity
  8
A1枠
100
AcDbPolyline
 90
        4
 70
     1
 43
0.0
 10
2842.799998875413
 20
282.0000000000001
 10
2982.799998875414
 20
282.0000000000001
 10
2982.799998875414
 20
302.0000000000001
 10
2842.799998875413
 20
302.0000000000001
  0
LWPOLYLINE
  5
359
330
2
100
AcDbEntity
  8
A1枠
100
AcDbPolyline
 90
        4
 70
     1
 43
0.0
 10
2842.799998875413
 20
262.0
 10
2982.799998875414
 20
262.0
 10
2982.799998875414
 20
282.0000000000001
 10
2842.799998875413
 20
282.0000000000001
  0
ATTDEF
  5
35A
330
2
100
AcDbEntity
  8
A1枠
100
AcDbText
 10
2749.037020199915
 20
306.000000000001
 30
0.0
 40
12.0
  1

  7
表題
 11
2749.037020199915
 21
312.000000000001
 31
0.0
100
AcDbAttributeDefinition
  3
材質
  2
SUS316L
 70
     0
 74
     2
  0
LWPOLYLINE
  5
35B
330
2
100
AcDbEntity
  8
A1枠
100
AcDbPolyline
 90
        4
 70
     1
 43
0.0
 10
2742.799998875414
 20
302.0000000000001
 10
2842.799998875413
 20
302.0000000000001
 10
2842.799998875413
 20
322.0000000000001
 10
2742.799998875414
 20
322.0000000000001
  0
ATTDEF
  5
35D
330
2
100
AcDbEntity
  8
A1枠
100
AcDbText
 10
2749.037020199915
 20
286.000000000001
 30
0.0
 40
12.0
  1

  7
表題
 11
2749.037020199915
 21
292.000000000001
 31
0.0
100
AcDbAttributeDefinition
  3
材質
  2
SUS316L
 70
     0
 74
     2
  0
ATTDEF
  5
35E
330
2
100
AcDbEntity
  8
A1枠
100
AcDbText
 10
2749.037020199915
 20
206.0000000000012
 30
0.0
 40
12.0
  1

  7
表題
 11
2749.037020199915
 21
212.0000000000012
 31
0.0
100
AcDbAttributeDefinition
  3
材質
  2
SUS316L
 70
     0
 74
     2
  0
ATTDEF
  5
35F
330
2
100
AcDbEntity
  8
A1枠
100
AcDbText
 10
2749.037020199915
 20
246.000000000001
 30
0.0
 40
12.0
  1

  7
表題
 11
2749.037020199915
 21
252.000000000001
 31
0.0
100
AcDbAttributeDefinition
  3
材質
  2
SUS316L
 70
     0
 74
     2
  0
ATTDEF
  5
361
330
2
100
AcDbEntity
  8
A1枠
100
AcDbText
 10
2749.037020199915
 20
266.000000000001
 30
0.0
 40
12.0
  1

  7
表題
 11
2749.037020199915
 21
272.000000000001
 31
0.0
100
AcDbAttributeDefinition
  3
材質
  2
SUS316LTP
 70
     0
 74
     2
  0
LWPOLYLINE
  5
362
330
2
100
AcDbEntity
  8
A1枠
100
AcDbPolyline
 90
        4
 70
     1
 43
0.0
 10
2742.799998875414
 20
182.0000000000001
 10
2842.799998875413
 20
182.0000000000001
 10
2842.799998875413
 20
202.0000000000001
 10
2742.799998875414
 20
202.0000000000001
  0
LWPOLYLINE
  5
363
330
2
100
AcDbEntity
  8
A1枠
100
AcDbPolyline
 90
        4
 70
     1
 43
0.0
 10
2742.799998875414
 20
202.0000000000001
 10
2842.799998875413
 20
202.0000000000001
 10
2842.799998875413
 20
222.0000000000001
 10
2742.799998875414
 20
222.0000000000001
  0
LWPOLYLINE
  5
364
330
2
100
AcDbEntity
  8
A1枠
100
AcDbPolyline
 90
        4
 70
     1
 43
0.0
 10
2742.799998875414
 20
222.0000000000001
 10
2842.799998875413
 20
222.0000000000001
 10
2842.799998875413
 20
242.0000000000001
 10
2742.799998875414
 20
242.0000000000001
  0
LWPOLYLINE
  5
365
330
2
100
AcDbEntity
  8
A1枠
100
AcDbPolyline
 90
        4
 70
     1
 43
0.0
 10
2742.799998875414
 20
242.0000000000001
 10
2842.799998875413
 20
242.0000000000001
 10
2842.799998875413
 20
262.0
 10
2742.799998875414
 20
262.0
  0
LWPOLYLINE
  5
366
330
2
100
AcDbEntity
  8
A1枠
100
AcDbPolyline
 90
        4
 70
     1
 43
0.0
 10
2742.799998875414
 20
282.0000000000001
 10
2842.799998875413
 20
282.0000000000001
 10
2842.799998875413
 20
302.0000000000001
 10
2742.799998875414
 20
302.0000000000001
  0
LWPOLYLINE
  5
367
330
2
100
AcDbEntity
  8
A1枠
100
AcDbPolyline
 90
        4
 70
     1
 43
0.0
 10
2742.799998875414
 20
262.0
 10
2842.799998875413
 20
262.0
 10
2842.799998875413
 20
282.0000000000001
 10
2742.799998875414
 20
282.0000000000001
  0
ATTDEF
  5
36D
330
2
100
AcDbEntity
  8
A1枠
100
AcDbText
 10
2749.037020199912
 20
226.000000000001
 30
0.0
 40
12.0
  1

  7
表題
 11
2749.037020199912
 21
232.000000000001
 31
0.0
100
AcDbAttributeDefinition
  3
材質
  2
FRP
 70
     0
 74
     2
  0
ATTDEF
  5
36E
330
2
100
AcDbEntity
  8
A1枠
100
AcDbText
 10
2847.389543540254
 20
186.0000000000001
 30
0.0
 40
12.0
  1

  7
表題
 11
2847.389543540254
 21
192.0
 31
0.0
100
AcDbAttributeDefinition
  3
備考
  2
JIS10k
 70
     0
 74
     2
  0
ATTDEF
  5
377
330
2
100
AcDbEntity
  8
A1枠
100
AcDbText
 10
2847.389543540254
 20
246.0000000000001
 30
0.0
 40
12.0
  1

  7
表題
 11
2847.389543540254
 21
252.0000000000001
 31
0.0
100
AcDbAttributeDefinition
  3
備考
  2
JIS10k
 70
     0
 74
     2
  0
ATTDEF
  5
378
330
2
100
AcDbEntity
  8
A1枠
100
AcDbText
 10
2847.667467406722
 20
286.0000000000046
 30
0.0
 40
12.0
  1

  7
表題
 11
2847.667467406722
 21
292.0000000000046
 31
0.0
100
AcDbAttributeDefinition
  3
素材寸法
  2
t8
 70
     0
 74
     2
  0
LWPOLYLINE
  5
379
330
2
100
AcDbEntity
  8
A1枠
100
AcDbPolyline
 90
        4
 70
     1
 43
0.0
 10
2742.799998875414
 20
322.0000000000001
 10
2842.799998875413
 20
322.0000000000001
 10
2842.799998875413
 20
342.0000000000001
 10
2742.799998875414
 20
342.0000000000001
  0
ATTDEF
  5
37A
330
2
100
AcDbEntity
  8
A1枠
100
AcDbText
 10
2749.037020199915
 20
326.000000000001
 30
0.0
 40
12.0
  1

  7
表題
 11
2749.037020199915
 21
332.000000000001
 31
0.0
100
AcDbAttributeDefinition
  3
材質
  2
VITON
 70
     0
 74
     2
  0
ATTDEF
  5
37B
330
2
100
AcDbEntity
  8
A1枠
100
AcDbText
 10
2847.667467406722
 20
326.0000000000046
 30
0.0
 40
12.0
  1

  7
表題
 11
2847.667467406722
 21
332.0000000000046
 31
0.0
100
AcDbAttributeDefinition
  3
素材寸法
  2
φ4
 70
     0
 74
     2
  0
ATTDEF
  5
37C
330
2
100
AcDbEntity
  8
A1枠
100
AcDbText
 10
3107.389543540254
 20
306.0000000000001
 30
0.0
 40
12.0
  1

  7
表題
 11
3107.389543540254
 21
312.0
 31
0.0
100
AcDbAttributeDefinition
  3
備考
  2
COMMERCI
 70
     0
 74
     2
  0
LWPOLYLINE
  5
37D
330
2
100
AcDbEntity
  8
A1枠
100
AcDbPolyline
 90
        4
 70
     1
 43
0.0
 10
3042.799998875413
 20
302.0000000000001
 10
3102.799998875413
 20
302.0000000000001
 10
3102.799998875413
 20
322.0000000000001
 10
3042.799998875413
 20
322.0000000000001
  0
ATTDEF
  5
37E
330
2
100
AcDbEntity
  8
A1枠
100
AcDbText
 10
3057.653931459683
 20
306.0000000000001
 30
0.0
 40
12.0
  1

  7
表題
 72
     2
 11
3094.799998875414
 21
312.0
 31
0.0
100
AcDbAttributeDefinition
  3
数量
  2
8sets
 70
     0
 74
     2
  0
LWPOLYLINE
  5
37F
330
2
100
AcDbEntity
  8
A1枠
100
AcDbPolyline
 90
        4
 70
     1
 43
0.0
 10
2982.799998875414
 20
302.0000000000001
 10
3042.799998875413
 20
302.0000000000001
 10
3042.799998875413
 20
322.0000000000001
 10
2982.799998875414
 20
322.0000000000001
  0
LWPOLYLINE
  5
380
330
2
100
AcDbEntity
  8
A1枠
100
AcDbPolyline
 90
        4
 70
     1
 43
0.0
 10
3042.799998875413
 20
282.0000000000001
 10
3102.799998875413
 20
282.0000000000001
 10
3102.799998875413
 20
302.0000000000001
 10
3042.799998875413
 20
302.0000000000001
  0
LWPOLYLINE
  5
381
330
2
100
AcDbEntity
  8
A1枠
100
AcDbPolyline
 90
        4
 70
     1
 43
0.0
 10
3042.799998875413
 20
202.0000000000001
 10
3102.799998875413
 20
202.0000000000001
 10
3102.799998875413
 20
222.0000000000001
 10
3042.799998875413
 20
222.0000000000001
  0
LWPOLYLINE
  5
382
330
2
100
AcDbEntity
  8
A1枠
100
AcDbPolyline
 90
        4
 70
     1
 43
0.0
 10
3042.799998875413
 20
222.0000000000001
 10
3102.799998875413
 20
222.0000000000001
 10
3102.799998875413
 20
242.0000000000001
 10
3042.799998875413
 20
242.0000000000001
  0
LWPOLYLINE
  5
383
330
2
100
AcDbEntity
  8
A1枠
100
AcDbPolyline
 90
        4
 70
     1
 43
0.0
 10
3042.799998875413
 20
242.0000000000001
 10
3102.799998875413
 20
242.0000000000001
 10
3102.799998875413
 20
262.0
 10
3042.799998875413
 20
262.0
  0
LWPOLYLINE
  5
385
330
2
100
AcDbEntity
  8
A1枠
100
AcDbPolyline
 90
        4
 70
     1
 43
0.0
 10
3042.799998875413
 20
182.0000000000001
 10
3102.799998875413
 20
182.0000000000001
 10
3102.799998875413
 20
202.0000000000001
 10
3042.799998875413
 20
202.0000000000001
  0
LWPOLYLINE
  5
387
330
2
100
AcDbEntity
  8
A1枠
100
AcDbPolyline
 90
        4
 70
     1
 43
0.0
 10
3042.799998875413
 20
262.0
 10
3102.799998875413
 20
262.0
 10
3102.799998875413
 20
282.0000000000001
 10
3042.799998875413
 20
282.0000000000001
  0
LWPOLYLINE
  5
38B
330
2
100
AcDbEntity
  8
A1枠
100
AcDbPolyline
 90
        4
 70
     1
 43
0.0
 10
2982.799998875414
 20
182.0000000000001
 10
3042.799998875413
 20
182.0000000000001
 10
3042.799998875413
 20
202.0000000000001
 10
2982.799998875414
 20
202.0000000000001
  0
LWPOLYLINE
  5
390
330
2
100
AcDbEntity
  8
A1枠
100
AcDbPolyline
 90
        4
 70
     1
 43
0.0
 10
2982.799998875414
 20
282.0000000000001
 10
3042.799998875413
 20
282.0000000000001
 10
3042.799998875413
 20
302.0000000000001
 10
2982.799998875414
 20
302.0000000000001
  0
LWPOLYLINE
  5
391
330
2
100
AcDbEntity
  8
A1枠
100
AcDbPolyline
 90
        4
 70
     1
 43
0.0
 10
2982.799998875414
 20
202.0000000000001
 10
3042.799998875413
 20
202.0000000000001
 10
3042.799998875413
 20
222.0000000000001
 10
2982.799998875414
 20
222.0000000000001
  0
LWPOLYLINE
  5
392
330
2
100
AcDbEntity
  8
A1枠
100
AcDbPolyline
 90
        4
 70
     1
 43
0.0
 10
2982.799998875414
 20
222.0000000000001
 10
3042.799998875413
 20
222.0000000000001
 10
3042.799998875413
 20
242.0000000000001
 10
2982.799998875414
 20
242.0000000000001
  0
LWPOLYLINE
  5
393
330
2
100
AcDbEntity
  8
A1枠
100
AcDbPolyline
 90
        4
 70
     1
 43
0.0
 10
2982.799998875414
 20
242.0000000000001
 10
3042.799998875413
 20
242.0000000000001
 10
3042.799998875413
 20
262.0
 10
2982.799998875414
 20
262.0
  0
LWPOLYLINE
  5
394
330
2
100
AcDbEntity
  8
A1枠
100
AcDbPolyline
 90
        4
 70
     1
 43
0.0
 10
2982.799998875414
 20
262.0
 10
3042.799998875413
 20
262.0
 10
3042.799998875413
 20
282.0000000000001
 10
2982.799998875414
 20
282.0000000000001
  0
LWPOLYLINE
  5
3A0
330
2
100
AcDbEntity
  8
A1枠
100
AcDbPolyline
 90
        4
 70
     1
 43
0.0
 10
3042.799998875413
 20
322.0000000000001
 10
3102.799998875413
 20
322.0000000000001
 10
3102.799998875413
 20
342.0000000000001
 10
3042.799998875413
 20
342.0000000000001
  0
LWPOLYLINE
  5
3A1
330
2
100
AcDbEntity
  8
A1枠
100
AcDbPolyline
 90
        4
 70
     1
 43
0.0
 10
2982.799998875414
 20
322.0000000000001
 10
3042.799998875413
 20
322.0000000000001
 10
3042.799998875413
 20
342.0000000000001
 10
2982.799998875414
 20
342.0000000000001
  0
ATTDEF
  5
3A2
330
2
100
AcDbEntity
  8
A1枠
100
AcDbText
 10
3107.389543540254
 20
326.0000000000001
 30
0.0
 40
12.0
  1

  7
表題
 11
3107.389543540254
 21
332.0000000000001
 31
0.0
100
AcDbAttributeDefinition
  3
備考
  2
150A
 70
     0
 74
     2
  0
ATTDEF
  5
3A3
330
2
100
AcDbEntity
  8
A1枠
100
AcDbText
 10
3086.170785392267
 20
326.0000000000001
 30
0.0
 40
12.0
  1

  7
表題
 72
     2
 11
3094.799998875414
 21
332.0000000000001
 31
0.0
100
AcDbAttributeDefinition
  3
数量
  2
1
 70
     0
 74
     2
  0
LINE
  5
3A5
330
2
100
AcDbEntity
  8
A1枠
 62
     7
100
AcDbLine
 10
3200.0
 20
161.9999999999995
 30
0.0
 11
3200.0
 21
181.9999999999995
 31
0.0
  0
LINE
  5
1144
330
2
100
AcDbEntity
  8
A1枠
100
AcDbLine
 10
2542.799998875416
 20
182.0
 30
0.0
 11
3199.999998875413
 21
181.9999999999995
 31
0.0
  0
MTEXT
  5
1145
330
2
100
AcDbEntity
  8
A1枠
 62
     3
100
AcDbMText
 10
2951.999998875413
 20
108.9999999999995
 30
0.0
 40
14.0
 41
248.0
 71
     4
 72
     5
  1
Inner Vessel Support Nozzle
  7
表題
 73
     1
 44
1.0
  0
MTEXT
  5
1146
330
2
100
AcDbEntity
  8
A1枠
 62
     3
100
AcDbMText
 10
3004.999998875413
 20
151.9999999999995
 30
0.0
 40
12.0
 41
130.0
 71
     5
 72
     5
  1
2002年3月27日
  7
表題
 73
     1
 44
1.0
  0
LINE
  5
1147
330
2
100
AcDbEntity
  8
A1枠
100
AcDbLine
 10
2542.799998875416
 20
98.0
 30
0.0
 11
3199.999998875413
 21
97.99999999999954
 31
0.0
  0
LINE
  5
1148
330
2
100
AcDbEntity
  8
A1枠
100
AcDbLine
 10
3199.999998875413
 20
141.9999999999995
 30
0.0
 11
2542.799998875416
 21
142.0
 31
0.0
  0
LINE
  5
1149
330
2
100
AcDbEntity
  8
A1枠
100
AcDbLine
 10
2542.799998875416
 20
162.0
 30
0.0
 11
3199.999998875413
 21
161.9999999999995
 31
0.0
  0
LINE
  5
114A
330
2
100
AcDbEntity
  8
A1枠
100
AcDbLine
 10
2542.799998875416
 20
54.0
 30
0.0
 11
3199.999998875413
 21
53.99999999999955
 31
0.0
  0
MTEXT
  5
114B
330
2
100
AcDbEntity
  8
A1枠
 62
     3
100
AcDbMText
 10
2951.999998875413
 20
75.99999999999955
 30
0.0
 40
16.0
 41
248.0
 71
     4
 72
     5
  1
TC-01196-222
  7
表題
 73
     1
 44
1.0
  0
MTEXT
  5
114C
330
2
100
AcDbEntity
  8
A1枠
 62
     3
100
AcDbMText
 10
2951.999998875413
 20
130.9999999999995
 30
0.0
 40
14.0
 41
248.0
 71
     4
 72
     5
  1
Gamma Detector LXe Vessel
  7
表題
 73
     1
 44
1.0
  0
MTEXT
  5
114D
330
2
100
AcDbEntity
  8
A1枠
 62
     3
100
AcDbMText
 10
2662.799998875416
 20
172.0
 30
0.0
 40
10.0
 41
160.0
 71
     5
 72
     5
  1
Name
  7
表題
 73
     1
 44
1.0
  0
MTEXT
  5
114E
330
2
100
AcDbEntity
  8
A1枠
 62
     3
100
AcDbMText
 10
2559.842489060982
 20
75.99999999999955
 30
0.0
 40
14.0
 41
0.0
 71
     4
 72
     5
  1
大陽東洋酸素株式会社
  7
大陽東洋酸素
 73
     1
 44
1.0
  0
MTEXT
  5
114F
330
2
100
AcDbEntity
  8
A1枠
 62
     3
100
AcDbMText
 10
2653.999998875413
 20
152.0
 30
0.0
 40
10.0
 41
124.0
 71
     5
 72
     5
  1
Judge
  7
表題
 73
     1
 44
1.0
  0
LINE
  5
1150
330
2
100
AcDbEntity
  8
A1枠
100
AcDbLine
 10
2582.799998875416
 20
162.0
 30
0.0
 11
2582.799998875416
 21
182.0
 31
0.0
  0
LINE
  5
1151
330
2
100
AcDbEntity
  8
A1枠
100
AcDbLine
 10
2542.799998875416
 20
182.0
 30
0.0
 11
2542.799998875416
 21
162.0
 31
0.0
  0
MTEXT
  5
1152
330
2
100
AcDbEntity
  8
A1枠
 62
     3
100
AcDbMText
 10
2562.799998875416
 20
172.0
 30
0.0
 40
10.0
 41
40.0
 71
     5
 72
     5
  1
No.
  7
表題
 73
     1
 44
1.0
  0
MTEXT
  5
1153
330
2
100
AcDbEntity
  8
A1枠
 62
     3
100
AcDbMText
 10
2566.105592593586
 20
119.8503982509685
 30
0.0
 40
8.0
 41
0.0
 71
     5
 72
     5
  1
Kamioka
  7
表題
 73
     1
 44
1.0
  0
LINE
  5
1154
330
2
100
AcDbEntity
  8
A1枠
100
AcDbLine
 10
2591.999998875413
 20
162.0
 30
0.0
 11
2591.999998875413
 21
98.0
 31
0.0
  0
LINE
  5
1155
330
2
100
AcDbEntity
  8
A1枠
100
AcDbLine
 10
2542.799998875416
 20
54.0
 30
0.0
 11
2542.799998875416
 21
162.0
 31
0.0
  0
MTEXT
  5
1156
330
2
100
AcDbEntity
  8
A1枠
 62
     3
100
AcDbMText
 10
2568.799998875416
 20
152.0
 30
0.0
 40
6.0
 41
52.0
 71
     5
 72
     5
  1
Approved by
  7
表題
 73
     1
 44
1.0
  0
MTEXT
  5
1157
330
2
100
AcDbEntity
  8
A1枠
 62
     3
100
AcDbMText
 10
3012.799998875416
 20
171.9999999999998
 30
0.0
 40
10.0
 41
60.0
 71
     5
 72
     5
  1
Weight
  7
表題
 73
     1
 44
1.0
  0
LINE
  5
1158
330
2
100
AcDbEntity
  8
A1枠
100
AcDbLine
 10
3042.799998875416
 20
162.0
 30
0.0
 11
3042.799998875416
 21
182.0
 31
0.0
  0
MTEXT
  5
1159
330
2
100
AcDbEntity
  8
A1枠
 62
     3
100
AcDbMText
 10
2907.599932208748
 20
172.0
 30
0.0
 40
10.0
 41
181.3332
 71
     5
 72
     5
  1
Dimension
  7
表題
 73
     1
 44
1.0
  0
LINE
  5
115A
330
2
100
AcDbEntity
  8
A1枠
100
AcDbLine
 10
2982.799998875416
 20
182.0
 30
0.0
 11
2982.799998875416
 21
162.0
 31
0.0
  0
MTEXT
  5
115B
330
2
100
AcDbEntity
  8
A1枠
 62
     3
100
AcDbMText
 10
2792.666598875413
 20
172.0
 30
0.0
 40
10.0
 41
89.3332
 71
     5
 72
     5
  1
Material
  7
表題
 73
     1
 44
1.0
  0
LINE
  5
115C
330
2
100
AcDbEntity
  8
A1枠
100
AcDbLine
 10
2842.799998875416
 20
162.0
 30
0.0
 11
2842.799998875416
 21
182.0
 31
0.0
  0
LINE
  5
115D
330
2
100
AcDbEntity
  8
A1枠
100
AcDbLine
 10
2742.799998875416
 20
182.0
 30
0.0
 11
2742.799998875416
 21
162.0
 31
0.0
  0
MTEXT
  5
115E
330
2
100
AcDbEntity
  8
A1枠
 62
     3
100
AcDbMText
 10
2909.999998875413
 20
119.9999999999995
 30
0.0
 40
10.0
 41
60.0
 71
     5
 72
     5
  1
Name\PType
  7
表題
 73
     1
 44
1.0
  0
MTEXT
  5
115F
330
2
100
AcDbEntity
  8
A1枠
 62
     3
100
AcDbMText
 10
2791.305592593584
 20
119.8503982509682
 30
0.0
 40
8.0
 41
0.0
 71
     5
 72
     5
  1
Sudo
  7
表題
 73
     1
 44
1.0
  0
MTEXT
  5
1160
330
2
100
AcDbEntity
  8
A1枠
 62
     3
100
AcDbMText
 10
2739.305592593584
 20
119.8503982509682
 30
0.0
 40
8.0
 41
0.0
 71
     5
 72
     5
  1
Urakawa
  7
表題
 73
     1
 44
1.0
  0
HATCH
  5
1161
330
2
100
AcDbEntity
  8
A1枠
100
AcDbHatch
 10
0.0
 20
0.0
 30
0.0
210
0.0
220
0.0
230
1.0
  2
SOLID
 70
     1
 71
     0
 91
        3
 92
        5
 93
        1
 72
     4
 94
        3
 73
     0
 74
     0
 95
       36
 96
       32
 40
0.0
 40
0.0
 40
0.0
 40
0.0
 40
0.5883166331382988
 40
1.044054392814925
 40
1.80690955170025
 40
3.636128202933312
 40
4.761041426817341
 40
5.32376724630582
 40
5.496244357661193
 40
5.760920812099318
 40
6.482162802078521
 40
7.033164362538165
 40
7.60229327212658
 40
8.246625936795398
 40
9.147019221933327
 40
10.62065156322797
 40
11.40758064228761
 40
12.99540565581377
 40
14.29781240575261
 40
15.17937101280218
 40
16.32278793075024
 40
17.07088451630366
 40
17.59680358761074
 40
18.31113908322397
 40
18.53573797647749
 40
18.82104064963364
 40
19.36229386539549
 40
20.26438382887941
 40
20.80952202408279
 40
21.24999366457222
 40
21.74937437233119
 40
21.74937437233119
 40
21.74937437233119
 40
21.74937437233119
 10
2840.329313686226
 20
81.95175369342791
 10
2840.87464181723
 20
82.62991202601552
 10
2841.842406790441
 20
83.83340372806946
 10
2844.414995250248
 20
83.08514135128552
 10
2847.9128740144
 20
81.2939364977285
 10
2852.01400432927
 20
78.05684899638163
 10
2853.984217413715
 20
73.70346519066401
 10
2851.404808054205
 20
70.33365052280078
 10
2853.284667151966
 20
70.31622739363843
 10
2852.44567950123
 20
68.46151155642906
 10
2850.644730126238
 20
65.4803448301368
 10
2853.720256936671
 20
68.06485155822975
 10
2856.065348488024
 20
66.79570734081153
 10
2858.135605648131
 20
69.38954350568337
 10
2861.902921393579
 20
70.94878254086143
 10
2863.141412823184
 20
75.49686509840353
 10
2864.063830268642
 20
80.55358622897802
 10
2861.723985903692
 20
85.22408392519968
 10
2858.983577624443
 20
89.44711948288841
 10
2855.102378734169
 20
91.90197136228562
 10
2851.113376554792
 20
91.86741810989065
 10
2848.369045852334
 20
91.9485749398691
 10
2844.751828681481
 20
89.16429488392486
 10
2848.759648534913
 20
91.49457676155543
 10
2849.527774109679
 20
89.17465684371085
 10
2847.512647059426
 20
89.70456402054514
 10
2845.907826801376
 20
88.06247228425513
 10
2842.76506004214
 20
87.88688378458278
 10
2841.770696836545
 20
85.38495075586274
 10
2840.228998809354
 20
83.98020476967849
 10
2840.294506735394
 20
82.6555794775038
 10
2840.329313686226
 20
81.95175369342791
 97
        0
 92
        7
 72
     1
 73
     1
 93
        2
 10
2834.983791908046
 20
73.42956120873395
 42
1.0
 10
2848.328479725169
 20
73.42956120873395
 42
1.0
 97
        0
 92
        5
 93
        1
 72
     4
 94
        3
 73
     0
 74
     0
 95
       41
 96
       37
 40
0.0
 40
0.0
 40
0.0
 40
0.0
 40
0.7582974158655653
 40
0.9306492898365002
 40
1.501039628747242
 40
1.852994756812246
 40
2.352376184237327
 40
2.71989720717723
 40
3.313609934625834
 40
3.881756293052878
 40
4.136909751011256
 40
4.730542777628725
 40
5.157636486979217
 40
5.443717701716619
 40
5.765725874223739
 40
6.148455927017043
 40
6.523046154425332
 40
7.092627838797694
 40
7.587320207969541
 40
7.782690675215876
 40
8.124195500635968
 40
8.60001591523784
 40
8.855009533669605
 40
9.321645285438874
 40
9.915277966111492
 40
10.5203439637128
 40
10.95500762142157
 40
11.12581724692269
 40
11.49333826986259
 40
11.99271969728756
 40
12.37222375185835
 40
12.67996993698242
 40
12.87086566202081
 40
13.13126583532389
 40
13.38739373323697
 40
13.48208503395095
 40
13.48208503395095
 40
13.48208503395095
 40
13.48208503395095
 10
2829.146122345861
 20
79.96324143893321
 10
2828.11304149247
 20
79.49368589746473
 10
2826.845153797702
 20
78.91740603409812
 10
2826.573454309662
 20
76.80929484663784
 10
2824.780959310366
 20
76.31935376432148
 10
2824.299203934126
 20
74.352707096622
 10
2824.374724896864
 20
72.74387757769682
 10
2823.627644973028
 20
70.8540872604126
 10
2823.884860229809
 20
68.98671683865723
 10
2823.002870440505
 20
66.48216242476724
 10
2825.161172857603
 20
66.10337049839381
 10
2826.296733277937
 20
64.83897364309337
 10
2828.357182086096
 20
64.7859341782571
 10
2828.830400658407
 20
63.34233678748706
 10
2828.937715209649
 20
61.95966865529181
 10
2830.631695307566
 20
61.31122067965498
 10
2832.187683536213
 20
62.48188130039579
 10
2834.168138736167
 20
61.39657121526056
 10
2835.479871277108
 20
60.70973162098153
 10
2837.348098311355
 20
60.98828025308126
 10
2835.468446726642
 20
62.34735811559971
 10
2836.084209033637
 20
63.74307412855796
 10
2835.473015501294
 20
65.39693674055047
 10
2833.558881574099
 20
65.71630921688757
 10
2831.510606562959
 20
66.72168870349287
 10
2830.503481760992
 20
68.71390009111838
 10
2830.013284475884
 20
70.38753278385775
 10
2828.726073926009
 20
70.92767814184617
 10
2828.598483623667
 20
72.54585193259209
 10
2828.905701509822
 20
74.11376042432085
 10
2828.891041726004
 20
75.67849539091139
 10
2829.158516600917
 20
76.93583598395981
 10
2828.440437773402
 20
77.72161926584158
 10
2828.39580845258
 20
78.81307358692175
 10
2829.204391107269
 20
79.34912883178071
 10
2829.15850711528
 20
79.83271450041593
 10
2829.146122345861
 20
79.96324143893321
 97
        0
 75
     0
 76
     1
 47
1.666295372170839
 98
        3
 10
2854.177921254297
 20
83.28551211844843
 10
2844.174823416586
 20
74.62077553455197
 10
2827.503005015715
 20
69.95514909303711
  0
LINE
  5
1162
330
2
100
AcDbEntity
  8
A1枠
100
AcDbLine
 10
2939.999998875413
 20
97.99999999999954
 30
0.0
 11
2939.999998875413
 21
53.99999999999955
 31
0.0
  0
CIRCLE
  5
1163
330
2
100
AcDbEntity
  8
A1枠
 48
5.0
100
AcDbCircle
 10
2841.656135816607
 20
73.42956120873395
 30
0.0
 40
6.672343908564307
  0
SPLINE
  5
1164
330
2
100
AcDbEntity
  8
A1枠
 48
5.0
100
AcDbSpline
210
0.0
220
0.0
230
1.0
 70
    11
 71
     3
 72
    41
 73
    37
 74
    35
 42
0.0000000001
 43
0.0000000001
 44
0.0000000001
 40
0.0
 40
0.0
 40
0.0
 40
0.0
 40
3.033189663466523
 40
3.722597159348482
 40
6.004158514994171
 40
7.411979027255411
 40
9.40950473695551
 40
10.87958882871346
 40
13.25443973850823
 40
15.52702517221663
 40
16.54763900405691
 40
18.92217111052348
 40
20.63054594792724
 40
21.77487080687459
 40
23.06290349690489
 40
24.59382370807296
 40
26.09218461771294
 40
28.37051135519536
 40
30.34928083188972
 40
31.13076270087153
 40
32.4967820025497
 40
34.40006366095718
 40
35.42003813468602
 40
37.28658114176301
 40
39.66111186445029
 40
42.08137585485647
 40
43.82003048569266
 40
44.503268987697
 40
45.97335307945661
 40
47.97087878915648
 40
49.48889500743985
 40
50.71987974793614
 40
51.4834626480906
 40
52.52506334130294
 40
53.54957493295525
 40
53.92834013581137
 40
53.92834013581137
 40
53.92834013581137
 40
53.92834013581137
 10
2829.146122345861
 20
79.96324143893321
 30
0.0
 10
2828.113041492463
 20
79.49368589746682
 30
0.0
 10
2826.845153797685
 20
78.91740603410295
 30
0.0
 10
2826.573454309679
 20
76.80929484663431
 30
0.0
 10
2824.780959310361
 20
76.31935376432235
 30
0.0
 10
2824.299203934121
 20
74.35270709662273
 30
0.0
 10
2824.374724896856
 20
72.74387757769815
 30
0.0
 10
2823.62764497304
 20
70.85408726041075
 30
0.0
 10
2823.884860229801
 20
68.98671683865848
 30
0.0
 10
2823.0028704405
 20
66.48216242476329
 30
0.0
 10
2825.161172857605
 20
66.10337049839806
 30
0.0
 10
2826.296733277937
 20
64.83897364309121
 30
0.0
 10
2828.357182086097
 20
64.78593417825968
 30
0.0
 10
2828.830400658402
 20
63.34233678748443
 30
0.0
 10
2828.937715209654
 20
61.95966865529449
 30
0.0
 10
2830.631695307564
 20
61.31122067965462
 30
0.0
 10
2832.187683536208
 20
62.48188130039508
 30
0.0
 10
2834.168138736163
 20
61.39657121525795
 30
0.0
 10
2835.47987127711
 20
60.70973162098098
 30
0.0
 10
2837.348098311354
 20
60.9882802530823
 30
0.0
 10
2835.468446726643
 20
62.34735811560097
 30
0.0
 10
2836.084209033645
 20
63.74307412855886
 30
0.0
 10
2835.473015501294
 20
65.3969367405493
 30
0.0
 10
2833.558881574107
 20
65.71630921688714
 30
0.0
 10
2831.510606562957
 20
66.72168870349465
 30
0.0
 10
2830.503481760999
 20
68.71390009111846
 30
0.0
 10
2830.013284475888
 20
70.38753278385809
 30
0.0
 10
2828.726073926008
 20
70.92767814184637
 30
0.0
 10
2828.598483623672
 20
72.54585193259217
 30
0.0
 10
2828.90570150982
 20
74.11376042432088
 30
0.0
 10
2828.891041726013
 20
75.67849539091105
 30
0.0
 10
2829.158516600926
 20
76.9358359839607
 30
0.0
 10
2828.440437773407
 20
77.72161926584082
 30
0.0
 10
2828.395808452586
 20
78.81307358692193
 30
0.0
 10
2829.204391107269
 20
79.34912883178061
 30
0.0
 10
2829.158507115281
 20
79.83271450041624
 30
0.0
 10
2829.146122345861
 20
79.96324143893321
 30
0.0
 11
2829.146122345861
 21
79.96324143893321
 31
0.0
 11
2826.776800825304
 21
78.06942120808049
 31
0.0
 11
2826.58725406423
 21
77.40658282601089
 31
0.0
 11
2824.881343608868
 21
75.89152779801361
 31
0.0
 11
2824.407479304754
 21
74.56585392558827
 31
0.0
 11
2824.217932543673
 21
72.57734167109333
 31
0.0
 11
2823.838844218706
 21
71.15697577502533
 31
0.0
 11
2823.649297457617
 21
68.78970120938788
 31
0.0
 11
2823.649297457617
 21
66.51711577567948
 31
0.0
 11
2824.597026065843
 21
66.13835057282358
 31
0.0
 11
2826.682030043361
 21
65.0020578559695
 31
0.0
 11
2828.293164519585
 21
64.43391149754233
 31
0.0
 11
2828.767028823691
 21
63.39231080433046
 31
0.0
 11
2829.146122345861
 21
62.16132895554642
 31
0.0
 11
2830.567715258185
 21
61.59318259711972
 31
0.0
 11
2831.989308170523
 21
62.06663693190444
 31
0.0
 11
2834.169082929984
 21
61.4037985498353
 31
0.0
 11
2836.06453494924
 21
60.83565219140837
 31
0.0
 11
2836.822721993565
 21
61.02503623869234
 31
0.0
 11
2836.06453494924
 21
62.16132895554642
 31
0.0
 11
2835.874993385347
 21
64.05514918639915
 31
0.0
 11
2835.495899863177
 21
65.0020578559695
 31
0.0
 11
2833.789989407822
 21
65.75958826168061
 31
0.0
 11
2831.704985430304
 21
66.89587808682245
 31
0.0
 11
2830.472939279054
 21
68.97908236495914
 31
0.0
 11
2829.619986649966
 21
70.49413739295665
 31
0.0
 11
2829.051346366723
 21
70.87290259581187
 31
0.0
 11
2828.672258041748
 21
72.29326849187964
 31
0.0
 11
2828.861804802829
 21
74.28178074637435
 31
0.0
 11
2828.956575584779
 21
75.79683577437163
 31
0.0
 11
2828.956575584779
 21
77.02782051486792
 31
0.0
 11
2828.577487259805
 21
77.69065600522435
 31
0.0
 11
2828.577487259805
 21
78.73225669843669
 31
0.0
 11
2829.146122345861
 21
79.58447623607708
 31
0.0
 11
2829.146122345861
 21
79.96324143893321
 31
0.0
  0
SPLINE
  5
1165
330
2
100
AcDbEntity
  8
A1枠
 48
5.0
100
AcDbSpline
210
0.0
220
0.0
230
1.0
 70
    11
 71
     3
 72
    36
 73
    32
 74
    30
 42
0.0000000001
 43
0.0000000001
 44
0.0000000001
 40
0.0
 40
0.0
 40
0.0
 40
0.0
 40
2.353266532551656
 40
4.176217571254571
 40
7.227638206795773
 40
14.54451281173226
 40
19.04416570726735
 40
21.29506898521965
 40
21.98497743063939
 40
23.04368324839222
 40
25.92865120830832
 40
28.13265745014197
 40
30.40917308850108
 40
32.98650374717194
 40
36.58807688772959
 40
42.4826062529082
 40
45.63032256914651
 40
51.98162262325117
 40
57.19124962300651
 40
60.7174840512048
 40
65.29115172299704
 40
68.28353806521066
 40
70.38721435043766
 40
73.24455633288692
 40
74.14295190590116
 40
75.28416259852396
 40
77.44917546157153
 40
81.05753531551044
 40
83.23808809632602
 40
84.99997465828158
 40
86.99749748931706
 40
86.99749748931706
 40
86.99749748931706
 40
86.99749748931706
 10
2840.329313686226
 20
81.95175369342791
 30
0.0
 10
2840.874641817235
 20
82.62991202601577
 30
0.0
 10
2841.842406790439
 20
83.83340372806927
 30
0.0
 10
2844.414995250242
 20
83.0851413512846
 30
0.0
 10
2847.912874014394
 20
81.29393649772813
 30
0.0
 10
2852.014004329283
 20
78.05684899638352
 30
0.0
 10
2853.984217413696
 20
73.70346519066498
 30
0.0
 10
2851.404808054213
 20
70.33365052280167
 30
0.0
 10
2853.284667151969
 20
70.31622739363763
 30
0.0
 10
2852.445679501222
 20
68.46151155642971
 30
0.0
 10
2850.644730126245
 20
65.48034483013728
 30
0.0
 10
2853.720256936673
 20
68.064851558232
 30
0.0
 10
2856.065348488019
 20
66.7957073408096
 30
0.0
 10
2858.135605648129
 20
69.38954350568768
 30
0.0
 10
2861.902921393584
 20
70.94878254085668
 30
0.0
 10
2863.141412823185
 20
75.49686509840373
 30
0.0
 10
2864.063830268641
 20
80.55358622897811
 30
0.0
 10
2861.723985903695
 20
85.2240839251994
 30
0.0
 10
2858.983577624444
 20
89.44711948288828
 30
0.0
 10
2855.102378734175
 20
91.90197136228553
 30
0.0
 10
2851.113376554796
 20
91.86741810989044
 30
0.0
 10
2848.369045852336
 20
91.94857493986999
 30
0.0
 10
2844.751828681486
 20
89.16429488392573
 30
0.0
 10
2848.759648534914
 20
91.49457676155346
 30
0.0
 10
2849.527774109679
 20
89.17465684371178
 30
0.0
 10
2847.51264705943
 20
89.70456402054471
 30
0.0
 10
2845.907826801377
 20
88.06247228425396
 30
0.0
 10
2842.76506004214
 20
87.88688378458198
 30
0.0
 10
2841.770696836544
 20
85.38495075586522
 30
0.0
 10
2840.228998809353
 20
83.98020476967705
 30
0.0
 10
2840.294506735397
 20
82.65557947750364
 30
0.0
 10
2840.329313686226
 20
81.95175369342791
 30
0.0
 11
2840.329313686226
 21
81.95175369342791
 31
0.0
 11
2842.13000012072
 21
83.46680872142497
 31
0.0
 11
2843.930681358019
 21
83.1827355422115
 31
0.0
 11
2846.679091203543
 21
81.85706166978594
 31
0.0
 11
2852.175916091786
 21
77.02782051486792
 31
0.0
 11
2852.839327156972
 21
72.57734167109333
 31
0.0
 11
2852.270692070924
 21
70.39944826102692
 31
0.0
 11
2852.934097938923
 21
70.21006421374295
 31
0.0
 11
2852.744556375029
 21
69.16846352053062
 31
0.0
 11
2851.60728100573
 21
66.51711577567948
 31
0.0
 11
2853.59750900411
 21
67.46402444524938
 31
0.0
 11
2855.872054545529
 21
67.36933531331988
 31
0.0
 11
2857.957058523046
 21
68.88439034131716
 31
0.0
 11
2860.89501512966
 21
70.96759461945385
 31
0.0
 11
2863.264336650209
 21
76.36498213279901
 31
0.0
 11
2863.643430172371
 21
79.48978710414803
 31
0.0
 11
2861.463655412903
 21
85.45532097591967
 31
0.0
 11
2858.336152045216
 21
89.62172664048102
 31
0.0
 11
2855.303419459472
 21
91.42085484769177
 31
0.0
 11
2850.754323179455
 21
91.89430918247671
 31
0.0
 11
2847.81636657285
 21
91.32616571576249
 31
0.0
 11
2846.110456117494
 21
90.09518097526598
 31
0.0
 11
2848.953641942149
 21
90.3792541544792
 31
0.0
 11
2849.237959485181
 21
89.52703461683881
 31
0.0
 11
2848.100684115881
 21
89.43234259319684
 31
0.0
 11
2846.110456117494
 21
88.58012594726847
 31
0.0
 11
2842.793405988719
 21
87.15976005120092
 31
0.0
 11
2841.561359837469
 21
85.3606289522777
 31
0.0
 11
2840.518860447307
 21
83.94026305620991
 31
0.0
 11
2840.329313686226
 21
81.95175369342791
 31
0.0
  0
MTEXT
  5
1166
330
2
100
AcDbEntity
  8
A1枠
 62
     3
100
AcDbMText
 10
2909.999998875413
 20
75.99999999999955
 30
0.0
 40
10.0
 41
60.0
 71
     5
 72
     5
  1
Drawing\PNumber
  7
表題
 73
     1
 44
1.0
  0
ARC
  5
1167
330
2
100
AcDbEntity
  8
A1枠
100
AcDbCircle
 10
2787.697849593619
 20
80.01593624952148
 30
0.0
 40
3.5
100
AcDbArc
 50
0.0
 51
90.0
  0
ARC
  5
1168
330
2
100
AcDbEntity
  8
A1枠
100
AcDbCircle
 10
2786.297849593618
 20
78.61593624952138
 30
0.0
 40
2.099999999999999
100
AcDbArc
 50
0.0
 51
90.0
  0
LINE
  5
1169
330
2
100
AcDbEntity
  8
A1枠
100
AcDbLine
 10
2788.397849593617
 20
66.71593624952175
 30
0.0
 11
2791.19784959362
 21
66.71593624952175
 31
0.0
  0
LINE
  5
116A
330
2
100
AcDbEntity
  8
A1枠
100
AcDbLine
 10
2788.397849593617
 20
78.61593624952138
 30
0.0
 11
2788.397849593617
 21
77.21593624952174
 31
0.0
  0
LINE
  5
116B
330
2
100
AcDbEntity
  8
A1枠
100
AcDbLine
 10
2778.597849593614
 20
71.61593624952138
 30
0.0
 11
2778.597849593614
 21
72.31593624952165
 31
0.0
  0
LINE
  5
116C
330
2
100
AcDbEntity
  8
A1枠
100
AcDbLine
 10
2786.297849593618
 20
69.51593624952147
 30
0.0
 11
2780.69784959362
 21
69.51593624952147
 31
0.0
  0
LINE
  5
116D
330
2
100
AcDbEntity
  8
A1枠
100
AcDbLine
 10
2780.69784959362
 20
74.41593624952156
 30
0.0
 11
2788.397849593617
 21
74.41593624952156
 31
0.0
  0
LINE
  5
116E
330
2
100
AcDbEntity
  8
A1枠
100
AcDbLine
 10
2788.397849593617
 20
74.41593624952156
 30
0.0
 11
2788.397849593617
 21
66.71593624952175
 31
0.0
  0
LINE
  5
116F
330
2
100
AcDbEntity
  8
A1枠
100
AcDbLine
 10
2786.297849593618
 20
66.71593624952175
 30
0.0
 11
2786.297849593618
 21
69.51593624952147
 31
0.0
  0
LINE
  5
1170
330
2
100
AcDbEntity
  8
A1枠
100
AcDbLine
 10
2804.16741190551
 20
71.71606888228189
 30
0.0
 11
2800.327518011712
 21
81.31580361676105
 31
0.0
  0
ARC
  5
1171
330
2
100
AcDbEntity
  8
A1枠
100
AcDbCircle
 10
2795.677849593616
 20
77.21593624952174
 30
0.0
 40
3.5
100
AcDbArc
 50
21.80140948634758
 51
90.0
  0
LINE
  5
1172
330
2
100
AcDbEntity
  8
A1枠
100
AcDbLine
 10
2807.697080323603
 20
83.51593624952148
 30
0.0
 11
2807.697080323603
 21
69.51593624952147
 31
0.0
  0
LINE
  5
1173
330
2
100
AcDbEntity
  8
A1枠
100
AcDbLine
 10
2792.597849593614
 20
66.71593624952175
 30
0.0
 11
2792.597849593614
 21
83.51593624952148
 31
0.0
  0
LINE
  5
1174
330
2
100
AcDbEntity
  8
A1枠
100
AcDbLine
 10
2795.397849593617
 20
66.71593624952175
 30
0.0
 11
2795.397849593617
 21
80.71593624952175
 31
0.0
  0
LINE
  5
1175
330
2
100
AcDbEntity
  8
A1枠
100
AcDbLine
 10
2810.497080323606
 20
83.51593624952148
 30
0.0
 11
2810.497080323606
 21
66.71593624952175
 31
0.0
  0
LINE
  5
1176
330
2
100
AcDbEntity
  8
A1枠
100
AcDbLine
 10
2798.927518011718
 20
78.51580361676088
 30
0.0
 11
2802.767411905508
 21
68.91606888228216
 31
0.0
  0
ARC
  5
1177
330
2
100
AcDbEntity
  8
A1枠
100
AcDbCircle
 10
2807.417080323604
 20
73.01593624952147
 30
0.0
 40
3.5
100
AcDbArc
 50
201.8014094863476
 51
270.0
  0
LINE
  5
1178
330
2
100
AcDbEntity
  8
A1枠
100
AcDbLine
 10
2807.697080323603
 20
69.51593624952147
 30
0.0
 11
2807.417080323604
 21
69.51593624952147
 31
0.0
  0
LINE
  5
1179
330
2
100
AcDbEntity
  8
A1枠
100
AcDbLine
 10
2795.397849593617
 20
66.71593624952175
 30
0.0
 11
2792.597849593614
 21
66.71593624952175
 31
0.0
  0
LINE
  5
117A
330
2
100
AcDbEntity
  8
A1枠
100
AcDbLine
 10
2810.497080323606
 20
66.71593624952175
 30
0.0
 11
2806.017080323603
 21
66.71593624952129
 31
0.0
  0
LINE
  5
117B
330
2
100
AcDbEntity
  8
A1枠
100
AcDbLine
 10
2791.19784959362
 20
66.71593624952175
 30
0.0
 11
2791.19784959362
 21
80.01593624952148
 31
0.0
  0
ARC
  5
117C
330
2
100
AcDbEntity
  8
A1枠
100
AcDbCircle
 10
2806.017080323603
 20
70.21593624952129
 30
0.0
 40
3.5
100
AcDbArc
 50
201.8014094863476
 51
270.0
  0
LINE
  5
117D
330
2
100
AcDbEntity
  8
A1枠
100
AcDbLine
 10
2792.597849593614
 20
83.51593624952148
 30
0.0
 11
2797.077849593617
 21
83.51593624952148
 31
0.0
  0
LINE
  5
117E
330
2
100
AcDbEntity
  8
A1枠
100
AcDbLine
 10
2795.397849593617
 20
80.71593624952175
 30
0.0
 11
2795.677849593616
 21
80.71593624952175
 31
0.0
  0
ARC
  5
117F
330
2
100
AcDbEntity
  8
A1枠
100
AcDbCircle
 10
2797.077849593617
 20
80.01593624952148
 30
0.0
 40
3.5
100
AcDbArc
 50
21.80140948634758
 51
90.0
  0
LINE
  5
1180
330
2
100
AcDbEntity
  8
A1枠
100
AcDbLine
 10
2807.697080323603
 20
83.51593624952148
 30
0.0
 11
2810.497080323606
 21
83.51593624952148
 31
0.0
  0
ARC
  5
1181
330
2
100
AcDbEntity
  8
A1枠
100
AcDbCircle
 10
2746.455378405771
 20
79.31593624952165
 30
0.0
 40
1.4
100
AcDbArc
 50
90.0
 51
170.603522623159
  0
ARC
  5
1182
330
2
100
AcDbEntity
  8
A1枠
100
AcDbCircle
 10
2769.497849593616
 20
78.61593624952138
 30
0.0
 40
2.099999999999999
100
AcDbArc
 50
0.0
 51
90.0
  0
ARC
  5
1183
330
2
100
AcDbEntity
  8
A1枠
100
AcDbCircle
 10
2770.897849593617
 20
80.01593624952148
 30
0.0
 40
3.5
100
AcDbArc
 50
0.0
 51
90.0
  0
ARC
  5
1184
330
2
100
AcDbEntity
  8
A1枠
100
AcDbCircle
 10
2747.885349593619
 20
78.61593624952138
 30
0.0
 40
5.687499999999978
100
AcDbArc
 50
151.9275130641571
 51
208.0724869358428
  0
ARC
  5
1185
330
2
100
AcDbEntity
  8
A1枠
100
AcDbCircle
 10
2753.222849593614
 20
72.31593624952165
 30
0.0
 40
4.199999999999999
100
AcDbArc
 50
28.0724869358428
 51
90.0
  0
ARC
  5
1186
330
2
100
AcDbEntity
  8
A1枠
100
AcDbCircle
 10
2753.222849593614
 20
70.91593624952157
 30
0.0
 40
4.199999999999999
100
AcDbArc
 50
270.0
 51
331.9275130641571
  0
ARC
  5
1187
330
2
100
AcDbEntity
  8
A1枠
100
AcDbCircle
 10
2750.685349593615
 20
78.61593624952138
 30
0.0
 40
5.68750000000003
100
AcDbArc
 50
170.603522623159
 51
189.3964773768344
  0
LINE
  5
1188
330
2
100
AcDbEntity
  8
A1枠
100
AcDbLine
 10
2746.455378405771
 20
76.51593624952147
 30
0.0
 11
2753.222849593614
 21
76.51593624952147
 31
0.0
  0
ARC
  5
1189
330
2
100
AcDbEntity
  8
A1枠
100
AcDbCircle
 10
2753.340320781462
 20
70.91593624952157
 30
0.0
 40
1.4
100
AcDbArc
 50
270.0
 51
350.6035226231591
  0
ARC
  5
118A
330
2
100
AcDbEntity
  8
A1枠
100
AcDbCircle
 10
2753.340320781462
 20
72.31593624952165
 30
0.0
 40
1.4
100
AcDbArc
 50
9.396477376840907
 51
90.0
  0
ARC
  5
118B
330
2
100
AcDbEntity
  8
A1枠
100
AcDbCircle
 10
2749.110349593618
 20
71.61593624952138
 30
0.0
 40
5.687500000000063
100
AcDbArc
 50
350.6035226231591
 51
9.396477376834479
  0
LINE
  5
118C
330
2
100
AcDbEntity
  8
A1枠
100
AcDbLine
 10
2753.340320781462
 20
73.71593624952175
 30
0.0
 11
2746.57284959362
 21
73.71593624952175
 31
0.0
  0
ARC
  5
118D
330
2
100
AcDbEntity
  8
A1枠
100
AcDbCircle
 10
2746.455378405771
 20
77.91593624952156
 30
0.0
 40
1.4
100
AcDbArc
 50
189.3964773768344
 51
270.0
  0
ARC
  5
118E
330
2
100
AcDbEntity
  8
A1枠
100
AcDbCircle
 10
2746.57284959362
 20
77.91593624952156
 30
0.0
 40
4.199999999999999
100
AcDbArc
 50
208.0724869358428
 51
270.0
  0
LINE
  5
118F
330
2
100
AcDbEntity
  8
A1枠
100
AcDbLine
 10
2753.340320781462
 20
69.51593624952147
 30
0.0
 11
2742.19784959362
 21
69.51593624952147
 31
0.0
  0
LINE
  5
1190
330
2
100
AcDbEntity
  8
A1枠
100
AcDbLine
 10
2742.19784959362
 20
66.71593624952175
 30
0.0
 11
2753.222849593614
 21
66.71593624952175
 31
0.0
  0
LINE
  5
1191
330
2
100
AcDbEntity
  8
A1枠
100
AcDbLine
 10
2742.19784959362
 20
69.51593624952147
 30
0.0
 11
2742.19784959362
 21
66.71593624952175
 31
0.0
  0
LINE
  5
1192
330
2
100
AcDbEntity
  8
A1枠
100
AcDbLine
 10
2771.597849593614
 20
77.21593624952174
 30
0.0
 11
2761.097849593614
 21
77.21593624952174
 31
0.0
  0
LINE
  5
1193
330
2
100
AcDbEntity
  8
A1枠
100
AcDbLine
 10
2769.497849593616
 20
69.51593624952147
 30
0.0
 11
2763.897849593617
 21
69.51593624952147
 31
0.0
  0
LINE
  5
1194
330
2
100
AcDbEntity
  8
A1枠
100
AcDbLine
 10
2763.897849593617
 20
74.41593624952156
 30
0.0
 11
2771.597849593614
 21
74.41593624952156
 31
0.0
  0
ARC
  5
1195
330
2
100
AcDbEntity
  8
A1枠
100
AcDbCircle
 10
2763.897849593617
 20
71.61593624952138
 30
0.0
 40
2.099999999999999
100
AcDbArc
 50
180.0
 51
270.0
  0
LINE
  5
1196
330
2
100
AcDbEntity
  8
A1枠
100
AcDbLine
 10
2758.997849593615
 20
75.11593624952138
 30
0.0
 11
2758.997849593615
 21
68.81593624952166
 31
0.0
  0
ARC
  5
1197
330
2
100
AcDbEntity
  8
A1枠
100
AcDbCircle
 10
2751.910349593614
 20
71.61593624952138
 30
0.0
 40
5.687499999999992
100
AcDbArc
 50
331.9275130641571
 51
28.0724869358428
  0
LINE
  5
1198
330
2
100
AcDbEntity
  8
A1枠
100
AcDbLine
 10
2761.797849593618
 20
71.61593624952138
 30
0.0
 11
2761.797849593618
 21
72.31593624952165
 31
0.0
  0
ARC
  5
1199
330
2
100
AcDbEntity
  8
A1枠
100
AcDbCircle
 10
2763.897849593617
 20
72.31593624952165
 30
0.0
 40
2.099999999999999
100
AcDbArc
 50
90.0
 51
180.0
  0
ARC
  5
119A
330
2
100
AcDbEntity
  8
A1枠
100
AcDbCircle
 10
2761.097849593614
 20
75.11593624952138
 30
0.0
 40
2.099999999999999
100
AcDbArc
 50
90.0
 51
180.0
  0
LINE
  5
119B
330
2
100
AcDbEntity
  8
A1枠
100
AcDbLine
 10
2771.597849593614
 20
78.61593624952138
 30
0.0
 11
2771.597849593614
 21
77.21593624952174
 31
0.0
  0
LINE
  5
119C
330
2
100
AcDbEntity
  8
A1枠
100
AcDbLine
 10
2775.797849593618
 20
75.11593624952138
 30
0.0
 11
2775.797849593618
 21
68.81593624952166
 31
0.0
  0
ARC
  5
119D
330
2
100
AcDbEntity
  8
A1枠
100
AcDbCircle
 10
2777.897849593617
 20
75.11593624952138
 30
0.0
 40
2.099999999999999
100
AcDbArc
 50
90.0
 51
180.0
  0
LINE
  5
119E
330
2
100
AcDbEntity
  8
A1枠
100
AcDbLine
 10
2761.097849593614
 20
66.71593624952175
 30
0.0
 11
2769.497849593616
 21
66.71593624952175
 31
0.0
  0
LINE
  5
119F
330
2
100
AcDbEntity
  8
A1枠
100
AcDbLine
 10
2761.097849593614
 20
66.71593624952175
 30
0.0
 11
2769.497849593616
 21
66.71593624952175
 31
0.0
  0
LINE
  5
11A0
330
2
100
AcDbEntity
  8
A1枠
100
AcDbLine
 10
2771.597849593614
 20
66.71593624952175
 30
0.0
 11
2774.397849593617
 21
66.71593624952175
 31
0.0
  0
ARC
  5
11A1
330
2
100
AcDbEntity
  8
A1枠
100
AcDbCircle
 10
2761.097849593614
 20
68.81593624952166
 30
0.0
 40
2.099999999999999
100
AcDbArc
 50
180.0
 51
270.0
  0
LINE
  5
11A2
330
2
100
AcDbEntity
  8
A1枠
100
AcDbLine
 10
2771.597849593614
 20
74.41593624952156
 30
0.0
 11
2771.597849593614
 21
66.71593624952175
 31
0.0
  0
ARC
  5
11A3
330
2
100
AcDbEntity
  8
A1枠
100
AcDbCircle
 10
2777.897849593617
 20
68.81593624952166
 30
0.0
 40
2.099999999999999
100
AcDbArc
 50
180.0
 51
270.0
  0
LINE
  5
11A4
330
2
100
AcDbEntity
  8
A1枠
100
AcDbLine
 10
2769.497849593616
 20
66.71593624952175
 30
0.0
 11
2769.497849593616
 21
69.51593624952147
 31
0.0
  0
LINE
  5
11A5
330
2
100
AcDbEntity
  8
A1枠
100
AcDbLine
 10
2774.397849593617
 20
66.71593624952175
 30
0.0
 11
2774.397849593617
 21
80.01593624952148
 31
0.0
  0
LINE
  5
11A6
330
2
100
AcDbEntity
  8
A1枠
100
AcDbLine
 10
2746.57284959362
 20
83.51593624952148
 30
0.0
 11
2757.597849593614
 21
83.51593624952148
 31
0.0
  0
LINE
  5
11A7
330
2
100
AcDbEntity
  8
A1枠
100
AcDbLine
 10
2757.597849593614
 20
80.71593624952175
 30
0.0
 11
2746.455378405771
 21
80.71593624952175
 31
0.0
  0
ARC
  5
11A8
330
2
100
AcDbEntity
  8
A1枠
100
AcDbCircle
 10
2746.57284959362
 20
79.31593624952165
 30
0.0
 40
4.199999999999999
100
AcDbArc
 50
90.0
 51
151.9275130641571
  0
LINE
  5
11A9
330
2
100
AcDbEntity
  8
A1枠
100
AcDbLine
 10
2770.897849593617
 20
83.51593624952148
 30
0.0
 11
2758.997849593615
 21
83.51593624952148
 31
0.0
  0
LINE
  5
11AA
330
2
100
AcDbEntity
  8
A1枠
100
AcDbLine
 10
2758.997849593615
 20
80.71593624952175
 30
0.0
 11
2769.497849593616
 21
80.71593624952175
 31
0.0
  0
LINE
  5
11AB
330
2
100
AcDbEntity
  8
A1枠
100
AcDbLine
 10
2758.997849593615
 20
83.51593624952148
 30
0.0
 11
2758.997849593615
 21
80.71593624952175
 31
0.0
  0
LINE
  5
11AC
330
2
100
AcDbEntity
  8
A1枠
100
AcDbLine
 10
2757.597849593614
 20
83.51593624952148
 30
0.0
 11
2757.597849593614
 21
80.71593624952175
 31
0.0
  0
LINE
  5
11AD
330
2
100
AcDbEntity
  8
A1枠
100
AcDbLine
 10
2775.797849593618
 20
83.51593624952148
 30
0.0
 11
2775.797849593618
 21
80.71593624952175
 31
0.0
  0
HATCH
  5
11AE
330
2
100
AcDbEntity
  8
A1枠
100
AcDbHatch
 10
0.0
 20
0.0
 30
0.0
210
0.0
220
0.0
230
1.0
  2
SOLID
 70
     1
 71
     0
 91
        4
 92
        7
 72
     1
 73
     1
 93
       20
 10
2753.222849593621
 20
76.51593624952147
 42
0.0
 10
2746.455378405771
 20
76.51593624952147
 42
-0.3669553196555314
 10
2745.074163324032
 20
77.68736482095005
 42
-0.0821840173641001
 10
2745.074163324025
 20
79.54450767809271
 42
-0.3669553196554433
 10
2746.455378405771
 20
80.71593624952175
 42
0.0
 10
2757.597849593621
 20
80.71593624952175
 42
0.0
 10
2757.597849593621
 20
83.51593624952148
 42
0.0
 10
2746.57284959362
 20
83.51593624952148
 42
0.2769839649484354
 10
2742.866967240676
 20
81.29240683775696
 42
0.2499999999999837
 10
2742.866967240676
 20
75.9394656612867
 42
0.2769839649484511
 10
2746.57284959362
 20
73.71593624952175
 42
0.0
 10
2753.340320781462
 20
73.71593624952175
 42
-0.3669553196555126
 10
2754.721535863209
 20
72.54450767809271
 42
-0.0821840173640942
 10
2754.721535863209
 20
70.68736482095005
 42
-0.3669553196554584
 10
2753.340320781462
 20
69.51593624952147
 42
0.0
 10
2742.19784959362
 20
69.51593624952147
 42
0.0
 10
2742.19784959362
 20
66.71593624952175
 42
0.0
 10
2753.222849593621
 20
66.71593624952175
 42
0.2769839649484323
 10
2756.928731946558
 20
68.93946566128602
 42
0.2499999999999991
 10
2756.928731946558
 20
74.29240683775697
 42
0.2769839649484371
 97
        0
 92
        7
 72
     1
 73
     1
 93
       20
 10
2761.097849593621
 20
77.21593624952174
 42
0.4142135623731131
 10
2758.997849593622
 20
75.11593624952138
 42
0.0
 10
2758.997849593622
 20
68.81593624952166
 42
0.4142135623730969
 10
2761.097849593621
 20
66.71593624952175
 42
0.0
 10
2769.497849593623
 20
66.71593624952175
 42
0.0
 10
2769.497849593623
 20
69.51593624952147
 42
0.0
 10
2763.897849593617
 20
69.51593624952147
 42
-0.4142135623731128
 10
2761.797849593618
 20
71.61593624952138
 42
0.0
 10
2761.797849593618
 20
72.31593624952165
 42
-0.4142135623730971
 10
2763.897849593617
 20
74.41593624952179
 42
0.0
 10
2771.597849593621
 20
74.41593624952179
 42
0.0
 10
2771.597849593621
 20
66.71593624952175
 42
0.0
 10
2774.397849593617
 20
66.71593624952175
 42
0.0
 10
2774.397849593617
 20
80.01593624952148
 42
0.4142135623730951
 10
2770.897849593617
 20
83.51593624952148
 42
0.0
 10
2758.997849593622
 20
83.51593624952148
 42
0.0
 10
2758.997849593622
 20
80.71593624952175
 42
0.0
 10
2769.497849593623
 20
80.71593624952175
 42
-0.4142135623731129
 10
2771.597849593621
 20
78.61593624952138
 42
0.0
 10
2771.597849593621
 20
77.21593624952174
 42
0.0
 97
        0
 92
        7
 72
     1
 73
     1
 93
       20
 10
2777.897849593617
 20
77.21593624952129
 42
0.4142135623731131
 10
2775.797849593618
 20
75.11593624952138
 42
0.0
 10
2775.797849593618
 20
68.81593624952166
 42
0.4142135623730969
 10
2777.897849593617
 20
66.71593624952175
 42
0.0
 10
2786.297849593618
 20
66.71593624952175
 42
0.0
 10
2786.297849593618
 20
69.51593624952147
 42
0.0
 10
2780.69784959362
 20
69.51593624952147
 42
-0.4142135623730811
 10
2778.597849593621
 20
71.61593624952138
 42
0.0
 10
2778.597849593621
 20
72.31593624952165
 42
-0.414213562373096
 10
2780.69784959362
 20
74.41593624952179
 42
0.0
 10
2788.397849593617
 20
74.41593624952179
 42
0.0
 10
2788.397849593617
 20
66.71593624952175
 42
0.0
 10
2791.19784959362
 20
66.71593624952175
 42
0.0
 10
2791.19784959362
 20
80.01593624952148
 42
0.4142135623730951
 10
2787.697849593619
 20
83.51593624952148
 42
0.0
 10
2775.797849593618
 20
83.51593624952148
 42
0.0
 10
2775.797849593618
 20
80.71593624952129
 42
0.0
 10
2786.297849593618
 20
80.71593624952129
 42
-0.4142135623731129
 10
2788.397849593617
 20
78.61593624952138
 42
0.0
 10
2788.397849593617
 20
77.21593624952129
 42
0.0
 97
        0
 92
        7
 72
     1
 73
     1
 93
       16
 10
2795.397849593617
 20
80.71593624952129
 42
0.0
 10
2795.677849593616
 20
80.71593624952129
 42
-0.306678441558875
 10
2798.927518011718
 20
78.51580361676088
 42
0.0
 10
2802.767411905508
 20
68.91606888228216
 42
0.3066784415588886
 10
2806.01708032361
 20
66.71593624952129
 42
0.0
 10
2810.497080323606
 20
66.71593624952175
 42
0.0
 10
2810.497080323606
 20
83.51593624952148
 42
0.0
 10
2807.697080323603
 20
83.51593624952148
 42
0.0
 10
2807.697080323603
 20
69.51593624952147
 42
0.0
 10
2807.417080323604
 20
69.51593624952147
 42
-0.3066784415588917
 10
2804.16741190551
 20
71.71606888228189
 42
0.0
 10
2800.327518011719
 20
81.31580361676128
 42
0.3066784415588832
 10
2797.077849593617
 20
83.51593624952148
 42
0.0
 10
2792.597849593621
 20
83.51593624952148
 42
0.0
 10
2792.597849593621
 20
66.71593624952175
 42
0.0
 10
2795.397849593617
 20
66.71593624952175
 42
0.0
 97
        0
 75
     0
 76
     1
 47
0.0756444689632718
 98
        4
 10
2750.978547942461
 20
75.5462101158314
 10
2762.85021202841
 20
75.96981917932999
 10
2779.385744116465
 20
75.96981917932999
 10
2794.43731819377
 20
75.96981917932999
  0
LINE
  5
11AF
330
2
100
AcDbEntity
  8
A1枠
100
AcDbLine
 10
2788.397849593617
 20
77.21593624952174
 30
0.0
 11
2777.897849593617
 21
77.21593624952174
 31
0.0
  0
ARC
  5
11B0
330
2
100
AcDbEntity
  8
A1枠
100
AcDbCircle
 10
2780.69784959362
 20
71.61593624952138
 30
0.0
 40
2.099999999999999
100
AcDbArc
 50
180.0
 51
270.0
  0
ARC
  5
11B1
330
2
100
AcDbEntity
  8
A1枠
100
AcDbCircle
 10
2780.69784959362
 20
72.31593624952165
 30
0.0
 40
2.099999999999999
100
AcDbArc
 50
90.0
 51
180.0
  0
LINE
  5
11B2
330
2
100
AcDbEntity
  8
A1枠
100
AcDbLine
 10
2777.897849593617
 20
66.71593624952175
 30
0.0
 11
2786.297849593618
 21
66.71593624952175
 31
0.0
  0
LINE
  5
11B3
330
2
100
AcDbEntity
  8
A1枠
100
AcDbLine
 10
2777.897849593617
 20
66.71593624952175
 30
0.0
 11
2786.297849593618
 21
66.71593624952175
 31
0.0
  0
LINE
  5
11B4
330
2
100
AcDbEntity
  8
A1枠
100
AcDbLine
 10
2775.797849593618
 20
80.71593624952175
 30
0.0
 11
2786.297849593618
 21
80.71593624952175
 31
0.0
  0
LINE
  5
11B5
330
2
100
AcDbEntity
  8
A1枠
100
AcDbLine
 10
2787.697849593619
 20
83.51593624952148
 30
0.0
 11
2775.797849593618
 21
83.51593624952148
 31
0.0
  0
MTEXT
  5
11B6
330
2
100
AcDbEntity
  8
A1枠
 62
     3
100
AcDbMText
 10
2849.999998875413
 20
120.7599999999997
 30
0.0
 40
12.0
 41
60.0
 71
     5
 72
     5
  1
1/4
  7
表題
 73
     1
 44
1.0
  0
LINE
  5
11B7
330
2
100
AcDbEntity
  8
A1枠
100
AcDbLine
 10
2819.999998875413
 20
161.9999999999995
 30
0.0
 11
2819.999998875413
 21
97.99999999999954
 31
0.0
  0
LINE
  5
11B8
330
2
100
AcDbEntity
  8
A1枠
100
AcDbLine
 10
2879.999998875413
 20
161.9999999999995
 30
0.0
 11
2879.999998875413
 21
53.99999999999955
 31
0.0
  0
LINE
  5
11B9
330
2
100
AcDbEntity
  8
A1枠
100
AcDbLine
 10
2939.999998875413
 20
161.9999999999995
 30
0.0
 11
2939.999998875413
 21
97.99999999999954
 31
0.0
  0
LINE
  5
11BA
330
2
100
AcDbEntity
  8
A1枠
100
AcDbLine
 10
2715.999998875413
 20
161.9999999999995
 30
0.0
 11
2715.999998875413
 21
97.99999999999954
 31
0.0
  0
LINE
  5
11BB
330
2
100
AcDbEntity
  8
A1枠
100
AcDbLine
 10
2767.999998875413
 20
161.9999999999995
 30
0.0
 11
2767.999998875413
 21
97.99999999999954
 31
0.0
  0
MTEXT
  5
11BC
330
2
100
AcDbEntity
  8
A1枠
 62
     3
100
AcDbMText
 10
2849.999998875413
 20
152.7599999999997
 30
0.0
 40
10.0
 41
60.0
 71
     5
 72
     5
  1
Scale
  7
表題
 73
     1
 44
1.0
  0
MTEXT
  5
11BD
330
2
100
AcDbEntity
  8
A1枠
 62
     3
100
AcDbMText
 10
2909.999998875413
 20
152.7599999999997
 30
0.0
 40
10.0
 41
60.0
 71
     5
 72
     5
  1
Date
  7
表題
 73
     1
 44
1.0
  0
MTEXT
  5
11BE
330
2
100
AcDbEntity
  8
A1枠
 62
     3
100
AcDbMText
 10
2793.999998875413
 20
151.9999999999995
 30
0.0
 40
10.0
 41
52.0
 71
     5
 72
     5
  1
Drawing
  7
表題
 73
     1
 44
1.0
  0
MTEXT
  5
11BF
330
2
100
AcDbEntity
  8
A1枠
 62
     3
100
AcDbMText
 10
2741.999998875413
 20
151.9999999999995
 30
0.0
 40
10.0
 41
52.0
 71
     5
 72
     5
  1
Design
  7
表題
 73
     1
 44
1.0
  0
MTEXT
  5
11C0
330
2
100
AcDbEntity
  8
A1枠
 62
     3
100
AcDbMText
 10
3151.399998875417
 20
172.0
 30
0.0
 40
10.0
 41
97.2
 71
     5
 72
     5
  1
Comments
  7
表題
 73
     1
 44
1.0
  0
MTEXT
  5
11C1
330
2
100
AcDbEntity
  8
A1枠
 62
     3
100
AcDbMText
 10
3072.799998875416
 20
171.9999999999995
 30
0.0
 40
10.0
 41
60.0
 71
     5
 72
     5
  1
Quantity
  7
表題
 73
     1
 44
1.0
  0
LINE
  5
11C2
330
2
100
AcDbEntity
  8
A1枠
100
AcDbLine
 10
3102.799998875416
 20
182.0
 30
0.0
 11
3102.799998875416
 21
162.0
 31
0.0
  0
LINE
  5
11C3
330
2
100
AcDbEntity
  8
A1枠
100
AcDbLine
 10
3200.0
 20
182.0
 30
0.0
 11
3200.0
 21
161.9999999999995
 31
0.0
  0
LINE
  5
11C4
330
2
100
AcDbEntity
  8
A1枠
100
AcDbLine
 10
3175.83419133781
 20
89.99999999999955
 30
0.0
 11
3159.668383800614
 21
61.99999999999954
 31
0.0
  0
MTEXT
  5
11C5
330
2
100
AcDbEntity
  8
A1枠
 62
     3
100
AcDbMText
 10
3176.06588989641
 20
73.50132937546686
 30
0.0
 40
16.0
 41
0.0
 71
     5
 72
     5
  1
3
  7
表題
 73
     1
 44
1.0
  0
LINE
  5
11C6
330
2
100
AcDbEntity
  8
A1枠
100
AcDbLine
 10
3159.668383800614
 20
61.99999999999954
 30
0.0
 11
3191.999998875413
 21
61.99999999999954
 31
0.0
  0
LINE
  5
11C7
330
2
100
AcDbEntity
  8
A1枠
100
AcDbLine
 10
3175.83419133781
 20
89.99999999999955
 30
0.0
 11
3191.999998875413
 21
61.99999999999954
 31
0.0
  0
LINE
  5
11C8
330
2
100
AcDbEntity
  8
A1枠
100
AcDbLine
 10
3187.999998875413
 20
75.99999999999955
 30
0.0
 11
3199.999998875413
 21
75.99999999999955
 31
0.0
  0
LINE
  5
11C9
330
2
100
AcDbEntity
  8
A1枠
100
AcDbLine
 10
3200.0
 20
54.00000109347593
 30
0.0
 11
3200.0
 21
161.9999999999995
 31
0.0
  0
LINE
  5
11CA
330
2
100
AcDbEntity
  8
A1枠
100
AcDbLine
 10
3068.133332208745
 20
161.9999999999995
 30
0.0
 11
3068.133332208745
 21
141.9999999999995
 31
0.0
  0
MTEXT
  5
11CB
330
2
100
AcDbEntity
  8
A1枠
 62
     3
100
AcDbMText
 10
3072.134346750288
 20
152.1228571428571
 30
0.0
 40
10.0
 41
58.1332
 71
     4
 72
     5
  1
FileNo.
  7
表題
 73
     1
 44
1.0
  0
ATTDEF
  5
2300
330
2
100
AcDbEntity
  8
A1枠
100
AcDbText
 10
3086.170785392267
 20
286.0000000000001
 30
0.0
 40
12.0
  1

  7
表題
 72
     2
 11
3094.799998875414
 21
292.0000000000001
 31
0.0
100
AcDbAttributeDefinition
  3
数量
  2
1
 70
     0
 74
     2
  0
ATTDEF
  5
2301
330
2
100
AcDbEntity
  8
A1枠
100
AcDbText
 10
3086.170785392267
 20
266.0000000000001
 30
0.0
 40
12.0
  1

  7
表題
 72
     2
 11
3094.799998875414
 21
272.0000000000001
 31
0.0
100
AcDbAttributeDefinition
  3
数量
  2
1
 70
     0
 74
     2
  0
ATTDEF
  5
2302
330
2
100
AcDbEntity
  8
A1枠
100
AcDbText
 10
3086.170785392267
 20
246.0000000000001
 30
0.0
 40
12.0
  1

  7
表題
 72
     2
 11
3094.799998875414
 21
252.0000000000001
 31
0.0
100
AcDbAttributeDefinition
  3
数量
  2
1
 70
     0
 74
     2
  0
ATTDEF
  5
2303
330
2
100
AcDbEntity
  8
A1枠
100
AcDbText
 10
3086.170785392267
 20
226.0000000000001
 30
0.0
 40
12.0
  1

  7
表題
 72
     2
 11
3094.799998875414
 21
232.0000000000001
 31
0.0
100
AcDbAttributeDefinition
  3
数量
  2
1
 70
     0
 74
     2
  0
ATTDEF
  5
2304
330
2
100
AcDbEntity
  8
A1枠
100
AcDbText
 10
3086.170785392267
 20
206.0000000000001
 30
0.0
 40
12.0
  1

  7
表題
 72
     2
 11
3094.799998875414
 21
212.0
 31
0.0
100
AcDbAttributeDefinition
  3
数量
  2
1
 70
     0
 74
     2
  0
ATTDEF
  5
2305
330
2
100
AcDbEntity
  8
A1枠
100
AcDbText
 10
3086.17078539227
 20
186.0000000000001
 30
0.0
 40
12.0
  1

  7
表題
 72
     2
 11
3094.799998875416
 21
192.0000000000001
 31
0.0
100
AcDbAttributeDefinition
  3
数量
  2
1
 70
     0
 74
     2
  0
MTEXT
  5
2323
330
2
100
AcDbEntity
  8
A1枠
  6
Continuous
 62
     9
100
AcDbMText
 10
110.2671873617146
 20
99.36605302285057
 30
0.0
 40
8.8
 41
0.0
 71
     5
 72
     5
  1
2002,6,28
  7
TITLE
 73
     1
 44
1.0
  0
LINE
  5
2324
330
2
100
AcDbEntity
  8
A1枠
 62
     9
100
AcDbLine
 10
520.0000000008628
 20
86.00000000001728
 30
0.0
 11
40.00000000086299
 21
86.00000000001728
 31
0.0
  0
LINE
  5
2325
330
2
100
AcDbEntity
  8
A1枠
 62
     9
100
AcDbLine
 10
40.00000000086299
 20
114.0000000000213
 30
0.0
 11
520.0000000008628
 21
114.0000000000172
 31
0.0
  0
LINE
  5
2326
330
2
100
AcDbEntity
  8
A1枠
 62
     9
100
AcDbLine
 10
80.000000000863
 20
170.000000000021
 30
0.0
 11
80.000000000863
 21
54.00000000002137
 31
0.0
  0
REGION
  5
2327
330
2
100
AcDbEntity
  8
A1枠
 62
     9
100
AcDbModelerGeometry
 70
     1
  1
koo mn n o          
  1
h J1410(1 nl ^ \VL kqoqm QK mk R01 R>- nh ngekienk mool 
  1
rn fqfffffffffffffffj:rooh n:rono 
  1
=0;& {rn {n {rn {rn |
  1
3*2/ {rn {rn {m {o |
  1
,7:33 {rn {rn {rn {l {rn {n |
  1
9><: {rn {rn {k {m {rn {j -:):-,:; ;0*=3: 0*+ |
  1
300/ {rn {rn {i {l |
  1
/3>1:r,*-9><: {rn ioqooooooooogiookn fiqjllllllllljkihi o o o rn rk o o 90-(>-;@) V V V V |
  1
<0:;8: {rn {h {g {rn {f 90-(>-; {k {rn |
  1
<0:;8: {rn {g {i {rn {no 90-(>-; {k {rn |
  1
<0:;8: {rn {i {h {rn {nn 90-(>-; {k {rn |
  1
:;8: {rn {nm {nl {i {nk 90-(>-; |
  1
:;8: {rn {nl {nj {h {ni 90-(>-; |
  1
:;8: {rn {nj {nm {g {nh 90-(>-; |
  1
):-+:' {rn {f {ng |
  1
):-+:' {rn {f {nf |
  1
,+->687+r<*-): {rn khqffnnnkkonhmmgmj gfqiooooooooomnmgm o k o o V V |
  1
):-+:' {rn {no {mo |
  1
,+->687+r<*-): {rn hmqoogggjioooogfii gfqiooooooooomnmgm o rmqoooooooooooonmog lqkiknoninjnlhigkh o V V |
  1
,+->687+r<*-): {rn ioqooooooooogiookn nnoqkooooooooomnki o rnqffffffffffffgflk rlqkiknoninjnlhgnin o V V |
  1
/061+ {rn khqffnnnkkonhmmgmj gfqiooooooooomnmgm o |
  1
/061+ {rn hmqoogggjioooogfii gfqiooooooooomnmgm o |
  1
/061+ {rn ioqooooooooogiookn nnoqkooooooooomnki o |
  0
MTEXT
  5
2328
330
2
100
AcDbEntity
  8
A1枠
  6
Continuous
 62
     9
100
AcDbMText
 10
47.29151530386161
 20
76.55742572348436
 30
0.0
 40
10.0
 41
0.0
 71
     1
 72
     5
  1
Mark
  7
TITLE
 73
     1
 44
1.0
  0
MTEXT
  5
2329
330
2
100
AcDbEntity
  8
A1枠
  6
Continuous
 62
     9
100
AcDbMText
 10
60.45116236388719
 20
97.53016404263371
 30
0.0
 40
10.0
 41
0.0
 71
     5
 72
     5
  1
1
  7
TITLE
 73
     1
 44
1.0
  0
LINE
  5
232C
330
2
100
AcDbEntity
  8
A1枠
 62
     9
100
AcDbLine
 10
140.0000000008627
 20
170.0000000000205
 30
0.0
 11
140.0000000008629
 21
54.00000000002137
 31
0.0
  0
LINE
  5
232D
330
2
100
AcDbEntity
  8
A1枠
 62
     9
100
AcDbLine
 10
400.0000000008627
 20
170.0000000000183
 30
0.0
 11
400.0000000008628
 21
54.00000000001864
 31
0.0
  0
LINE
  5
232E
330
2
100
AcDbEntity
  8
A1枠
 62
     9
100
AcDbLine
 10
460.0000000008631
 20
170.0000000000177
 30
0.0
 11
460.0000000008629
 21
54.00000000001819
 31
0.0
  0
LINE
  5
232F
330
2
100
AcDbEntity
  8
A1枠
 62
     9
100
AcDbLine
 10
520.0000000008629
 20
170.0000000000172
 30
0.0
 11
520.0000000008628
 21
54.00000000002137
 31
0.0
  0
MTEXT
  5
2331
330
2
100
AcDbEntity
  8
A1枠
  6
Continuous
 62
     9
100
AcDbMText
 10
205.5675218079165
 20
76.55742572348299
 30
0.0
 40
10.0
 41
0.0
 71
     1
 72
     5
  1
Revision
  7
TITLE
 73
     1
 44
1.0
  0
MTEXT
  5
2332
330
2
100
AcDbEntity
  8
A1枠
  6
Continuous
 62
     9
100
AcDbMText
 10
273.2164398277193
 20
100.7541599842442
 30
0.0
 40
10.0
 41
0.0
 71
     5
 72
     5
  1
Correction of Material
  7
TITLE
 73
     1
 44
1.0
  0
MTEXT
  5
2333
330
2
100
AcDbEntity
  8
A1枠
  6
Continuous
 62
     9
100
AcDbMText
 10
93.60276210148436
 20
76.5574257234839
 30
0.0
 40
10.0
 41
0.0
 71
     1
 72
     5
  1
Date
  7
TITLE
 73
     1
 44
1.0
  0
MTEXT
  5
2334
330
2
100
AcDbEntity
  8
A1枠
  6
Continuous
 62
     9
100
AcDbMText
 10
429.2266119189227
 20
100.7541599842442
 30
0.0
 40
10.0
 41
0.0
 71
     5
 72
     5
  1
Urakawa
  7
TITLE
 73
     1
 44
1.0
  0
MTEXT
  5
2335
330
2
100
AcDbEntity
  8
A1枠
  6
Continuous
 62
     9
100
AcDbMText
 10
402.8036680608985
 20
85.19381984557048
 30
0.0
 40
10.0
 41
0.0
 71
     1
 72
     5
  1
Revised\Pby
  7
TITLE
 73
     1
 44
1.0
  0
MTEXT
  5
2337
330
2
100
AcDbEntity
  8
A1枠
  6
Continuous
 62
     9
100
AcDbMText
 10
489.2266119189226
 20
100.7541599842442
 30
0.0
 40
10.0
 41
0.0
 71
     5
 72
     5
  1
Kamioka
  7
TITLE
 73
     1
 44
1.0
  0
MTEXT
  5
2338
330
2
100
AcDbEntity
  8
A1枠
  6
Continuous
 62
     9
100
AcDbMText
 10
460.5988453284505
 20
86.42758514104071
 30
0.0
 40
10.0
 41
0.0
 71
     1
 72
     5
  1
Approved\Pby
  7
TITLE
 73
     1
 44
1.0
  0
ATTDEF
  5
233C
330
2
100
AcDbEntity
  8
A1枠
100
AcDbText
 10
2749.037020199917
 20
186.0000000000013
 30
0.0
 40
12.0
  1

  7
表題
 11
2749.037020199917
 21
192.0000000000013
 31
0.0
100
AcDbAttributeDefinition
  3
材質
  2
SUS316L
 70
     0
 74
     2
  0
ATTDEF
  5
2396
330
2
100
AcDbEntity
  8
A1枠
100
AcDbText
 10
8324.833167557587
 20
2137.9447821252
 30
0.0
 40
15.0
  1

  7
表題
 11
8324.833167557587
 21
2145.4447821252
 31
0.0
100
AcDbAttributeDefinition
  3
部品名称
  2

 70
     0
 74
     2
  0
ATTDEF
  5
2397
330
2
100
AcDbEntity
  8
A1枠
100
AcDbText
 10
8324.833167557587
 20
2212.9447821252
 30
0.0
 40
15.0
  1

  7
表題
 11
8324.833167557587
 21
2220.4447821252
 31
0.0
100
AcDbAttributeDefinition
  3
部品名称
  2

 70
     0
 74
     2
  0
ATTDEF
  5
2398
330
2
100
AcDbEntity
  8
A1枠
100
AcDbText
 10
8647.539337034329
 20
2212.944782125206
 30
0.0
 40
15.0
  1

  7
表題
 11
8647.539337034329
 21
2220.444782125206
 31
0.0
100
AcDbAttributeDefinition
  3
素材寸法
  2

 70
     0
 74
     2
  0
ATTDEF
  5
2399
330
2
100
AcDbEntity
  8
A1枠
100
AcDbText
 10
8647.539337034329
 20
2162.944782125206
 30
0.0
 40
15.0
  1

  7
表題
 11
8647.539337034329
 21
2170.444782125206
 31
0.0
100
AcDbAttributeDefinition
  3
素材寸法
  2

 70
     0
 74
     2
  0
LINE
  5
2FD0
330
2
100
AcDbEntity
  8
AM_7
100
AcDbLine
 10
1483.311694123653
 20
2090.621535351734
 30
0.0
 11
1483.311694123653
 21
591.2349655889934
 31
0.0
  0
ARC
  5
2FD1
330
2
100
AcDbEntity
  8
内槽板
100
AcDbCircle
 10
1483.311694123653
 20
1873.234965588994
 30
0.0
 40
616.0
100
AcDbArc
 50
159.6851814760118
 51
249.173723301988
  0
ARC
  5
2FD2
330
2
100
AcDbEntity
  8
内槽板
100
AcDbCircle
 10
1483.311694123653
 20
1873.234965588993
 30
0.0
 40
623.0
100
AcDbArc
 50
159.5778048528147
 51
249.416129006564
  0
ARC
  5
2FD3
330
2
100
AcDbEntity
  8
内槽板
100
AcDbCircle
 10
1483.311694123653
 20
1873.234965588993
 30
0.0
 40
1120.0
100
AcDbArc
 50
168.808130280137
 51
258.7239797778999
  0
ARC
  5
2FD4
330
2
100
AcDbEntity
  8
内槽板
100
AcDbCircle
 10
1483.311694123653
 20
1873.234965588993
 30
0.0
 40
1113.0
100
AcDbArc
 50
168.941666268981
 51
258.6521224016673
  0
LINE
  5
2FD6
330
2
100
AcDbEntity
  8
0
  6
AM_ISO08W050
100
AcDbLine
 10
830.9563238757847
 20
747.1850243949534
 30
0.0
 11
831.1704386484146
 21
749.4844782860932
 31
0.0
  0
LINE
  5
2FD7
330
2
100
AcDbEntity
  8
0
  6
AM_ISO08W050
100
AcDbLine
 10
829.0719957775415
 20
748.5201801729463
 30
0.0
 11
831.1704386484146
 21
749.4844782860932
 31
0.0
  0
LWPOLYLINE
  5
2FD8
330
2
100
AcDbEntity
  8
0
  6
AM_ISO08W050
100
AcDbPolyline
 90
        4
 70
     1
 43
0.0
 10
827.6361739247048
 20
761.7933764034196
 10
843.9549339461338
 20
750.2305881859083
 10
838.1735398373784
 20
742.0712081751944
 10
821.85477981595
 20
753.6339963927057
  0
REGION
  5
2FDA
330
2
100
AcDbEntity
  8
内槽側板
100
AcDbModelerGeometry
 70
     1
  1
koo li n o          
  1
h J1410(1 nl ^ \VL kqoqm QK mk R01 R>- nh ngekienk mool 
  1
rn fqfffffffffffffffj:rooh n:rono 
  1
=0;& {rn {n {rn {rn |
  1
3*2/ {rn {rn {m {o |
  1
,7:33 {rn {rn {rn {l {rn {n |
  1
9><: {rn {rn {k {m {rn {j -:):-,:; ;0*=3: 0*+ |
  1
300/ {rn {rn {i {l |
  1
/3>1:r,*-9><: {rn nmjfqiiinjlgnokmnj nolhqfojmnjlnolmnm o o o rn rn iqogilgjiononhnmm:roni o -:):-,:@) V V V V |
  1
<0:;8: {rn {h {g {rn {f -:):-,:; {k {rn |
  1
<0:;8: {rn {no {i {rn {nn -:):-,:; {k {rn |
  1
<0:;8: {rn {i {nm {rn {nl 90-(>-; {k {rn |
  1
:;8: {rn {nk {nj {i {ni 90-(>-; |
  1
<0:;8: {rn {nh {h {rn {ng -:):-,:; {k {rn |
  1
:;8: {rn {nf {nk {h {mo 90-(>-; |
  1
<0:;8: {rn {g {nh {rn {mn 90-(>-; {k {rn |
  1
:;8: {rn {mm {nj {g {ml 90-(>-; |
  1
):-+:' {rn {f {mk |
  1
):-+:' {rn {f {mj |
  1
,+->687+r<*-): {rn nmkhqlnnfijjmmhfgg hgjqjkllnklgkllmon o riqiloolhmlgmlkkjml:rooj oqffffffffhgomnlomm o V V |
  1
<0:;8: {rn {nm {no {rn {mi 90-(>-; {k {rn |
  1
:;8: {rn {mh {nf {no {mg 90-(>-; |
  1
):-+:' {rn {ng {mf |
  1
:336/,:r<*-): {rn nkglqlnnifknmlijll nghlqmlkfijjggfflk o o o rn nnnl riqhhknkhnhlflmojhl:ronl o n V V |
  1
:;8: {rn {lo {mm {nm {ln 90-(>-; |
  1
):-+:' {rn {nl {lm |
  1
:336/,:r<*-): {rn nkglqlnnifknmlijll nghlqmlkfijjggfflk o o o rn iml rlqhfngngmmfklliihm:ronl o n V V |
  1
/061+ {rn nmkhqlnnfijjmmhfgg hgjqjkllnklgkllmon o |
  1
/061+ {rn nmkhqmhgohhojijilm nmfiqihgifilliinol o |
  1
:;8: {rn {mh {lo {nh {ll 90-(>-; |
  1
):-+:' {rn {mi {lk |
  1
,+->687+r<*-): {rn nmhnqlnnifknmlijmm hgnqfflkhohhihhhol o rn iqjjhmjkjgmfjfgigh:ronk o V V |
  1
/061+ {rn nmikqlnnifknmlijmk hgnqfflkhohhihhhkf o |
  1
):-+:' {rn {mn {lj |
  1
,+->687+r<*-): {rn nmhnqmhgjnflnlkmlm nmfoqoognfmfknhmmk o rn iqogilgjiononhnmm:roni o V V |
  1
/061+ {rn nmikqmhgjnflnlkmlh nmfoqoognfmfknhmmk o |
  1
,+->687+r<*-): {rn nmhnqlnnifknmlijmm hgnqfflkhohhihhhol o riqjlomgjngghgnmgm:rooj oqffffffffhgihhiggl o V V |
  1
/061+ {rn nmhnqlnnifknmlijmm hgnqfflkhohhihhhol o |
  1
/061+ {rn nmhnqmhgjnflnlkmlm nmfoqoognfmfknhmmk o |
  0
LINE
  5
2FDB
330
2
100
AcDbEntity
  8
ノゾキ窓
  6
AM_ISO08W050
 48
0.3
100
AcDbLine
 10
1311.308273032458
 20
836.000831858697
 30
0.0
 11
1241.308273032458
 21
836.000831858697
 31
0.0
  0
LINE
  5
2FDC
330
2
100
AcDbEntity
  8
内槽板
100
AcDbLine
 10
1264.311694123599
 20
774.8547946099392
 30
0.0
 11
1264.3116941236
 21
781.9934707767879
 31
0.0
  0
LWPOLYLINE
  5
2FDD
330
2
100
AcDbEntity
  8
ノゾキ窓
100
AcDbPolyline
 90
        4
 70
     1
 43
0.0
 10
1271.308273032458
 20
826.0008318581444
 10
1271.308273032458
 20
846.0008318581444
 10
1281.308273032458
 20
846.0008318581444
 10
1281.308273032458
 20
826.0008318581444
  0
LINE
  5
2FDE
330
2
100
AcDbEntity
  8
ノゾキ窓
100
AcDbLine
 10
1281.308273032458
 20
837.155532396523
 30
0.0
 11
1279.308273032458
 21
836.000831858144
 31
0.0
  0
LINE
  5
2FDF
330
2
100
AcDbEntity
  8
ノゾキ窓
100
AcDbLine
 10
1281.308273032458
 20
834.8461313197649
 30
0.0
 11
1279.308273032458
 21
836.000831858144
 31
0.0
  0
LINE
  5
2FE1
330
2
100
AcDbEntity
  8
ノゾキ窓
  6
AM_ISO08W050
 48
0.3
100
AcDbLine
 10
1311.308273032458
 20
1146.000831858697
 30
0.0
 11
1241.308273032458
 21
1146.000831858697
 31
0.0
  0
LWPOLYLINE
  5
2FE2
330
2
100
AcDbEntity
  8
ノゾキ窓
100
AcDbPolyline
 90
        4
 70
     1
 43
0.0
 10
1271.308273032458
 20
1136.000831858144
 10
1271.308273032458
 20
1156.000831858144
 10
1281.308273032458
 20
1156.000831858144
 10
1281.308273032458
 20
1136.000831858144
  0
LINE
  5
2FE3
330
2
100
AcDbEntity
  8
ノゾキ窓
100
AcDbLine
 10
1281.308273032458
 20
1144.846131319764
 30
0.0
 11
1279.308273032458
 21
1146.000831858144
 31
0.0
  0
LINE
  5
2FE4
330
2
100
AcDbEntity
  8
ノゾキ窓
100
AcDbLine
 10
1281.308273032458
 20
1147.155532396523
 30
0.0
 11
1279.308273032458
 21
1146.000831858144
 31
0.0
  0
LINE
  5
2FE5
330
2
100
AcDbEntity
  8
内槽板
100
AcDbLine
 10
1264.278519313396
 20
1290.008192941675
 30
0.0
 11
1264.30173370524
 21
1297.482729607585
 31
0.0
  0
LINE
  5
2FE7
330
2
100
AcDbEntity
  8
AM_7
100
AcDbLine
 10
168.8611397401894
 20
1873.234965588993
 30
0.0
 11
1683.311694123653
 21
1873.234965588993
 31
0.0
  0
ARC
  5
2FF1
330
2
100
AcDbEntity
  8
外槽板
100
AcDbCircle
 10
1483.311694123653
 20
1873.234965588999
 30
0.0
 40
550.4999999999999
100
AcDbArc
 50
156.6141712045459
 51
239.7428118019591
  0
ARC
  5
2FF2
330
2
100
AcDbEntity
  8
外槽板
100
AcDbCircle
 10
1483.311694123653
 20
1873.234965588999
 30
0.0
 40
550.0
100
AcDbArc
 50
156.6068367340678
 51
239.7428118019591
  0
LINE
  5
2FF3
330
2
100
AcDbEntity
  8
0
  6
AM_ISO08W050
100
AcDbLine
 10
748.4965029007573
 20
632.8053441275942
 30
0.0
 11
1483.311694123677
 21
1669.862543489354
 31
0.0
  0
ARC
  5
2FF5
330
2
100
AcDbEntity
  8
外槽板
100
AcDbCircle
 10
1483.311694123653
 20
1873.234965588999
 30
0.0
 40
1200.0
100
AcDbArc
 50
169.562929826523
 51
233.034549586142
  0
ARC
  5
2FF6
330
2
100
AcDbEntity
  8
外槽板
100
AcDbCircle
 10
1483.311694123653
 20
1873.234965588999
 30
0.0
 40
1192.0
100
AcDbArc
 50
169.7160812293196
 51
232.7445913085069
  0
LINE
  5
2FF7
330
2
100
AcDbEntity
  8
0
100
AcDbLine
 10
316.7752437385759
 20
1119.862543489354
 30
0.0
 11
525.7843895116159
 21
1119.862543489354
 31
0.0
  0
LINE
  5
2FF8
330
2
100
AcDbEntity
  8
0
100
AcDbLine
 10
459.9607719078178
 20
1043.162543489354
 30
0.0
 11
469.3535539620381
 21
1043.162543489354
 31
0.0
  0
LINE
  5
2FF9
330
2
100
AcDbEntity
  8
0
100
AcDbLine
 10
380.5936385899638
 20
1196.562543489354
 30
0.0
 11
389.3047882953581
 21
1196.562543489354
 31
0.0
  0
LINE
  5
2FFA
330
2
100
AcDbEntity
  8
0
  6
AM_ISO08W050
100
AcDbLine
 10
797.2892123189028
 20
641.1282947844465
 30
0.0
 11
826.7743222735596
 21
682.7411328390881
 31
0.0
  0
LWPOLYLINE
  5
2FFB
330
2
100
AcDbEntity
  8
0
100
AcDbPolyline
 90
        4
 70
     1
 43
0.0
 10
745.3113786833299
 20
706.1460216791381
 10
818.7457987797559
 20
654.1134747003332
 10
814.1206834927512
 20
647.5859706917615
 10
740.6862633963249
 20
699.6185176705673
  0
LINE
  5
2FFC
330
2
100
AcDbEntity
  8
0
100
AcDbLine
 10
752.8271910247133
 20
716.7532156930665
 30
0.0
 11
826.2616111211393
 21
664.7206687142606
 31
0.0
  0
LINE
  5
2FFD
330
2
100
AcDbEntity
  8
0
100
AcDbLine
 10
748.2020757377078
 20
710.2257116844957
 30
0.0
 11
821.6364958341348
 21
658.1931647056899
 31
0.0
  0
LINE
  5
2FFE
330
2
100
AcDbEntity
  8
0
  6
AM_ISO08W050
100
AcDbLine
 10
740.173552243905
 20
681.5980535457401
 30
0.0
 11
769.6586621985618
 21
723.2108916003817
 31
0.0
  0
LINE
  5
2FFF
330
2
100
AcDbEntity
  8
0
100
AcDbLine
 10
748.2020757377078
 20
710.2257116844957
 30
0.0
 11
752.8271910247133
 21
716.7532156930665
 31
0.0
  0
LINE
  5
3000
330
2
100
AcDbEntity
  8
0
100
AcDbLine
 10
759.1823247015438
 20
696.3176516942531
 30
0.0
 11
762.0730217559223
 21
700.3973416996095
 31
0.0
  0
LINE
  5
3001
330
2
100
AcDbEntity
  8
0
100
AcDbLine
 10
826.2616111211393
 20
664.7206687142606
 30
0.0
 11
821.6364958341348
 21
658.1931647056899
 31
0.0
  0
LINE
  5
3002
330
2
100
AcDbEntity
  8
0
100
AcDbLine
 10
804.8748527615423
 20
663.9418446852178
 30
0.0
 11
807.7655498159204
 21
668.0215346905752
 31
0.0
  0
REGION
  5
3015
330
2
100
AcDbEntity
  8
外槽側板
100
AcDbModelerGeometry
 70
     1
  1
koo ln n o          
  1
h J1410(1 nl ^ \VL kqoqm QK mk R01 R>- nh ngekienk mool 
  1
rn fqfffffffffffffffj:rooh n:rono 
  1
=0;& {rn {n {rn {rn |
  1
3*2/ {rn {rn {m {o |
  1
,7:33 {rn {rn {rn {l {rn {n |
  1
9><: {rn {rn {k {m {rn {j 90-(>-; ;0*=3: 0*+ |
  1
300/ {rn {rn {i {l |
  1
/3>1:r,*-9><: {rn nlhnqjmlmlinfmmin fikqkjnkfihghoinni o o o n n nqijfhifhgikhkmmfn:ronl o -:):-,:@) V V V V |
  1
<0:;8: {rn {h {g {rn {f 90-(>-; {k {rn |
  1
<0:;8: {rn {no {i {rn {nn 90-(>-; {k {rn |
  1
<0:;8: {rn {i {nm {rn {nl 90-(>-; {k {rn |
  1
:;8: {rn {nk {nj {i {ni 90-(>-; |
  1
<0:;8: {rn {nm {h {rn {nh -:):-,:; {k {rn |
  1
:;8: {rn {nj {ng {h {nf 90-(>-; |
  1
<0:;8: {rn {g {no {rn {mo -:):-,:; {k {rn |
  1
:;8: {rn {mn {nk {g {mm 90-(>-; |
  1
):-+:' {rn {f {ml |
  1
):-+:' {rn {f {mk |
  1
,+->687+r<*-): {rn nlglqlnnifknmlgj igiqhfjlllhkfngnfi o rnqijfhifhgikhkmmfn:ronl n o V V |
  1
:;8: {rn {mj {ng {no {mi 90-(>-; |
  1
):-+:' {rn {nn {mh |
  1
:336/,:r<*-): {rn nkglqlnnifknmlijmm nghlqmlkfijjggflof o o o rn jjo fqnmghllgmjiogmjfh:ronn o n V V |
  1
:;8: {rn {mn {mj {nm {mg 90-(>-; |
  1
):-+:' {rn {mo {mf |
  1
,+->687+r<*-): {rn nligqlnnifknmlgkgm igiqhfjlllhkfnhfif o n nqijfhifhgikhkmmfn:ronl o V V |
  1
/061+ {rn nlglqlnnifknmlgj igiqhfjlllhkfngnfi o |
  1
/061+ {rn nlglqlnnifknmlhkmf nllmqkommhkmiflnjh o |
  1
):-+:' {rn {nh {lo |
  1
,+->687+r<*-): {rn nlilqlnnifknmlgkfh ighqmfoininljifflk o rnqijfhifhgikhkmmfn:ronl n o V V |
  1
/061+ {rn nlilqlnnifknmlhkmh nlliqkgjkgfjhinmkg o |
  1
:336/,:r<*-): {rn nkglqlnnifknmlijnl nghlqmlkfijjggflof o o o rn nnfm nqfhgkkjjgjkhhmgn:rono o n V V |
  1
/061+ {rn nligqlnnifknmlgkgm igiqhfjlllhkfnhfmk o |
  1
/061+ {rn nlilqlnnifknmlgkfh ighqmfoininljifflk o |
  0
LINE
  5
3016
330
2
100
AcDbEntity
  8
外槽板
100
AcDbLine
 10
1368.311694123653
 20
678.7580926441941
 30
0.0
 11
1368.311694123653
 21
686.7953337492672
 31
0.0
  0
ARC
  5
3017
330
2
100
AcDbEntity
  8
細線
100
AcDbCircle
 10
1483.311694123653
 20
1873.234965588999
 30
0.0
 40
570.0
100
AcDbArc
 50
238.1800058563017
 51
257.8468025309861
  0
LINE
  5
3019
330
2
100
AcDbEntity
  8
細線
100
AcDbLine
 10
1383.31169412351
 20
1036.4854895763
 30
0.0
 11
1383.311694123539
 21
1201.485489576301
 31
0.0
  0
LINE
  5
301A
330
2
100
AcDbEntity
  8
細線
100
AcDbLine
 10
1383.31169412351
 20
1036.4854895763
 30
0.0
 11
1463.311694123524
 21
1116.485489576286
 31
0.0
  0
LWPOLYLINE
  5
301B
330
2
100
AcDbEntity
  8
ノゾキ窓
100
AcDbPolyline
 90
        4
 70
     1
 43
0.0
 10
1396.311694123616
 20
791.0008318593274
 10
1396.311694123619
 20
881.0008318593274
 10
1404.311694123619
 20
881.0008318593274
 10
1404.311694123616
 20
791.0008318593274
  0
LINE
  5
301C
330
2
100
AcDbEntity
  8
ノゾキ窓
100
AcDbLine
 10
1391.311694123615
 20
791.0008318593281
 30
0.0
 11
1391.311694123618
 21
881.0008318593281
 31
0.0
  0
LINE
  5
301D
330
2
100
AcDbEntity
  8
ノゾキ窓
100
AcDbLine
 10
1383.311694123615
 20
791.0008318593281
 30
0.0
 11
1383.311694123618
 21
881.0008318593281
 31
0.0
  0
LINE
  5
301E
330
2
100
AcDbEntity
  8
ノゾキ窓
  6
AM_ISO08W050
 48
0.2
100
AcDbLine
 10
1429.311694123617
 20
836.0008318593273
 30
0.0
 11
1341.521357787401
 21
836.0008318593299
 31
0.0
  0
LINE
  5
301F
330
2
100
AcDbEntity
  8
ノゾキ窓
  6
AM_ISO08W050
 48
0.2
100
AcDbLine
 10
1419.311694123618
 20
871.0008318593272
 30
0.0
 11
1368.311694123618
 21
871.000831859329
 31
0.0
  0
LINE
  5
3020
330
2
100
AcDbEntity
  8
ノゾキ窓
  6
AM_ISO02W050
 48
0.2
100
AcDbLine
 10
1383.311694123618
 20
853.0008318593282
 30
0.0
 11
1363.311694123617
 21
853.000831859329
 31
0.0
  0
LINE
  5
3021
330
2
100
AcDbEntity
  8
ノゾキ窓
  6
AM_ISO02W050
 48
0.2
100
AcDbLine
 10
1383.311694123617
 20
819.0008318593282
 30
0.0
 11
1363.311694123616
 21
819.0008318593291
 31
0.0
  0
LINE
  5
3022
330
2
100
AcDbEntity
  8
ノゾキ窓
100
AcDbLine
 10
1396.311694123616
 20
808.0008318593282
 30
0.0
 11
1391.311694123616
 21
808.0008318593282
 31
0.0
  0
LINE
  5
3023
330
2
100
AcDbEntity
  8
ノゾキ窓
100
AcDbLine
 10
1396.311694123618
 20
864.0008318593281
 30
0.0
 11
1391.311694123618
 21
864.0008318593281
 31
0.0
  0
LINE
  5
3024
330
2
100
AcDbEntity
  8
ノゾキ窓
100
AcDbLine
 10
1383.311694123618
 20
881.0008318593281
 30
0.0
 11
1391.311694123618
 21
881.0008318593281
 31
0.0
  0
LINE
  5
3025
330
2
100
AcDbEntity
  8
ノゾキ窓
  6
AM_ISO08W050
 48
0.2
100
AcDbLine
 10
1419.311694123615
 20
801.0008318593273
 30
0.0
 11
1368.311694123615
 21
801.0008318593291
 31
0.0
  0
LINE
  5
3026
330
2
100
AcDbEntity
  8
ノゾキ窓
100
AcDbLine
 10
1391.311694123615
 20
791.0008318593281
 30
0.0
 11
1383.311694123615
 21
791.0008318593281
 31
0.0
  0
LINE
  5
3027
330
2
100
AcDbEntity
  8
細線
100
AcDbLine
 10
1463.311694123558
 20
1296.485489576286
 30
0.0
 11
1463.311694123524
 21
1116.485489576286
 31
0.0
  0
LINE
  5
3028
330
2
100
AcDbEntity
  8
細線
100
AcDbLine
 10
1383.311694123547
 20
1251.485489576301
 30
0.0
 11
1383.311694123555
 21
1281.485489576301
 31
0.0
  0
LINE
  5
3029
330
2
100
AcDbEntity
  8
細線
100
AcDbLine
 10
1398.311694123541
 20
1216.485489576298
 30
0.0
 11
1383.311694123538
 21
1201.485489576301
 31
0.0
  0
LINE
  5
302A
330
2
100
AcDbEntity
  8
細線
100
AcDbLine
 10
1398.311694123544
 20
1236.485489576298
 30
0.0
 11
1383.311694123547
 21
1251.485489576301
 31
0.0
  0
LINE
  5
302B
330
2
100
AcDbEntity
  8
細線
100
AcDbLine
 10
1383.311694123541
 20
1216.485489576301
 30
0.0
 11
1383.311694123545
 21
1236.485489576301
 31
0.0
  0
LINE
  5
302C
330
2
100
AcDbEntity
  8
細線
100
AcDbLine
 10
1398.311694123558
 20
1296.485489576298
 30
0.0
 11
1383.311694123555
 21
1281.485489576301
 31
0.0
  0
LWPOLYLINE
  5
3039
330
2
100
AcDbEntity
  8
細線
100
AcDbPolyline
 90
        4
 70
     1
 43
0.0
 10
1383.311694123562
 20
1316.4854895763
 10
1463.311694123562
 20
1316.485489576286
 10
1463.311694123558
 20
1296.485489576286
 10
1383.311694123558
 20
1296.4854895763
  0
LINE
  5
303A
330
2
100
AcDbEntity
  8
細線
100
AcDbLine
 10
1398.311694123558
 20
1296.485489576297
 30
0.0
 11
1463.311694123558
 21
1296.485489576286
 31
0.0
  0
LWPOLYLINE
  5
303B
330
2
100
AcDbEntity
  8
細線
100
AcDbPolyline
 90
        4
 70
     1
 43
0.0
 10
1383.311694123545
 20
1236.4854895763
 10
1463.311694123544
 20
1236.485489576286
 10
1463.311694123541
 20
1216.485489576286
 10
1383.311694123541
 20
1216.4854895763
  0
ARC
  5
303C
330
2
100
AcDbEntity
  8
細線
100
AcDbCircle
 10
1483.311694123653
 20
1873.234965588999
 30
0.0
 40
550.0
100
AcDbArc
 50
238.1800058563017
 51
257.3977351585466
  0
LINE
  5
303D
330
2
100
AcDbEntity
  8
細線
100
AcDbLine
 10
1182.777857444027
 20
1388.90097647547
 30
0.0
 11
1193.322904345067
 21
1405.895151532086
 31
0.0
  0
LINE
  5
303E
330
2
100
AcDbEntity
  8
細線
100
AcDbLine
 10
1205.924461595818
 20
1397.728316602311
 30
0.0
 11
1206.176402769776
 21
1398.160202750347
 31
0.0
  0
LINE
  5
303F
330
2
100
AcDbEntity
  8
細線
100
AcDbLine
 10
1206.036355570733
 20
1395.927531506558
 30
0.0
 11
1207.040976362592
 21
1397.656906267727
 31
0.0
  0
LINE
  5
3040
330
2
100
AcDbEntity
  8
細線
100
AcDbLine
 10
1207.334414096603
 20
1395.175834594686
 30
0.0
 11
1208.339034888461
 21
1396.905209355854
 31
0.0
  0
LINE
  5
3041
330
2
100
AcDbEntity
  8
細線
100
AcDbLine
 10
1206.036355570734
 20
1395.927531506558
 30
0.0
 11
1207.334414096603
 21
1395.175834594686
 31
0.0
  0
LINE
  5
36B1
330
2
100
AcDbEntity
  8
架台
100
AcDbLine
 10
225.3116941236535
 20
1669.862543489319
 30
0.0
 11
225.3116941236535
 21
449.8625434893183
 31
0.0
  0
LINE
  5
36B4
330
2
100
AcDbEntity
  8
架台
100
AcDbLine
 10
1383.311694123653
 20
466.0087317663164
 30
0.0
 11
1383.311694123654
 21
449.8625434893183
 31
0.0
  0
REGION
  5
36BD
330
2
100
AcDbEntity
  8
架台
100
AcDbModelerGeometry
 70
     1
  1
koo mi n o          
  1
h J1410(1 nl ^ \VL kqoqm QK mk R01 R>- nh ngekienk mool 
  1
rn fqfffffffffffffffj:rooh n:rono 
  1
=0;& {rn {n {rn {rn |
  1
3*2/ {rn {rn {m {o |
  1
,7:33 {rn {rn {rn {l {rn {n |
  1
9><: {rn {rn {k {m {rn {j 90-(>-; ;0*=3: 0*+ |
  1
300/ {rn {rn {i {l |
  1
/3>1:r,*-9><: {rn hkjqlollhffifnmfhi nolkqfmhijjonnonmi o o o n n o o 90-(>-;@) V V V V |
  1
<0:;8: {rn {h {g {rn {f 90-(>-; {k {rn |
  1
<0:;8: {rn {no {i {rn {nn 90-(>-; {k {rn |
  1
<0:;8: {rn {i {no {rn {nm -:):-,:; {k {rn |
  1
:;8: {rn {nl {nk {i {nj 90-(>-; |
  1
<0:;8: {rn {g {h {rn {ni -:):-,:; {k {rn |
  1
:;8: {rn {nk {nh {h {ng 90-(>-; |
  1
:;8: {rn {nl {nf {g {mo 90-(>-; |
  1
):-+:' {rn {f {mn |
  1
):-+:' {rn {f {mm |
  1
:336/,:r<*-): {rn nkglqlnnifknmlijlj niifqgimjklkgflnfl o o o n nmog o o n V V |
  1
:;8: {rn {nf {nh {no {ml 90-(>-; |
  1
):-+:' {rn {nn {mk |
  1
,+->687+r<*-): {rn nlglqlnnifknmlijlj kiiqooghlnhiilnikf o o n o V V |
  1
):-+:' {rn {ni {mj |
  1
,+->687+r<*-): {rn mhhqfffnmhfloghkif nhjoqlfjghigmmijmn o oqffhhhjlolnlfhmnk roqoiiiiiiiiiiiinnflm o V V |
  1
/061+ {rn mhhqfffnmhflogifmk nhjoqlfjghigmmjgl o |
  1
/061+ {rn nlglqlnnifknmlhoog kiiqooghlnhiilnlhi o |
  1
:336/,:r<*-): {rn nkglqlnnifknmlijlj niifqgimjklkgflnfl o o o n nmoo o o n V V |
  1
/061+ {rn nlglqlnnifknmlijlj khkqolikifnhfnhgln o |
  1
/061+ {rn mgjqfgnlloljjfggnm nhkfqgimjklkgfmjon o |
  0
LINE
  5
36BE
330
2
100
AcDbEntity
  8
架台
100
AcDbLine
 10
276.3469059048752
 20
1719.862543489319
 30
0.0
 11
225.3116941236535
 21
1669.862543489319
 31
0.0
  0
REGION
  5
36BF
330
2
100
AcDbEntity
  8
架台
100
AcDbModelerGeometry
 70
     1
  1
koo mi n o          
  1
h J1410(1 nl ^ \VL kqoqm QK mk R01 R>- nh ngekienk mool 
  1
rn fqfffffffffffffffj:rooh n:rono 
  1
=0;& {rn {n {rn {rn |
  1
3*2/ {rn {rn {m {o |
  1
,7:33 {rn {rn {rn {l {rn {n |
  1
9><: {rn {rn {k {m {rn {j -:):-,:; ;0*=3: 0*+ |
  1
300/ {rn {rn {i {l |
  1
/3>1:r,*-9><: {rn gokqlnnifknmlijljm klkqgimjklkgflnglk o o o rn rn o o 90-(>-;@) V V V V |
  1
<0:;8: {rn {h {g {rn {f 90-(>-; {k {rn |
  1
<0:;8: {rn {no {i {rn {nn 90-(>-; {k {rn |
  1
<0:;8: {rn {i {no {rn {nm 90-(>-; {k {rn |
  1
:;8: {rn {nl {nk {i {nj 90-(>-; |
  1
<0:;8: {rn {g {h {rn {ni 90-(>-; {k {rn |
  1
:;8: {rn {nk {nh {h {ng 90-(>-; |
  1
:;8: {rn {nf {nl {g {mo 90-(>-; |
  1
):-+:' {rn {f {mn |
  1
):-+:' {rn {f {mm |
  1
,+->687+r<*-): {rn mmjqlnnifknmlijljm knfqgimjklkgflnglk o n o o V V |
  1
:;8: {rn {nh {nf {no {ml 90-(>-; |
  1
):-+:' {rn {nn {mk |
  1
,+->687+r<*-): {rn nlglqlnnifknmlijlj knfqgimjklkgflnglk o o n o V V |
  1
):-+:' {rn {ni {mj |
  1
,+->687+r<*-): {rn mmjqlnnifknmlijljm kkfqgimjklkgflnglk o o rn o V V |
  1
/061+ {rn mmjqlnnifknmlijljm knfqgimjklkgflnglk o |
  1
/061+ {rn nlglqlnnifknmlijlj knfqgimjklkgflnglk o |
  1
,+->687+r<*-): {rn nlglqlnnifknmlijlj kkfqgimjklkgflnglk o rn o o V V |
  1
/061+ {rn nlglqlnnifknmlijlj kkfqgimjklkgflnglk o |
  1
/061+ {rn mmjqlnnifknmlijljm kkfqgimjklkgflnglk o |
  0
LWPOLYLINE
  5
36C6
102
{ACAD_REACTORS
330
433C
102
}
330
2
100
AcDbEntity
  8
AM_2
100
AcDbPolyline
 90
        4
 70
     1
 43
0.0
 10
693.3116941236528
 20
664.2349655889939
 10
750.3116941236528
 20
664.2349655889939
 10
750.3116941236528
 20
686.2349655889938
 10
693.3116941236528
 20
686.2349655889938
  0
LWPOLYLINE
  5
36C7
102
{ACAD_REACTORS
330
433C
102
}
330
2
100
AcDbEntity
  8
AM_2
100
AcDbPolyline
 90
        9
 70
     0
 43
0.0
 10
785.8116941236528
 20
684.2349655889939
 10
880.8116941236528
 20
684.2349655889939
 10
880.8116941236528
 20
664.2349655889939
 10
973.3116941236529
 20
664.2349655889939
 10
973.3116941236529
 20
642.2349655889938
 10
693.3116941236528
 20
642.2349655889938
 10
693.3116941236528
 20
664.2349655889939
 10
785.8116941236528
 20
664.2349655889939
 10
785.8116941236528
 20
684.2349655889939
  0
LINE
  5
36CA
330
2
100
AcDbEntity
  8
AM_7
100
AcDbLine
 10
713.3116941236528
 20
706.2349655889939
 30
0.0
 11
713.3116941236528
 21
622.2349655889939
 31
0.0
  0
LINE
  5
36CB
330
2
100
AcDbEntity
  8
細線
100
AcDbLine
 10
703.3116941236523
 20
686.2349655889651
 30
0.0
 11
703.3116941236523
 21
664.2349655889652
 31
0.0
  0
LINE
  5
36CC
330
2
100
AcDbEntity
  8
AM_1
100
AcDbLine
 10
705.8116941236528
 20
664.2349655889939
 30
0.0
 11
705.8116941236528
 21
686.2349655889938
 31
0.0
  0
LINE
  5
36CD
330
2
100
AcDbEntity
  8
細線
100
AcDbLine
 10
723.3116941236524
 20
686.2349655889651
 30
0.0
 11
723.3116941236524
 21
664.2349655889652
 31
0.0
  0
LINE
  5
36CE
330
2
100
AcDbEntity
  8
AM_1
100
AcDbLine
 10
720.8116941236528
 20
664.2349655889939
 30
0.0
 11
720.8116941236528
 21
686.2349655889938
 31
0.0
  0
LINE
  5
36CF
330
2
100
AcDbEntity
  8
AM_1
100
AcDbLine
 10
724.8116941236528
 20
664.2349655889939
 30
0.0
 11
724.8116941236528
 21
642.2349655889938
 31
0.0
  0
ARC
  5
36D0
330
2
100
AcDbEntity
  8
AM_0
100
AcDbCircle
 10
725.0030370747424
 20
631.0318405889934
 30
0.0
 40
4.796874999999844
100
AcDbArc
 50
215.666189052153
 51
324.3338109478453
  0
LINE
  5
36D1
330
2
100
AcDbEntity
  8
AM_0
100
AcDbLine
 10
721.1059227577131
 20
626.2349655889939
 30
0.0
 11
721.1059227577131
 21
639.2349655889939
 31
0.0
  0
LINE
  5
36D2
330
2
100
AcDbEntity
  8
AM_0
100
AcDbLine
 10
728.9001513917725
 20
626.2349655889939
 30
0.0
 11
728.9001513917725
 21
639.2349655889939
 31
0.0
  0
LINE
  5
36D3
330
2
100
AcDbEntity
  8
AM_0
100
AcDbLine
 10
730.3116941236528
 20
642.2349655889938
 30
0.0
 11
730.3116941236528
 21
639.2349655889934
 31
0.0
  0
LINE
  5
36D4
330
2
100
AcDbEntity
  8
AM_0
100
AcDbLine
 10
723.361694123653
 20
642.2349655889938
 30
0.0
 11
723.361694123653
 21
639.2349655889939
 31
0.0
  0
LINE
  5
36D5
330
2
100
AcDbEntity
  8
AM_1
100
AcDbLine
 10
701.8116941236528
 20
664.2349655889939
 30
0.0
 11
701.8116941236528
 21
642.2349655889938
 31
0.0
  0
ARC
  5
36D6
330
2
100
AcDbEntity
  8
AM_0
100
AcDbCircle
 10
701.6203511725632
 20
631.0318405889934
 30
0.0
 40
4.796874999999844
100
AcDbArc
 50
215.6661890521542
 51
324.3338109478464
  0
LINE
  5
36D7
330
2
100
AcDbEntity
  8
AM_0
100
AcDbLine
 10
705.5174654895925
 20
626.2349655889939
 30
0.0
 11
705.5174654895925
 21
639.2349655889939
 31
0.0
  0
LINE
  5
36D8
330
2
100
AcDbEntity
  8
AM_0
100
AcDbLine
 10
697.7232368555331
 20
626.2349655889939
 30
0.0
 11
697.7232368555331
 21
639.2349655889939
 31
0.0
  0
LINE
  5
36D9
330
2
100
AcDbEntity
  8
AM_0
100
AcDbLine
 10
696.3116941236528
 20
642.2349655889943
 30
0.0
 11
696.3116941236528
 21
639.2349655889934
 31
0.0
  0
LINE
  5
36DA
330
2
100
AcDbEntity
  8
AM_0
100
AcDbLine
 10
703.2616941236526
 20
642.2349655889938
 30
0.0
 11
703.2616941236526
 21
639.2349655889939
 31
0.0
  0
ARC
  5
36DB
330
2
100
AcDbEntity
  8
AM_0
100
AcDbCircle
 10
713.3116941236528
 20
642.4224655889938
 30
0.0
 40
16.18750000000003
100
AcDbArc
 50
241.2167972061581
 51
298.7832027938416
  0
LINE
  5
36DC
330
2
100
AcDbEntity
  8
AM_0
100
AcDbLine
 10
697.7232368555331
 20
626.2349655889939
 30
0.0
 11
728.9001513917725
 21
626.2349655889939
 31
0.0
  0
LINE
  5
36DD
330
2
100
AcDbEntity
  8
AM_0
100
AcDbLine
 10
696.3116941236528
 20
639.2349655889939
 30
0.0
 11
730.3116941236528
 21
639.2349655889939
 31
0.0
  0
LINE
  5
36DE
330
2
100
AcDbEntity
  8
AM_0
100
AcDbLine
 10
730.3116941236528
 20
642.2349655889938
 30
0.0
 11
696.3116941236528
 21
642.2349655889943
 31
0.0
  0
LINE
  5
36E3
330
2
100
AcDbEntity
  8
AM_7
100
AcDbLine
 10
833.3116941236525
 20
1035.733203500539
 30
0.0
 11
833.3116941236541
 21
592.2349655889938
 31
0.0
  0
LWPOLYLINE
  5
36E5
330
2
100
AcDbEntity
  8
AM_2
100
AcDbPolyline
 90
        4
 70
     1
 43
0.0
 10
775.8116941236528
 20
664.2349655889939
 10
785.8116941236519
 20
664.2349655889939
 10
785.8116941236517
 20
914.5521452568655
 10
775.8116941236526
 20
914.5521452568655
  0
LWPOLYLINE
  5
36E6
330
2
100
AcDbEntity
  8
AM_2
100
AcDbPolyline
 90
        4
 70
     1
 43
0.0
 10
880.8116941236537
 20
664.2349655889939
 10
890.8116941236528
 20
664.2349655889939
 10
890.8116941236492
 20
914.5521452568655
 10
880.8116941236511
 20
914.5521452568655
  0
LINE
  5
36E9
330
2
100
AcDbEntity
  8
AM_0
100
AcDbLine
 10
936.3116941236528
 20
639.2349655889939
 30
0.0
 11
970.3116941236528
 21
639.2349655889939
 31
0.0
  0
LINE
  5
36EA
330
2
100
AcDbEntity
  8
AM_0
100
AcDbLine
 10
970.3116941236528
 20
642.2349655889938
 30
0.0
 11
936.3116941236528
 21
642.2349655889943
 31
0.0
  0
LINE
  5
36EB
330
2
100
AcDbEntity
  8
AM_0
100
AcDbLine
 10
937.7232368555331
 20
626.2349655889939
 30
0.0
 11
968.9001513917727
 21
626.2349655889939
 31
0.0
  0
ARC
  5
36EC
330
2
100
AcDbEntity
  8
AM_0
100
AcDbCircle
 10
941.6203511725631
 20
631.0318405889934
 30
0.0
 40
4.796874999999844
100
AcDbArc
 50
215.6661890521542
 51
324.3338109478464
  0
LWPOLYLINE
  5
36ED
330
2
100
AcDbEntity
  8
AM_2
100
AcDbPolyline
 90
        4
 70
     1
 43
0.0
 10
916.3116941236529
 20
664.2349655889939
 10
973.3116941236529
 20
664.2349655889939
 10
973.3116941236529
 20
686.2349655889938
 10
916.3116941236529
 20
686.2349655889938
  0
LWPOLYLINE
  5
36EE
102
{ACAD_REACTORS
330
4371
102
}
330
2
100
AcDbEntity
  8
AM_2_5
100
AcDbPolyline
 90
        4
 70
     0
 43
0.0
 10
904.9116941236533
 20
821.8295062156997
 10
904.9116941236531
 20
675.2349655889938
 10
915.9116941236531
 20
675.2349655889938
 10
915.9116941236534
 20
815.8527073682648
  0
LWPOLYLINE
  5
36EF
330
2
100
AcDbEntity
  8
AM_2_5
100
AcDbPolyline
 90
        4
 70
     0
 43
0.0
 10
750.711694123652
 20
922.8154582134575
 10
750.7116941236525
 20
675.2349655889938
 10
761.7116941236524
 20
675.2349655889938
 10
761.7116941236529
 20
914.4370515320279
  0
LWPOLYLINE
  5
36F0
330
2
100
AcDbEntity
  8
AM_2
100
AcDbPolyline
 90
        6
 70
     0
 43
0.0
 10
739.8116941236528
 20
664.2349655889939
 10
740.8116941236528
 20
665.2349655889934
 10
740.8116941236528
 20
667.2349655889938
 10
745.8116941236528
 20
667.2349655889938
 10
745.8116941236528
 20
665.2349655889943
 10
746.8116941236528
 20
664.2349655889939
  0
LINE
  5
36F2
102
{ACAD_REACTORS
330
433C
102
}
330
2
100
AcDbEntity
  8
AM_8
100
AcDbLine
 10
750.7116941236525
 20
664.2349655889939
 30
0.0
 11
761.7116941236524
 21
675.2349655889938
 31
0.0
  0
LINE
  5
36F3
102
{ACAD_REACTORS
330
433C
102
}
330
2
100
AcDbEntity
  8
AM_8
100
AcDbLine
 10
750.3116941236528
 20
675.2349655889938
 30
0.0
 11
761.7116941236524
 21
675.2349655889938
 31
0.0
  0
LINE
  5
36F4
330
2
100
AcDbEntity
  8
AM_0
100
AcDbLine
 10
936.3116941236528
 20
642.2349655889943
 30
0.0
 11
936.3116941236528
 21
639.2349655889934
 31
0.0
  0
LINE
  5
36F5
330
2
100
AcDbEntity
  8
AM_0
100
AcDbLine
 10
937.7232368555331
 20
626.2349655889939
 30
0.0
 11
937.7232368555331
 21
639.2349655889939
 31
0.0
  0
LWPOLYLINE
  5
36F6
330
2
100
AcDbEntity
  8
AM_2
100
AcDbPolyline
 90
        6
 70
     0
 43
0.0
 10
919.8116941236529
 20
664.2349655889939
 10
920.8116941236529
 20
665.2349655889934
 10
920.8116941236529
 20
667.2349655889938
 10
925.8116941236528
 20
667.2349655889938
 10
925.8116941236528
 20
665.2349655889943
 10
926.8116941236527
 20
664.2349655889939
  0
LINE
  5
36F8
330
2
100
AcDbEntity
  8
AM_8
100
AcDbLine
 10
904.9116941236531
 20
675.2349655889938
 30
0.0
 11
915.9116941236531
 21
664.2349655889939
 31
0.0
  0
LINE
  5
36F9
330
2
100
AcDbEntity
  8
AM_8
100
AcDbLine
 10
916.3116941236529
 20
675.2349655889938
 30
0.0
 11
904.9116941236531
 21
675.2349655889938
 31
0.0
  0
LINE
  5
36FD
330
2
100
AcDbEntity
  8
AM_2
100
AcDbLine
 10
750.3116941236528
 20
686.2349655889938
 30
0.0
 11
750.7116941236525
 21
686.2349655889938
 31
0.0
  0
LINE
  5
36FE
330
2
100
AcDbEntity
  8
AM_8
100
AcDbLine
 10
750.7116941236525
 20
695.7344605256053
 30
0.0
 11
741.2121991870415
 21
686.2349655889938
 31
0.0
  0
LINE
  5
3700
330
2
100
AcDbEntity
  8
AM_2_6
100
AcDbLine
 10
750.2116941236522
 20
923.201076719782
 30
0.0
 11
750.2116941236518
 21
913.1160198328148
 31
0.0
  0
LINE
  5
3704
330
2
100
AcDbEntity
  8
AM_2_6
100
AcDbLine
 10
916.4116941236533
 20
806.5164507032866
 30
0.0
 11
916.411694123653
 21
815.5845554817751
 31
0.0
  0
LINE
  5
3708
330
2
100
AcDbEntity
  8
AM_7
100
AcDbLine
 10
953.3116941236528
 20
706.2349655889939
 30
0.0
 11
953.3116941236528
 21
622.2349655889939
 31
0.0
  0
LINE
  5
3709
330
2
100
AcDbEntity
  8
AM_1
100
AcDbLine
 10
945.8116941236529
 20
664.2349655889939
 30
0.0
 11
945.8116941236529
 21
686.2349655889938
 31
0.0
  0
LINE
  5
370A
330
2
100
AcDbEntity
  8
細線
100
AcDbLine
 10
943.3116941236523
 20
686.2349655889651
 30
0.0
 11
943.3116941236523
 21
664.2349655889652
 31
0.0
  0
LINE
  5
370B
330
2
100
AcDbEntity
  8
細線
100
AcDbLine
 10
963.3116941236524
 20
686.2349655889651
 30
0.0
 11
963.3116941236524
 21
664.2349655889652
 31
0.0
  0
LINE
  5
370C
330
2
100
AcDbEntity
  8
AM_1
100
AcDbLine
 10
960.8116941236529
 20
664.2349655889939
 30
0.0
 11
960.8116941236529
 21
686.2349655889938
 31
0.0
  0
LINE
  5
370D
330
2
100
AcDbEntity
  8
AM_1
100
AcDbLine
 10
941.8116941236528
 20
664.2349655889939
 30
0.0
 11
941.8116941236528
 21
642.2349655889938
 31
0.0
  0
LINE
  5
370E
330
2
100
AcDbEntity
  8
AM_1
100
AcDbLine
 10
964.8116941236528
 20
664.2349655889939
 30
0.0
 11
964.8116941236528
 21
642.2349655889938
 31
0.0
  0
ARC
  5
370F
330
2
100
AcDbEntity
  8
AM_0
100
AcDbCircle
 10
965.0030370747424
 20
631.0318405889934
 30
0.0
 40
4.796874999999844
100
AcDbArc
 50
215.666189052153
 51
324.3338109478453
  0
LINE
  5
3710
330
2
100
AcDbEntity
  8
AM_0
100
AcDbLine
 10
963.361694123653
 20
642.2349655889938
 30
0.0
 11
963.361694123653
 21
639.2349655889939
 31
0.0
  0
LINE
  5
3711
330
2
100
AcDbEntity
  8
AM_0
100
AcDbLine
 10
943.2616941236526
 20
642.2349655889938
 30
0.0
 11
943.2616941236526
 21
639.2349655889939
 31
0.0
  0
LINE
  5
3712
330
2
100
AcDbEntity
  8
AM_0
100
AcDbLine
 10
945.5174654895925
 20
626.2349655889939
 30
0.0
 11
945.5174654895925
 21
639.2349655889939
 31
0.0
  0
LINE
  5
3713
330
2
100
AcDbEntity
  8
AM_0
100
AcDbLine
 10
961.1059227577131
 20
626.2349655889939
 30
0.0
 11
961.1059227577131
 21
639.2349655889939
 31
0.0
  0
ARC
  5
3714
330
2
100
AcDbEntity
  8
AM_0
100
AcDbCircle
 10
953.3116941236528
 20
642.4224655889938
 30
0.0
 40
16.18750000000003
100
AcDbArc
 50
241.2167972061581
 51
298.7832027938416
  0
LINE
  5
3715
330
2
100
AcDbEntity
  8
AM_0
100
AcDbLine
 10
970.3116941236528
 20
642.2349655889938
 30
0.0
 11
970.3116941236528
 21
639.2349655889934
 31
0.0
  0
LINE
  5
3716
330
2
100
AcDbEntity
  8
AM_0
100
AcDbLine
 10
968.9001513917727
 20
626.2349655889939
 30
0.0
 11
968.9001513917727
 21
639.2349655889939
 31
0.0
  0
ARC
  5
37C1
330
2
100
AcDbEntity
  8
AM_2_6
100
AcDbCircle
 10
1483.311694123682
 20
1873.234965588993
 30
0.0
 40
1200.0
100
AcDbArc
 50
231.2277560376742
 51
232.3743349935841
  0
ARC
  5
37C2
330
2
100
AcDbEntity
  8
AM_2_6
100
AcDbCircle
 10
1483.311694123682
 20
1873.234965588993
 30
0.0
 40
1208.0
100
AcDbArc
 50
231.2277560376742
 51
232.6662438044563
  0
LINE
  5
37C5
330
2
100
AcDbEntity
  8
AM_2_6
100
AcDbLine
 10
726.8304446973965
 20
931.4281280334112
 30
0.0
 11
731.8402542962462
 21
937.6652594079514
 31
0.0
  0
LINE
  5
37C6
330
2
100
AcDbEntity
  8
AM_2_6
100
AcDbLine
 10
950.9927233709676
 20
797.7645971562917
 30
0.0
 11
947.4439302326164
 21
790.5947947000738
 31
0.0
  0
LINE
  5
381D
330
2
100
AcDbEntity
  8
AM_7
100
AcDbLine
 10
2954.388057716236
 20
950.6279537275293
 30
0.0
 11
3012.5006404977
 21
1041.660517804735
 31
0.0
  0
LINE
  5
381E
330
2
100
AcDbEntity
  8
AM_7
100
AcDbLine
 10
2981.292031226169
 20
1052.276696312884
 30
0.0
 11
2981.292031226169
 21
448.0262475519548
 31
0.0
  0
ARC
  5
3826
330
2
100
AcDbEntity
  8
AM_2_6
100
AcDbCircle
 10
3631.292031226198
 20
2010.988746404466
 30
0.0
 40
1208.0
100
AcDbArc
 50
231.2277560376742
 51
243.6662529234359
  0
ARC
  5
3827
330
2
100
AcDbEntity
  8
AM_2_6
100
AcDbCircle
 10
3631.292031226198
 20
2010.988746404466
 30
0.0
 40
1200.0
100
AcDbArc
 50
231.2277560376742
 51
243.6662529234359
  0
LINE
  5
3829
330
2
100
AcDbEntity
  8
AM_2_6
100
AcDbLine
 10
3098.973060473484
 20
935.5183779717647
 30
0.0
 11
3095.424267335133
 21
928.3485755155467
 31
0.0
  0
LINE
  5
382A
330
2
100
AcDbEntity
  8
AM_2_6
100
AcDbLine
 10
3064.39203122617
 20
944.2702315187593
 30
0.0
 11
3064.392031226169
 21
953.3383362972481
 31
0.0
  0
LINE
  5
382B
330
2
100
AcDbEntity
  8
AM_2_6
100
AcDbLine
 10
2874.810781799913
 20
1069.181908848884
 30
0.0
 11
2879.820591398762
 21
1075.419040223424
 31
0.0
  0
ARC
  5
3868
330
2
100
AcDbEntity
  8
AM_2_5
100
AcDbCircle
 10
1483.311694123682
 20
1873.234965588993
 30
0.0
 40
1200.0
100
AcDbArc
 50
241.1838931671599
 51
241.7816279255674
  0
ARC
  5
3869
102
{ACAD_REACTORS
330
4371
102
}
330
2
100
AcDbEntity
  8
AM_2_6
100
AcDbCircle
 10
1483.311694123682
 20
1873.234965588993
 30
0.0
 40
1208.0
100
AcDbArc
 50
241.9850464089886
 51
243.6662529234359
  0
ARC
  5
386A
330
2
100
AcDbEntity
  8
AM_2_5
100
AcDbCircle
 10
1483.311694123682
 20
1873.234965588993
 30
0.0
 40
1200.0
100
AcDbArc
 50
232.3743349935841
 51
233.0345495861403
  0
ARC
  5
386B
330
2
100
AcDbEntity
  8
AM_2_6
100
AcDbCircle
 10
1483.311694123682
 20
1873.234965588993
 30
0.0
 40
1200.0
100
AcDbArc
 50
241.7816279255674
 51
243.6662529234359
  0
LINE
  5
386D
330
2
100
AcDbEntity
  8
AM_2_6
100
AcDbLine
 10
2898.192031226169
 20
1060.954857535255
 30
0.0
 11
2898.192031226168
 21
1050.869800648287
 31
0.0
  0
DIMENSION
  5
386E
330
2
100
AcDbEntity
  8
AM_5
100
AcDbDimension
  2
*D3
 10
3064.39203122617
 20
884.5455890951338
 30
0.0
 11
2981.292031226169
 21
893.5811220900577
 31
0.0
 70
    32
  1
166.2 diam.
 71
     5
 42
166.2000000000007
  3
スタイル2
100
AcDbAlignedDimension
 13
2898.192031226169
 23
1050.869800648287
 33
0.0
 14
3064.39203122617
 24
944.2702315187593
 34
0.0
100
AcDbRotatedDimension
  0
DIMENSION
  5
387B
330
2
100
AcDbEntity
  8
AM_5
100
AcDbDimension
  2
*D4
 10
3176.940545301954
 20
1057.653373851688
 30
0.0
 11
3072.226145571465
 21
1135.219702536147
 31
0.0
 70
    33
  1
260 diam.
 71
     5
 42
259.9999999999995
  3
スタイル2
100
AcDbAlignedDimension
 13
2879.820591398763
 23
1075.419040223424
 33
0.0
 14
3098.973060473484
 24
935.5183779717647
 34
0.0
  0
DIMENSION
  5
3892
330
2
100
AcDbEntity
  8
AM_5
100
AcDbDimension
  2
*D5
 10
3154.473299857488
 20
899.1214381263024
 30
0.0
 11
3134.749846918325
 21
879.5617572369978
 31
0.0
 70
    33
  1
t<>
 71
     5
 42
8.0
  3
スタイル2
100
AcDbAlignedDimension
 13
3098.973060473484
 23
935.5183779717645
 33
0.0
 14
3095.424267335133
 24
928.3485755155465
 34
0.0
  0
LWPOLYLINE
  5
38C9
330
2
100
AcDbEntity
  8
AM_2_5
100
AcDbPolyline
 90
        4
 70
     0
 43
0.0
 10
2460.539478683092
 20
1041.874578035962
 10
2460.539478683092
 20
794.2940854114985
 10
2471.539478683092
 20
794.2940854114985
 10
2471.539478683093
 20
1033.496171354532
  0
LWPOLYLINE
  5
38CA
330
2
100
AcDbEntity
  8
AM_2_5
100
AcDbPolyline
 90
        4
 70
     0
 43
0.0
 10
2614.739478683093
 20
940.8886260382043
 10
2614.739478683093
 20
794.2940854114985
 10
2625.739478683092
 20
794.2940854114985
 10
2625.739478683092
 20
934.9118271907697
  0
LINE
  5
38CC
330
2
100
AcDbEntity
  8
AM_7
100
AcDbLine
 10
2520.54014093475
 20
938.6764456291722
 30
0.0
 11
2574.348087954618
 21
1022.965856811758
 31
0.0
  0
ARC
  5
38D3
330
2
100
AcDbEntity
  8
AM_2_5
100
AcDbCircle
 10
3193.139478683093
 20
1992.294085411504
 30
0.0
 40
1200.0
100
AcDbArc
 50
232.3743349935858
 51
241.781627925569
  0
LINE
  5
38D4
330
2
100
AcDbEntity
  8
AM_7
100
AcDbLine
 10
2547.444114444683
 20
1030.821151220465
 30
0.0
 11
2547.444114444683
 21
467.6028612166192
 31
0.0
  0
DIMENSION
  5
38D5
330
2
100
AcDbEntity
  8
AM_5
100
AcDbDimension
  2
*D6
 10
2625.739478683093
 20
1115.31701788685
 30
0.0
 11
2543.139478683092
 21
1124.352550881774
 31
0.0
 70
    32
  1
165.2 diam.
 71
     5
 42
165.2000000000016
  3
スタイル2
100
AcDbAlignedDimension
 13
2460.539478683092
 23
1041.874578035946
 33
0.0
 14
2625.739478683093
 24
934.9118271907597
 34
0.0
100
AcDbRotatedDimension
  0
MTEXT
  5
38F9
330
2
100
AcDbEntity
  8
AM_5
100
AcDbMText
 10
1706.081689207055
 20
1876.933078175448
 30
0.0
 40
31.5
 41
0.0
 71
     5
 72
     5
  1
c
  7
スタイル１
 73
     1
 44
1.0
  0
MTEXT
  5
38FA
330
2
100
AcDbEntity
  8
AM_5
100
AcDbMText
 10
1712.588630760271
 20
1872.706001341166
 30
0.0
 40
31.5
 41
0.0
 71
     5
 72
     5
  1
L
  7
スタイル１
 73
     1
 44
1.0
  0
LINE
  5
3905
330
2
100
AcDbEntity
  8
AM_7
100
AcDbLine
 10
804.2938369807957
 20
920.4313396087385
 30
0.0
 11
1483.311694123653
 21
1873.234965588993
 31
0.0
  0
LINE
  5
3934
330
2
100
AcDbEntity
  8
AM_7
100
AcDbLine
 10
2518.426257301806
 20
1881.954784406252
 30
0.0
 11
2576.46197158756
 21
1963.390991755046
 31
0.0
  0
LINE
  5
3936
330
2
100
AcDbEntity
  8
0
100
AcDbLine
 10
3003.055101064656
 20
2834.758410386507
 30
0.0
 11
3103.055101064656
 21
2834.758410386507
 31
0.0
  0
LINE
  5
3937
330
2
100
AcDbEntity
  8
0
100
AcDbLine
 10
3053.055101064655
 20
2784.758410386507
 30
0.0
 11
3053.055101064655
 21
2884.758410386507
 31
0.0
  0
MTEXT
  5
3945
330
2
100
AcDbEntity
  8
0
100
AcDbMText
 10
3137.871017443078
 20
2856.931841382333
 30
0.0
 40
22.5
 41
0.0
 71
     5
 72
     5
  1
2 内槽台座   
  7
スタイル１
 73
     1
 44
1.0
  0
CIRCLE
  5
3946
330
2
100
AcDbEntity
  8
0
100
AcDbCircle
 10
3072.801006095176
 20
2855.583833199942
 30
0.0
 40
17.5
  0
LINE
  5
394A
330
2
100
AcDbEntity
  8
AM_6
100
AcDbLine
 10
2870.717262536796
 20
1419.844383689475
 30
0.0
 11
3091.866799915542
 21
1419.844383689475
 31
0.0
  0
MTEXT
  5
394B
330
2
100
AcDbEntity
  8
AM_6
100
AcDbMText
 10
2985.263677428426
 20
1442.0178146853
 30
0.0
 40
22.5
 41
0.0
 71
     5
 72
     5
  1
3 Guide Pipe
  7
スタイル１
 73
     1
 44
1.0
  0
CIRCLE
  5
394C
330
2
100
AcDbEntity
  8
AM_6
100
AcDbCircle
 10
2906.182096189008
 20
1439.93763089689
 30
0.0
 40
17.5
  0
CIRCLE
  5
394D
330
2
100
AcDbEntity
  8
AM_6
100
AcDbCircle
 10
2418.857737715563
 20
1440.669806502909
 30
0.0
 40
17.5
  0
LINE
  5
394E
330
2
100
AcDbEntity
  8
AM_6
100
AcDbLine
 10
2401.247302173052
 20
1419.844383689475
 30
0.0
 11
2697.342130632192
 21
1419.844383689475
 31
0.0
  0
MTEXT
  5
394F
330
2
100
AcDbEntity
  8
AM_6
100
AcDbMText
 10
2553.456090115452
 20
1442.0178146853
 30
0.0
 40
22.5
 41
0.0
 71
     5
 72
     5
  1
2 Inner Vessel Base   
  7
スタイル１
 73
     1
 44
1.0
  0
LINE
  5
3950
330
2
100
AcDbEntity
  8
AM_6
100
AcDbLine
 10
2498.137941925506
 20
408.3336670425741
 30
0.0
 11
2598.82932316243
 21
408.3336670425741
 31
0.0
  0
MTEXT
  5
3951
330
2
100
AcDbEntity
  8
AM_6
100
AcDbMText
 10
2553.456090115452
 20
432.1450314371666
 30
0.0
 40
22.5
 41
0.0
 71
     5
 72
     5
  1
5 Pipe   
  7
スタイル１
 73
     1
 44
1.0
  0
CIRCLE
  5
3952
330
2
100
AcDbEntity
  8
AM_6
100
AcDbCircle
 10
2517.320183130237
 20
430.7970232547758
 30
0.0
 40
17.5
  0
CIRCLE
  5
3953
330
2
100
AcDbEntity
  8
AM_6
100
AcDbCircle
 10
2883.342410825475
 20
430.7970232547758
 30
0.0
 40
17.5
  0
LINE
  5
3954
330
2
100
AcDbEntity
  8
AM_6
100
AcDbLine
 10
2868.869009795455
 20
408.3336670425742
 30
0.0
 11
3100.254319219457
 21
408.3336670425742
 31
0.0
  0
MTEXT
  5
3955
330
2
100
AcDbEntity
  8
AM_6
100
AcDbMText
 10
2987.304006896938
 20
432.1450314371668
 30
0.0
 40
22.5
 41
0.0
 71
     5
 72
     5
  1
6 Support Plate   
  7
スタイル１
 73
     1
 44
1.0
  0
LINE
  5
395D
330
2
100
AcDbEntity
  8
ノゾキ窓
100
AcDbLine
 10
1391.311694123564
 20
1101.000831859326
 30
0.0
 11
1383.311694123564
 21
1101.000831859326
 31
0.0
  0
LINE
  5
395E
330
2
100
AcDbEntity
  8
ノゾキ窓
  6
AM_ISO08W050
 48
0.2
100
AcDbLine
 10
1419.311694123565
 20
1111.000831859325
 30
0.0
 11
1368.311694123565
 21
1111.000831859327
 31
0.0
  0
LINE
  5
395F
330
2
100
AcDbEntity
  8
ノゾキ窓
100
AcDbLine
 10
1383.311694123567
 20
1191.000831859326
 30
0.0
 11
1391.311694123567
 21
1191.000831859326
 31
0.0
  0
LINE
  5
3960
330
2
100
AcDbEntity
  8
ノゾキ窓
100
AcDbLine
 10
1396.311694123567
 20
1174.000831859326
 30
0.0
 11
1391.311694123567
 21
1174.000831859326
 31
0.0
  0
LINE
  5
3961
330
2
100
AcDbEntity
  8
ノゾキ窓
100
AcDbLine
 10
1396.311694123564
 20
1118.000831859326
 30
0.0
 11
1391.311694123564
 21
1118.000831859326
 31
0.0
  0
LINE
  5
3962
330
2
100
AcDbEntity
  8
ノゾキ窓
  6
AM_ISO02W050
 48
0.2
100
AcDbLine
 10
1383.311694123565
 20
1129.000831859326
 30
0.0
 11
1363.311694123565
 21
1129.000831859327
 31
0.0
  0
LINE
  5
3963
330
2
100
AcDbEntity
  8
ノゾキ窓
  6
AM_ISO02W050
 48
0.2
100
AcDbLine
 10
1383.311694123567
 20
1163.000831859326
 30
0.0
 11
1363.311694123566
 21
1163.000831859327
 31
0.0
  0
LINE
  5
3964
330
2
100
AcDbEntity
  8
ノゾキ窓
  6
AM_ISO08W050
 48
0.2
100
AcDbLine
 10
1419.311694123567
 20
1181.000831859325
 30
0.0
 11
1368.311694123567
 21
1181.000831859327
 31
0.0
  0
LINE
  5
3965
330
2
100
AcDbEntity
  8
ノゾキ窓
  6
AM_ISO08W050
 48
0.2
100
AcDbLine
 10
1429.311694123565
 20
1146.000831859325
 30
0.0
 11
1341.521357787349
 21
1146.000831859327
 31
0.0
  0
LINE
  5
3966
330
2
100
AcDbEntity
  8
ノゾキ窓
100
AcDbLine
 10
1383.311694123564
 20
1101.000831859326
 30
0.0
 11
1383.311694123567
 21
1191.000831859326
 31
0.0
  0
LINE
  5
3967
330
2
100
AcDbEntity
  8
ノゾキ窓
100
AcDbLine
 10
1391.311694123564
 20
1101.000831859326
 30
0.0
 11
1391.311694123567
 21
1191.000831859326
 31
0.0
  0
LWPOLYLINE
  5
3968
330
2
100
AcDbEntity
  8
ノゾキ窓
100
AcDbPolyline
 90
        4
 70
     1
 43
0.0
 10
1396.311694123564
 20
1101.000831859325
 10
1396.311694123567
 20
1191.000831859325
 10
1404.311694123567
 20
1191.000831859325
 10
1404.311694123564
 20
1101.000831859325
  0
LINE
  5
396A
330
2
100
AcDbEntity
  8
細線
100
AcDbLine
 10
1383.311694123538
 20
1201.485489576301
 30
0.0
 11
1383.311694123792
 21
1036.485489576582
 31
0.0
  0
LINE
  5
396B
330
2
100
AcDbEntity
  8
細線
100
AcDbLine
 10
1383.311694123555
 20
1281.485489576301
 30
0.0
 11
1383.311694123756
 21
1251.485489576092
 31
0.0
  0
LINE
  5
3989
330
2
100
AcDbEntity
  8
細線
100
AcDbLine
 10
1363.311694123742
 20
1336.485489576124
 30
0.0
 11
1363.311694123594
 21
1316.00969695881
 31
0.0
  0
LINE
  5
398A
330
2
100
AcDbEntity
  8
外槽板
100
AcDbLine
 10
1205.924461595759
 20
1397.728316602346
 30
0.0
 11
1206.176402769717
 21
1398.160202750381
 31
0.0
  0
LINE
  5
399A
330
2
100
AcDbEntity
  8
AM_7
100
AcDbLine
 10
3148.973060473485
 20
604.5074969782108
 30
0.0
 11
2824.810781799913
 21
604.5074969782108
 31
0.0
  0
ARC
  5
399B
330
2
100
AcDbEntity
  8
細線
100
AcDbCircle
 10
2981.292031226169
 20
604.5074969782108
 30
0.0
 40
106.481249426256
100
AcDbArc
 50
90.0
 51
270.0
  0
ARC
  5
399F
330
2
100
AcDbEntity
  8
細線
100
AcDbCircle
 10
2988.686571530471
 20
604.5074969782107
 30
0.0
 40
106.7376958046617
100
AcDbArc
 50
266.0274991893273
 51
93.97250081067266
  0
ARC
  5
39A1
330
2
100
AcDbEntity
  8
細線
100
AcDbCircle
 10
2991.958865895226
 20
604.5074969782107
 30
0.0
 40
107.0141945782593
100
AcDbArc
 50
264.2794393222541
 51
95.7205606777458
  0
ARC
  5
39A5
330
2
100
AcDbEntity
  8
外槽板
100
AcDbCircle
 10
1483.311694123653
 20
1873.234965588999
 30
0.0
 40
1192.0
100
AcDbArc
 50
240.9721364817578
 51
264.4636919947789
  0
ARC
  5
39A6
330
2
100
AcDbEntity
  8
外槽板
100
AcDbCircle
 10
1483.311694123653
 20
1873.234965588999
 30
0.0
 40
1200.0
100
AcDbArc
 50
241.1838931671615
 51
264.5007148576291
  0
LINE
  5
39A7
330
2
100
AcDbEntity
  8
外槽板
100
AcDbLine
 10
761.7116941236531
 20
924.4686930012772
 30
0.0
 11
761.7116941236522
 21
914.437051532044
 31
0.0
  0
LINE
  5
39A8
330
2
100
AcDbEntity
  8
外槽板
100
AcDbLine
 10
904.9116941236533
 20
830.9694332029378
 30
0.0
 11
904.9116941236533
 21
821.8295062156895
 31
0.0
  0
ARC
  5
39AC
330
2
100
AcDbEntity
  8
AM_3
100
AcDbCircle
 10
2986.425512038611
 20
604.5074969782104
 30
0.0
 40
106.6049206398481
100
AcDbArc
 50
92.7601031319048
 51
267.2398968680934
  0
CIRCLE
  5
39AD
330
2
100
AcDbEntity
  8
AM_2_6
100
AcDbCircle
 10
2981.292031226169
 20
604.5074969782108
 30
0.0
 40
83.1
  0
REGION
  5
39B4
330
2
100
AcDbEntity
  8
AM_2_2
100
AcDbModelerGeometry
 70
     1
  1
koo in n o          
  1
h J1410(1 nl ^ \VL kqoqm QK mk R01 R>- nh ngekienk mool 
  1
rn fqfffffffffffffffj:rooh n:rono 
  1
=0;& {rn {n {rn {rn |
  1
3*2/ {rn {rn {m {o |
  1
,7:33 {rn {rn {rn {l {rn {n |
  1
9><: {rn {rn {k {m {rn {j -:):-,:; ;0*=3: 0*+ |
  1
300/ {rn {rn {i {l |
  1
/3>1:r,*-9><: {rn gmfqlkgjoljihnffhn fkoqomoflnnojhgjnh o o o rn rn o o 90-(>-;@) V V V V |
  1
<0:;8: {rn {h {g {rn {f 90-(>-; {k {rn |
  1
<0:;8: {rn {no {i {rn {nn 90-(>-; {k {rn |
  1
<0:;8: {rn {i {nm {rn {nl 90-(>-; {k {rn |
  1
:;8: {rn {nk {nj {i {ni 90-(>-; |
  1
<0:;8: {rn {nh {h {rn {ng 90-(>-; {k {rn |
  1
:;8: {rn {nj {nf {h {mo 90-(>-; |
  1
<0:;8: {rn {g {mn {rn {mm -:):-,:; {k {rn |
  1
:;8: {rn {ml {nk {g {mk 90-(>-; |
  1
):-+:' {rn {f {mj |
  1
):-+:' {rn {f {mi |
  1
,+->687+r<*-): {rn hhjqgnnifknmlijlik ffjqfgmoogfnnnglnl o rnqnnifojjfllonjgjk:ronk rn o V V |
  1
<0:;8: {rn {mh {no {rn {mg 90-(>-; {k {rn |
  1
:;8: {rn {nf {mf {no {lo 90-(>-; |
  1
):-+:' {rn {nn {ln |
  1
,+->687+r<*-): {rn hhjqgnnifknmlijmhl fnkqjjmnkjmjigijjn o n o o V V |
  1
<0:;8: {rn {nm {lm {rn {ll -:):-,:; {k {rn |
  1
:;8: {rn {ml {lk {nm {lj 90-(>-; |
  1
):-+:' {rn {mm {li |
  1
:336/,:r<*-): {rn nkglqlnnifknmlignf nghlqmlkfijjggffli o o o n nnmh o o n V V |
  1
/061+ {rn hhjqgnnifknmlijlik ffjqfgmoogfnnnglnl o |
  1
/061+ {rn hhjqgnnifknmlijmhl fnkqjjmnkjmjigijjn o |
  1
<0:;8: {rn {lh {nh {rn {lg 90-(>-; {k {rn |
  1
:;8: {rn {mf {lf {nh {ko 90-(>-; |
  1
):-+:' {rn {ng {kn |
  1
,+->687+r<*-): {rn hgjqgnnifknmlijnhn fnkqjjmnkjmjigijjn o lqlnjgiinoomnlgonn:ronk rn o V V |
  1
/061+ {rn hgjqgnnifknmlijnhn fnkqjjmnkjmjigijjn o |
  1
<0:;8: {rn {mn {km {rn {kl 90-(>-; {k {rn |
  1
:;8: {rn {lk {kk {mn {kj 90-(>-; |
  1
):-+:' {rn {ll {ki |
  1
,+->687+r<*-): {rn hkiqoghlfmgfiljmik nomoqgofkogfofhhkf o oqijknkhjiofgmljflg oqhjiliifjljhjlllml o V V |
  1
/061+ {rn hkiqoghlfmgfiljmik nomoqgofkogfofhhkf o |
  1
<0:;8: {rn {km {mh {rn {kh 90-(>-; {k {rn |
  1
:;8: {rn {lf {kg {mh {kf 90-(>-; |
  1
):-+:' {rn {mg {jo |
  1
,+->687+r<*-): {rn hgjqgnnifknmlijmlf gfoqjjmnkjmjigijjn o n o o V V |
  1
/061+ {rn hgjqgnnifknmlijmlf gfoqjjmnkjmjigijjn o |
  1
<0:;8: {rn {lm {lh {rn {jn 90-(>-; {k {rn |
  1
:;8: {rn {jm {kk {lm {jl 90-(>-; |
  1
):-+:' {rn {kl {jk |
  1
:336/,:r<*-): {rn nkglqlnnifknmlijll nghlqmlkfijjgfolkg o o o n nnmo o o n V V |
  1
/061+ {rn hjoqiiikmjgmlmlhlm nomiqnolfhhjgkgnnh o |
  1
:;8: {rn {kg {jj {lh {ji 90-(>-; |
  1
):-+:' {rn {lg {jh |
  1
,+->687+r<*-): {rn ggoqgnnifknmlijfof gfoqjjmnkjmjigijjn o rlqlilmljinjflnnkn:ronl n o V V |
  1
/061+ {rn ggoqgnnifknmlijfof gfoqjjmnkjmjigijjn o |
  1
:;8: {rn {jj {jm {km {jg 90-(>-; |
  1
):-+:' {rn {jn {jf |
  1
,+->687+r<*-): {rn fngqnhmmhgjjonjhkk gfgqnhmifonjfhiff o oqjonkjkihmmolhmhgi oqgijnglfnhgiogjnol o V V |
  1
/061+ {rn fmnqigmkinmjjjflif fokqmmgfhhjgkgnllg o |
  1
):-+:' {rn {kh {io |
  1
,+->687+r<*-): {rn ggoqgnnifknmlijnom fnkqjjmnkjmjigijjn o n o o V V |
  1
/061+ {rn ggoqgnnifknmlijnom fnkqjjmnkjmjigijjn o |
  1
:336/,:r<*-): {rn nkglqlnnifknmlignf nghlqmlkfijjggffli o o o n nnmh o o n V V |
  1
/061+ {rn fngqnhmmhgjjonjhkk gfgqnhmifonjfhiff o |
  1
/061+ {rn gfoqgnnifknmlijofn fnkqjjmnkjmjigijjn o |
  0
REGION
  5
39B5
330
2
100
AcDbEntity
  8
AM_2_2
100
AcDbModelerGeometry
 70
     1
  1
koo in n o          
  1
h J1410(1 nl ^ \VL kqoqm QK mk R01 R>- nh ngekienj mool 
  1
rn fqfffffffffffffffj:rooh n:rono 
  1
=0;& {rn {n {rn {rn |
  1
3*2/ {rn {rn {m {o |
  1
,7:33 {rn {rn {rn {l {rn {n |
  1
9><: {rn {rn {k {m {rn {j -:):-,:; ;0*=3: 0*+ |
  1
300/ {rn {rn {i {l |
  1
/3>1:r,*-9><: {rn mjklqkgofmlgggmmff nfonqjkklhjfollmij o o o rn rn o o 90-(>-;@) V V V V |
  1
<0:;8: {rn {h {g {rn {f 90-(>-; {k {rn |
  1
<0:;8: {rn {no {i {rn {nn 90-(>-; {k {rn |
  1
<0:;8: {rn {i {nm {rn {nl 90-(>-; {k {rn |
  1
:;8: {rn {nk {nj {i {ni 90-(>-; |
  1
<0:;8: {rn {nh {h {rn {ng 90-(>-; {k {rn |
  1
:;8: {rn {nj {nf {h {mo 90-(>-; |
  1
<0:;8: {rn {g {mn {rn {mm -:):-,:; {k {rn |
  1
:;8: {rn {ml {nk {g {mk 90-(>-; |
  1
):-+:' {rn {f {mj |
  1
):-+:' {rn {f {mi |
  1
,+->687+r<*-): {rn mkgfqfkknnkkkkigkn nfjhqjojkjlhoghmkk o rnqnnifojjfllonjgjk:ronk rn o V V |
  1
<0:;8: {rn {mh {no {rn {mg 90-(>-; {k {rn |
  1
:;8: {rn {nf {mf {no {lo 90-(>-; |
  1
):-+:' {rn {nn {ln |
  1
,+->687+r<*-): {rn mkgfqfkknnkkkkiglm nghiqohjjfoojkkoig o n o o V V |
  1
<0:;8: {rn {nm {lm {rn {ll -:):-,:; {k {rn |
  1
:;8: {rn {ml {lk {nm {lj 90-(>-; |
  1
):-+:' {rn {mm {li |
  1
:336/,:r<*-): {rn lnfhqkkknnkkkkhnml mglkqhjgknolgijlkh o o o n nnmh o o n V V |
  1
/061+ {rn mkgfqfkknnkkkkigkn nfjhqjojkjlhoghmkk o |
  1
/061+ {rn mkgfqfkknnkkkkiglm nghiqohjjfoojkkoig o |
  1
<0:;8: {rn {lh {nh {rn {lg 90-(>-; {k {rn |
  1
:;8: {rn {mf {lf {nh {ko 90-(>-; |
  1
):-+:' {rn {ng {kn |
  1
,+->687+r<*-): {rn mkffqfkknnkkkkignf nghiqohjjfoojkkoig o lqlnjgiinoomnlgonn:ronk rn o V V |
  1
/061+ {rn mkffqfkknnkkkkignf nghiqohjjfoojkkoig o |
  1
<0:;8: {rn {mn {km {rn {kl 90-(>-; {k {rn |
  1
:;8: {rn {lk {kk {mn {kj 90-(>-; |
  1
):-+:' {rn {ll {ki |
  1
,+->687+r<*-): {rn mkioqmnfgnlmnhlgl nfgmqllmgjlhohlnim o oqijknkhjiofgmljflg oqhjiliifjljhjlllml o V V |
  1
/061+ {rn mkioqmnfgnlmnhlgl nfgmqllmgjlhohlnim o |
  1
<0:;8: {rn {km {mh {rn {kh 90-(>-; {k {rn |
  1
:;8: {rn {lf {kg {mh {kf 90-(>-; |
  1
):-+:' {rn {mg {jo |
  1
,+->687+r<*-): {rn mkffqfkknnkkkkigmg ngjmqohjjfoojkkoig o n o o V V |
  1
/061+ {rn mkffqfkknnkkkkigmg ngjmqohjjfoojkkoig o |
  1
<0:;8: {rn {lm {lh {rn {jn 90-(>-; {k {rn |
  1
:;8: {rn {jm {kk {lm {jl 90-(>-; |
  1
):-+:' {rn {kl {jk |
  1
:336/,:r<*-): {rn lnfhqkkknnkkkkiglh mglkqhjgknolgijhin o o o n nnmo o o n V V |
  1
/061+ {rn mkikqhfggkinkkmihg nfghqimhkmmlgmljl o |
  1
:;8: {rn {kg {jj {lh {ji 90-(>-; |
  1
):-+:' {rn {lg {jh |
  1
,+->687+r<*-): {rn mjfkqfkknnkkkkigfi ngjmqohjjfoojkkoig o rlqlilmljinjflnnkn:ronl n o V V |
  1
/061+ {rn mjfkqfkknnkkkkigfi ngjmqohjjfoojkkoig o |
  1
:;8: {rn {jj {jm {km {jg 90-(>-; |
  1
):-+:' {rn {jn {jf |
  1
,+->687+r<*-): {rn milmqlokifgghnnghi ngjfqifinlkfjhlnnm o oqjonkjkihmmolhmhgi oqgijnglfnhgiogjnol o V V |
  1
/061+ {rn miljqgnkggnjhiimk ngijqhjmkmmlgmljkg o |
  1
):-+:' {rn {kh {io |
  1
,+->687+r<*-): {rn mjfkqfkknnkkkkignk nghiqohjjfoojkkoig o n o o V V |
  1
/061+ {rn mjfkqfkknnkkkkignk nghiqohjjfoojkkoig o |
  1
:336/,:r<*-): {rn lnfhqkkknnkkkkhnml mglkqhjgknolgijlkh o o o n nnmh o o n V V |
  1
/061+ {rn milmqlokifgghnnghi ngjfqifinlkfjhlnnm o |
  1
/061+ {rn miokqfkknnkkkkignk nghiqohjjfoojkkoig o |
  0
LINE
  5
39B6
330
2
100
AcDbEntity
  8
AM_7
100
AcDbLine
 10
2547.444114444683
 20
2022.67288808069
 30
0.0
 11
2547.444114444684
 21
1483.534109159234
 31
0.0
  0
LWPOLYLINE
  5
39B9
330
2
100
AcDbEntity
  8
AM_2
100
AcDbPolyline
 90
        4
 70
     1
 43
0.0
 10
2923.792031226169
 20
1522.770939765648
 10
2933.792031226168
 20
1522.770939765648
 10
2933.792031226168
 20
1773.08811943352
 10
2923.792031226168
 20
1773.08811943352
  0
LWPOLYLINE
  5
39BA
330
2
100
AcDbEntity
  8
AM_2
100
AcDbPolyline
 90
        4
 70
     1
 43
0.0
 10
3028.79203122617
 20
1522.770939765648
 10
3038.792031226169
 20
1522.770939765648
 10
3038.792031226166
 20
1773.08811943352
 10
3028.792031226167
 20
1773.08811943352
  0
LINE
  5
39BB
330
2
100
AcDbEntity
  8
AM_7
100
AcDbLine
 10
2981.292031226169
 20
1823.08811943352
 30
0.0
 11
2981.29203122617
 21
1472.770939765648
 31
0.0
  0
CIRCLE
  5
39BC
330
2
100
AcDbEntity
  8
AM_2
100
AcDbCircle
 10
1961.208058167172
 20
1921.849389717951
 30
0.0
 40
48.30701967161117
  0
LINE
  5
39BD
330
2
100
AcDbEntity
  8
AM_7
100
AcDbLine
 10
1961.208058167172
 20
2077.672888080676
 30
0.0
 11
1961.208058167172
 21
1630.033497322392
 31
0.0
  0
CIRCLE
  5
39BE
330
2
100
AcDbEntity
  8
AM_7
100
AcDbCircle
 10
1961.208058167172
 20
1922.672888080676
 30
0.0
 40
120.0
  0
CIRCLE
  5
39BF
330
2
100
AcDbEntity
  8
AM_2
100
AcDbCircle
 10
1961.208058167172
 20
1922.672888080676
 30
0.0
 40
140.0
  0
DIMENSION
  5
39C0
330
2
100
AcDbEntity
  8
AM_5
100
AcDbDimension
  2
*D11
 10
2185.152192145184
 20
1596.033497322392
 30
0.0
 11
2174.984914305276
 21
1612.807688917925
 31
0.0
 70
   160
 71
     5
 42
20.0
  3
スタイル2
100
AcDbAlignedDimension
 13
2101.208058167172
 23
1576.033497322392
 33
0.0
 14
2008.708058167172
 24
1596.033497322392
 34
0.0
 50
90.0
100
AcDbRotatedDimension
1001
ACAD
1000
DSTYLE
1002
{
1070
   173
1070
     1
1070
   279
1070
     2
1070
   289
1070
     1
1070
   342
1005
0
1070
   343
1005
1EE
1070
   344
1005
2C
1002
}
  0
LWPOLYLINE
  5
39C2
330
2
100
AcDbEntity
  8
AM_2
100
AcDbPolyline
 90
        9
 70
     0
 43
0.0
 10
1913.708058167172
 20
1596.033497322392
 10
2008.708058167172
 20
1596.033497322392
 10
2008.708058167172
 20
1576.033497322392
 10
2101.208058167172
 20
1576.033497322392
 10
2101.208058167172
 20
1554.033497322392
 10
1821.208058167172
 20
1554.033497322392
 10
1821.208058167172
 20
1576.033497322392
 10
1913.708058167172
 20
1576.033497322392
 10
1913.708058167172
 20
1596.033497322392
  0
LINE
  5
39C3
330
2
100
AcDbEntity
  8
AM_6
100
AcDbLine
 10
1842.323625321696
 20
1419.844383689475
 30
0.0
 11
2074.883946759968
 21
1419.844383689475
 31
0.0
  0
MTEXT
  5
39C4
330
2
100
AcDbEntity
  8
AM_6
100
AcDbMText
 10
1964.311451626154
 20
1442.0178146853
 30
0.0
 40
22.5
 41
0.0
 71
     5
 72
     5
  1
1 Blank Flange
  7
スタイル１
 73
     1
 44
1.0
  0
DIMENSION
  5
39C5
330
2
100
AcDbEntity
  8
AM_5
100
AcDbDimension
  2
*D8
 10
2101.208058167172
 20
1750.057579903709
 30
0.0
 11
1961.208058167172
 21
1759.093112898633
 31
0.0
 70
    32
  1
280 diam.
 71
     5
 42
280.0
  3
スタイル2
100
AcDbAlignedDimension
 13
1821.208058167172
 23
1576.033497322392
 33
0.0
 14
2101.208058167172
 24
1576.033497322392
 34
0.0
100
AcDbRotatedDimension
  0
DIMENSION
  5
39C6
330
2
100
AcDbEntity
  8
AM_5
100
AcDbDimension
  2
*D7
 10
2081.208058167172
 20
1713.389794619429
 30
0.0
 11
1961.208058167172
 21
1722.389794619429
 31
0.0
 70
    32
  1
P.C.D.<>
 71
     5
 42
240.0
  3
スタイル2
100
AcDbAlignedDimension
 13
1841.208058167172
 23
1607.033497322392
 33
0.0
 14
2081.208058167172
 24
1607.033497322392
 34
0.0
100
AcDbRotatedDimension
  0
CIRCLE
  5
39C7
330
2
100
AcDbEntity
  8
AM_6
100
AcDbCircle
 10
1862.958423364614
 20
1442.47153612956
 30
0.0
 40
17.5
  0
LINE
  5
39C8
330
2
100
AcDbEntity
  8
AM_1
100
AcDbLine
 10
1829.708058167172
 20
1576.033497322392
 30
0.0
 11
1829.708058167172
 21
1554.033497322392
 31
0.0
  0
LINE
  5
39C9
330
2
100
AcDbEntity
  8
AM_1
100
AcDbLine
 10
1852.708058167172
 20
1576.033497322392
 30
0.0
 11
1852.708058167172
 21
1554.033497322392
 31
0.0
  0
LINE
  5
39CA
330
2
100
AcDbEntity
  8
AM_7
100
AcDbLine
 10
1841.208058167172
 20
1607.033497322392
 30
0.0
 11
1841.208058167172
 21
1523.033497322392
 31
0.0
  0
LINE
  5
39CB
330
2
100
AcDbEntity
  8
AM_7
100
AcDbLine
 10
1961.208058167172
 20
1626.033497322392
 30
0.0
 11
1961.208058167172
 21
1524.033497322392
 31
0.0
  0
DIMENSION
  5
39CC
330
2
100
AcDbEntity
  8
AM_5
100
AcDbDimension
  2
*D9
 10
2008.708058167172
 20
1638.057017266287
 30
0.0
 11
1961.208058167172
 21
1657.447753306896
 31
0.0
 70
    32
  1
<>\Pdiam.
 71
     5
 41
0.75
 42
95.0
  3
スタイル2
100
AcDbAlignedDimension
 13
1913.708058167172
 23
1596.033497322392
 33
0.0
 14
2008.708058167172
 24
1596.033497322392
 34
0.0
100
AcDbRotatedDimension
1001
ACAD
1000
DSTYLE
1002
{
1070
    47
1040
0.0
1070
    48
1040
0.2
1070
    71
1070
     1
1002
}
  0
CIRCLE
  5
39CD
330
2
100
AcDbEntity
  8
AM_1
100
AcDbCircle
 10
1915.286046283361
 20
1811.807344179322
 30
0.0
 40
11.5
  0
LINE
  5
39CE
330
2
100
AcDbEntity
  8
AM_7
100
AcDbLine
 10
1835.098501979381
 20
1870.436599562841
 30
0.0
 11
1865.586526552253
 21
1883.06515283089
 31
0.0
  0
CIRCLE
  5
39CF
330
2
100
AcDbEntity
  8
AM_1
100
AcDbCircle
 10
1850.342514265818
 20
1876.750876196866
 30
0.0
 40
11.5
  0
LINE
  5
39D0
330
2
100
AcDbEntity
  8
AM_7
100
AcDbLine
 10
1908.971769649337
 20
1796.563331892885
 30
0.0
 11
1921.600322917385
 21
1827.051356465758
 31
0.0
  0
LINE
  5
39D1
330
2
100
AcDbEntity
  8
AM_7
100
AcDbLine
 10
2013.444346685008
 20
1796.563331892885
 30
0.0
 11
2000.815793416959
 21
1827.051356465758
 31
0.0
  0
CIRCLE
  5
39D2
330
2
100
AcDbEntity
  8
AM_1
100
AcDbCircle
 10
2007.130070050982
 20
1811.807344179322
 30
0.0
 40
11.5
  0
MTEXT
  5
39D3
330
2
100
AcDbEntity
  8
AM_5
100
AcDbMText
 10
2156.802194326472
 20
1850.757765276557
 30
0.0
 40
12.0
 41
0.0
 71
     8
 72
     5
  1
1.6
  7
スタイル１
 73
     1
 44
1.0
  0
LWPOLYLINE
  5
39D4
330
2
100
AcDbEntity
  8
AM_5
100
AcDbPolyline
 90
        4
 70
     0
 43
0.0
 10
2144.633258342455
 20
1847.723289625024
 10
2167.72726911004
 20
1847.723289625024
 10
2156.180263726248
 20
1827.723289625024
 10
2144.633258342455
 20
1847.723289625024
  0
LINE
  5
39D5
330
2
100
AcDbEntity
  8
AM_5
100
AcDbLine
 10
2144.633258342459
 20
1827.723289625024
 30
0.0
 11
2224.633258342459
 21
1827.723289625024
 31
0.0
  0
LINE
  5
39D6
330
2
100
AcDbEntity
  8
AM_5
100
AcDbLine
 10
2167.72726911004
 20
1847.723289625024
 30
0.0
 11
2187.727269110041
 21
1882.364305776402
 31
0.0
  0
MTEXT
  5
39D7
330
2
100
AcDbEntity
  8
AM_5
100
AcDbMText
 10
2217.050716522625
 20
1878.595583854727
 30
0.0
 40
12.0
 41
0.0
 71
     2
 72
     5
  1
Ry6.3
  7
スタイル１
 73
     1
 44
1.0
  0
LINE
  5
39D8
330
2
100
AcDbEntity
  8
AM_5
100
AcDbLine
 10
2187.727269110041
 20
1882.364305776402
 30
0.0
 11
2247.72726911004
 21
1882.364305776402
 31
0.0
  0
DIMENSION
  5
39D9
330
2
100
AcDbEntity
  8
AM_5
100
AcDbDimension
  2
*D10
 10
2185.152192145184
 20
1576.033497322392
 30
0.0
 11
2173.854119540718
 21
1537.081446647179
 31
0.0
 70
   160
 71
     5
 42
22.0
  3
スタイル2
100
AcDbAlignedDimension
 13
2101.208058167172
 23
1554.033497322392
 33
0.0
 14
2101.208058167172
 24
1576.033497322392
 34
0.0
 50
90.0
100
AcDbRotatedDimension
1001
ACAD
1000
DSTYLE
1002
{
1070
   173
1070
     1
1070
   279
1070
     2
1070
   289
1070
     0
1070
   342
1005
0
1070
   343
1005
2C
1070
   344
1005
1EE
1002
}
  0
LINE
  5
39DA
330
2
100
AcDbEntity
  8
AM_1
100
AcDbLine
 10
2092.708058167172
 20
1576.033497322392
 30
0.0
 11
2092.708058167172
 21
1554.033497322392
 31
0.0
  0
LINE
  5
39DB
330
2
100
AcDbEntity
  8
AM_1
100
AcDbLine
 10
2069.708058167172
 20
1576.033497322392
 30
0.0
 11
2069.708058167172
 21
1554.033497322392
 31
0.0
  0
LINE
  5
39DC
330
2
100
AcDbEntity
  8
AM_7
100
AcDbLine
 10
2081.208058167172
 20
1607.033497322392
 30
0.0
 11
2081.208058167172
 21
1523.033497322392
 31
0.0
  0
CIRCLE
  5
39DD
330
2
100
AcDbEntity
  8
AM_1
100
AcDbCircle
 10
2072.073602068527
 20
1876.750876196865
 30
0.0
 40
11.5
  0
LINE
  5
39DE
330
2
100
AcDbEntity
  8
AM_7
100
AcDbLine
 10
2087.317614354962
 20
1870.436599562841
 30
0.0
 11
2056.829589782091
 21
1883.065152830889
 31
0.0
  0
LINE
  5
39E0
330
2
100
AcDbEntity
  8
AM_7
100
AcDbLine
 10
1806.208058167172
 20
1922.672888080676
 30
0.0
 11
2116.208058167172
 21
1922.672888080676
 31
0.0
  0
CIRCLE
  5
39E1
330
2
100
AcDbEntity
  8
AM_1
100
AcDbCircle
 10
1915.286046283361
 20
2033.538431982031
 30
0.0
 40
11.5
  0
LINE
  5
39E2
330
2
100
AcDbEntity
  8
AM_7
100
AcDbLine
 10
1835.098501979382
 20
1974.909176598511
 30
0.0
 11
1865.586526552255
 21
1962.280623330463
 31
0.0
  0
CIRCLE
  5
39E3
330
2
100
AcDbEntity
  8
AM_1
100
AcDbCircle
 10
1850.342514265818
 20
1968.594899964487
 30
0.0
 40
11.5
  0
LINE
  5
39E4
330
2
100
AcDbEntity
  8
AM_7
100
AcDbLine
 10
1908.971769649337
 20
2048.782444268467
 30
0.0
 11
1921.600322917385
 21
2018.294419695595
 31
0.0
  0
LINE
  5
39E5
330
2
100
AcDbEntity
  8
AM_7
100
AcDbLine
 10
2013.444346685007
 20
2048.782444268467
 30
0.0
 11
2000.815793416959
 21
2018.294419695595
 31
0.0
  0
CIRCLE
  5
39E6
330
2
100
AcDbEntity
  8
AM_1
100
AcDbCircle
 10
2007.130070050983
 20
2033.538431982031
 30
0.0
 40
11.5
  0
CIRCLE
  5
39E8
330
2
100
AcDbEntity
  8
AM_1
100
AcDbCircle
 10
2072.073602068527
 20
1968.594899964487
 30
0.0
 40
11.5
  0
LINE
  5
39E9
330
2
100
AcDbEntity
  8
AM_7
100
AcDbLine
 10
2087.317614354963
 20
1974.909176598511
 30
0.0
 11
2056.829589782091
 21
1962.280623330463
 31
0.0
  0
MTEXT
  5
39EA
330
2
100
AcDbEntity
  8
AM_5
 62
     2
100
AcDbMText
 10
2086.452873256316
 20
2106.582512676212
 30
0.0
 40
14.0
 41
0.0
 71
     7
 72
     1
  1

  7
スタイル１
 73
     1
 44
1.0
  0
MTEXT
  5
39EB
330
2
100
AcDbEntity
  8
AM_5
 62
     2
100
AcDbMText
 10
2086.452873256316
 20
2087.670874807251
 30
0.0
 40
14.0
 41
0.0
 71
     7
 72
     1
  1
(M20 Bolt)
  7
スタイル１
 73
     1
 44
1.0
  0
CIRCLE
  5
39EC
330
2
100
AcDbEntity
  8
AM_5
100
AcDbCircle
 10
2268.427690633739
 20
2097.86795968606
 30
0.0
 40
17.5
  0
MTEXT
  5
39ED
330
2
100
AcDbEntity
  8
AM_5
100
AcDbMText
 10
2267.729055165637
 20
2098.047064060398
 30
0.0
 40
22.5
 41
0.0
 71
     5
 72
     5
  1
7  
  7
ACJISTS
 73
     1
 44
1.0
  0
LINE
  5
3AAD
330
2
100
AcDbEntity
  8
AM_7
100
AcDbLine
 10
1818.196604665829
 20
630.5718102034925
 30
0.0
 11
2128.19660466583
 21
630.5718102034925
 31
0.0
  0
MTEXT
  5
3AAE
330
2
100
AcDbEntity
  8
AM_6
100
AcDbMText
 10
1976.29999812481
 20
432.1450314371668
 30
0.0
 40
22.5
 41
0.0
 71
     5
 72
     5
  1
4 Flange (JIS10k)
  7
スタイル１
 73
     1
 44
1.0
  0
LINE
  5
3AAF
330
2
100
AcDbEntity
  8
AM_6
100
AcDbLine
 10
1849.106733507093
 20
408.3336670425742
 30
0.0
 11
2093.11159955967
 21
408.3336670425742
 31
0.0
  0
CIRCLE
  5
3AB0
330
2
100
AcDbEntity
  8
AM_2
100
AcDbCircle
 10
1973.19660466583
 20
630.5718102034925
 30
0.0
 40
87.5
  0
CIRCLE
  5
3AB1
330
2
100
AcDbEntity
  8
AM_2
100
AcDbCircle
 10
1973.19660466583
 20
630.5718102034925
 30
0.0
 40
92.5
  0
CIRCLE
  5
3AB2
330
2
100
AcDbEntity
  8
AM_7
100
AcDbCircle
 10
1973.19660466583
 20
630.5718102034925
 30
0.0
 40
120.0
  0
CIRCLE
  5
3AB3
330
2
100
AcDbEntity
  8
AM_2
100
AcDbCircle
 10
1973.19660466583
 20
630.5718102034925
 30
0.0
 40
83.0
  0
CIRCLE
  5
3AB4
330
2
100
AcDbEntity
  8
AM_2
100
AcDbCircle
 10
1973.19660466583
 20
630.5718102034925
 30
0.0
 40
140.0
  0
DIMENSION
  5
3AB5
330
2
100
AcDbEntity
  8
AM_5
100
AcDbDimension
  2
*D17
 10
2093.19660466583
 20
1079.671323781279
 30
0.0
 11
1973.19660466583
 21
1088.671323781279
 31
0.0
 70
    32
  1
P.C.D.<>
 71
     5
 42
240.0
  3
スタイル2
100
AcDbAlignedDimension
 13
1853.19660466583
 23
949.4136899151635
 33
0.0
 14
2093.19660466583
 24
949.4136899151635
 34
0.0
100
AcDbRotatedDimension
  0
DIMENSION
  5
3AB6
330
2
100
AcDbEntity
  8
AM_5
100
AcDbDimension
  2
*D15
 10
2065.69660466583
 20
809.8896390987519
 30
0.0
 11
1973.19660466583
 21
818.9251720936759
 31
0.0
 70
    32
  1
185 diam.
 71
     5
 42
185.0
  3
スタイル2
100
AcDbAlignedDimension
 13
1880.696604665829
 23
908.413689915163
 33
0.0
 14
2065.69660466583
 24
908.4136899151641
 34
0.0
100
AcDbRotatedDimension
  0
DIMENSION
  5
3AB7
330
2
100
AcDbEntity
  8
AM_5
100
AcDbDimension
  2
*D14
 10
2060.696604665829
 20
844.35918016104
 30
0.0
 11
1973.19660466583
 21
853.3947131559639
 31
0.0
 70
    32
  1
175 diam.
 71
     5
 42
175.0
  3
スタイル2
100
AcDbAlignedDimension
 13
1885.69660466583
 23
908.4136899151641
 33
0.0
 14
2060.696604665829
 24
908.413689915163
 34
0.0
100
AcDbRotatedDimension
  0
LINE
  5
3AB8
330
2
100
AcDbEntity
  8
AM_2
100
AcDbLine
 10
1890.196604665829
 20
929.4136899151636
 30
0.0
 11
2056.196604665829
 21
929.4136899151636
 31
0.0
  0
LINE
  5
3AB9
330
2
100
AcDbEntity
  8
AM_2
100
AcDbLine
 10
1890.196604665829
 20
907.4136899151636
 30
0.0
 11
2056.196604665829
 21
907.4136899151636
 31
0.0
  0
DIMENSION
  5
3ABA
330
2
100
AcDbEntity
  8
AM_5
100
AcDbDimension
  2
*D13
 10
2056.196604665829
 20
1048.230648027497
 30
0.0
 11
1973.19660466583
 21
1057.266181022421
 31
0.0
 70
    32
  1
166 diam.
 71
     5
 42
166.0
  3
スタイル2
100
AcDbAlignedDimension
 13
1890.196604665829
 23
929.4136899151636
 33
0.0
 14
2056.196604665829
 24
929.4136899151636
 34
0.0
100
AcDbRotatedDimension
  0
DIMENSION
  5
3ABB
330
2
100
AcDbEntity
  8
AM_5
100
AcDbDimension
  2
*D12
 10
2113.19660466583
 20
1115.31701788685
 30
0.0
 11
1973.19660466583
 21
1124.352550881774
 31
0.0
 70
    32
  1
280 diam.
 71
     5
 42
280.0
  3
スタイル2
100
AcDbAlignedDimension
 13
1833.196604665829
 23
929.4136899151636
 33
0.0
 14
2113.19660466583
 24
929.4136899151636
 34
0.0
100
AcDbRotatedDimension
  0
LINE
  5
3ABC
330
2
100
AcDbEntity
  8
AM_7
100
AcDbLine
 10
1973.19660466583
 20
1022.793736846048
 30
0.0
 11
1973.19660466583
 21
874.3866462588284
 31
0.0
  0
LINE
  5
3ABD
330
2
100
AcDbEntity
  8
AM_7
100
AcDbLine
 10
1973.19660466583
 20
785.5718102034925
 30
0.0
 11
1973.19660466583
 21
475.5718102034925
 31
0.0
  0
LINE
  5
3ABE
330
2
100
AcDbEntity
  8
AM_7
100
AcDbLine
 10
1921.534341296543
 20
505.8480733144688
 30
0.0
 11
1933.014844267495
 21
533.564459289807
 31
0.0
  0
CIRCLE
  5
3ABF
330
2
100
AcDbEntity
  8
細線
100
AcDbCircle
 10
1927.274592782018
 20
519.7062663021374
 30
0.0
 40
10.0
  0
CIRCLE
  5
3AC0
330
2
100
AcDbEntity
  8
AM_1
100
AcDbCircle
 10
1927.274592782018
 20
519.7062663021374
 30
0.0
 40
7.5
  0
CIRCLE
  5
3AC1
330
2
100
AcDbEntity
  8
AM_6
100
AcDbCircle
 10
1863.015693563392
 20
430.0648476487567
 30
0.0
 40
17.5
  0
LINE
  5
3AC2
330
2
100
AcDbEntity
  8
AM_7
100
AcDbLine
 10
2024.858868035117
 20
505.8480733144688
 30
0.0
 11
2013.378365064164
 21
533.564459289807
 31
0.0
  0
CIRCLE
  5
3AC3
330
2
100
AcDbEntity
  8
細線
100
AcDbCircle
 10
2019.118616549641
 20
519.7062663021381
 30
0.0
 40
10.0
  0
CIRCLE
  5
3AC4
330
2
100
AcDbEntity
  8
AM_1
100
AcDbCircle
 10
2019.118616549641
 20
519.7062663021381
 30
0.0
 40
7.5
  0
LINE
  5
3AC5
330
2
100
AcDbEntity
  8
AM_7
100
AcDbLine
 10
1921.534341296542
 20
755.2955470925162
 30
0.0
 11
1933.014844267495
 21
727.579161117178
 31
0.0
  0
CIRCLE
  5
3AC6
330
2
100
AcDbEntity
  8
細線
100
AcDbCircle
 10
1927.274592782018
 20
741.4373541048471
 30
0.0
 40
10.0
  0
CIRCLE
  5
3AC7
330
2
100
AcDbEntity
  8
AM_1
100
AcDbCircle
 10
1927.274592782018
 20
741.4373541048471
 30
0.0
 40
7.5
  0
LINE
  5
3AC8
330
2
100
AcDbEntity
  8
AM_7
100
AcDbLine
 10
1848.472867776806
 20
682.2340735727793
 30
0.0
 11
1876.189253752144
 21
670.753570601827
 31
0.0
  0
CIRCLE
  5
3AC9
330
2
100
AcDbEntity
  8
細線
100
AcDbCircle
 10
1862.331060764475
 20
676.4938220873027
 30
0.0
 40
10.0
  0
CIRCLE
  5
3ACA
330
2
100
AcDbEntity
  8
AM_1
100
AcDbCircle
 10
1862.331060764475
 20
676.4938220873027
 30
0.0
 40
7.5
  0
LINE
  5
3ACB
330
2
100
AcDbEntity
  8
AM_7
100
AcDbLine
 10
1848.472867776806
 20
578.9095468342052
 30
0.0
 11
1876.189253752144
 21
590.390049805158
 31
0.0
  0
CIRCLE
  5
3ACC
330
2
100
AcDbEntity
  8
AM_1
100
AcDbCircle
 10
1862.331060764475
 20
584.6497983196814
 30
0.0
 40
7.5
  0
CIRCLE
  5
3ACD
330
2
100
AcDbEntity
  8
細線
100
AcDbCircle
 10
1862.331060764475
 20
584.6497983196814
 30
0.0
 40
10.0
  0
CIRCLE
  5
3ACE
330
2
100
AcDbEntity
  8
細線
100
AcDbCircle
 10
2019.118616549641
 20
741.4373541048471
 30
0.0
 40
10.0
  0
CIRCLE
  5
3ACF
330
2
100
AcDbEntity
  8
AM_1
100
AcDbCircle
 10
2019.118616549641
 20
741.4373541048471
 30
0.0
 40
7.5
  0
LINE
  5
3AD0
330
2
100
AcDbEntity
  8
AM_7
100
AcDbLine
 10
2024.858868035117
 20
755.2955470925162
 30
0.0
 11
2013.378365064164
 21
727.5791611171776
 31
0.0
  0
LWPOLYLINE
  5
3AD1
330
2
100
AcDbEntity
  8
AM_2
100
AcDbPolyline
 90
        4
 70
     1
 43
0.0
 10
1833.196604665829
 20
907.4136899151636
 10
1890.196604665829
 20
907.4136899151636
 10
1890.196604665829
 20
929.4136899151636
 10
1833.196604665829
 20
929.4136899151636
  0
LINE
  5
3AD2
330
2
100
AcDbEntity
  8
AM_1
100
AcDbLine
 10
1845.696604665829
 20
907.4136899151636
 30
0.0
 11
1845.696604665829
 21
929.4136899151636
 31
0.0
  0
LINE
  5
3AD3
330
2
100
AcDbEntity
  8
細線
100
AcDbLine
 10
1843.19660466583
 20
929.4136899151636
 30
0.0
 11
1843.19660466583
 21
907.4136899151636
 31
0.0
  0
LWPOLYLINE
  5
3AD4
330
2
100
AcDbEntity
  8
AM_2
100
AcDbPolyline
 90
        6
 70
     0
 43
0.0
 10
1879.696604665829
 20
907.4136899151636
 10
1880.696604665829
 20
908.413689915163
 10
1880.696604665829
 20
910.4136899151635
 10
1885.69660466583
 20
910.4136899151635
 10
1885.69660466583
 20
908.4136899151641
 10
1886.69660466583
 20
907.4136899151636
  0
LINE
  5
3AD5
330
2
100
AcDbEntity
  8
細線
100
AcDbLine
 10
1863.196604665829
 20
929.4136899151636
 30
0.0
 11
1863.196604665829
 21
907.4136899151636
 31
0.0
  0
LINE
  5
3AD6
330
2
100
AcDbEntity
  8
AM_1
100
AcDbLine
 10
1860.69660466583
 20
907.4136899151636
 30
0.0
 11
1860.69660466583
 21
929.4136899151636
 31
0.0
  0
LINE
  5
3AD7
330
2
100
AcDbEntity
  8
AM_7
100
AcDbLine
 10
1853.19660466583
 20
949.4136899151635
 30
0.0
 11
1853.19660466583
 21
865.4136899151636
 31
0.0
  0
MTEXT
  5
3AD9
330
2
100
AcDbEntity
  8
AM_5
 62
     2
100
AcDbMText
 10
2141.949256592581
 20
747.984801435954
 30
0.0
 40
14.0
 41
0.0
 71
     7
 72
     1
  1

  7
スタイル１
 73
     1
 44
1.0
  0
LINE
  5
3ADA
330
2
100
AcDbEntity
  8
AM_7
100
AcDbLine
 10
2097.920341554853
 20
682.2340735727793
 30
0.0
 11
2070.203955579515
 21
670.7535706018266
 31
0.0
  0
CIRCLE
  5
3ADB
330
2
100
AcDbEntity
  8
細線
100
AcDbCircle
 10
2084.062148567183
 20
676.4938220873032
 30
0.0
 40
10.0
  0
CIRCLE
  5
3ADC
330
2
100
AcDbEntity
  8
AM_1
100
AcDbCircle
 10
2084.062148567183
 20
676.4938220873032
 30
0.0
 40
7.5
  0
LINE
  5
3ADD
330
2
100
AcDbEntity
  8
AM_7
100
AcDbLine
 10
2097.920341554853
 20
578.9095468342057
 30
0.0
 11
2070.203955579515
 21
590.390049805158
 31
0.0
  0
CIRCLE
  5
3ADE
330
2
100
AcDbEntity
  8
AM_1
100
AcDbCircle
 10
2084.062148567184
 20
584.6497983196825
 30
0.0
 40
7.5
  0
CIRCLE
  5
3ADF
330
2
100
AcDbEntity
  8
細線
100
AcDbCircle
 10
2084.062148567184
 20
584.6497983196825
 30
0.0
 40
10.0
  0
LINE
  5
3AE0
330
2
100
AcDbEntity
  8
AM_5
100
AcDbLine
 10
2203.616945482316
 20
790.5109389743834
 30
0.0
 11
2123.616945482316
 21
790.5109389743834
 31
0.0
  0
LINE
  5
3AE1
330
2
100
AcDbEntity
  8
AM_5
100
AcDbLine
 10
2146.710956249898
 20
810.5109389743834
 30
0.0
 11
2166.710956249898
 21
845.1519551257611
 31
0.0
  0
DIMENSION
  5
3AE2
330
2
100
AcDbEntity
  8
AM_5
100
AcDbDimension
  2
*D16
 10
2185.392851122462
 20
907.4136899151636
 30
0.0
 11
2176.392851122463
 21
918.4136899151638
 31
0.0
 70
    32
 71
     5
 42
22.0
  3
スタイル2
100
AcDbAlignedDimension
 13
2113.19660466583
 23
929.4136899151636
 33
0.0
 14
2113.19660466583
 24
907.4136899151636
 34
0.0
 50
90.0
100
AcDbRotatedDimension
  0
LWPOLYLINE
  5
3AE3
330
2
100
AcDbEntity
  8
AM_5
100
AcDbPolyline
 90
        4
 70
     0
 43
0.0
 10
2123.616945482313
 20
810.5109389743834
 10
2146.710956249898
 20
810.5109389743834
 10
2135.163950866105
 20
790.5109389743834
 10
2123.616945482313
 20
810.5109389743834
  0
MTEXT
  5
3AE4
330
2
100
AcDbEntity
  8
AM_5
100
AcDbMText
 10
2135.785881466329
 20
813.5454146259167
 30
0.0
 40
12.0
 41
0.0
 71
     8
 72
     5
  1
1.6
  7
スタイル１
 73
     1
 44
1.0
  0
LINE
  5
3AE5
330
2
100
AcDbEntity
  8
細線
100
AcDbLine
 10
2103.19660466583
 20
929.4136899151636
 30
0.0
 11
2103.19660466583
 21
907.4136899151636
 31
0.0
  0
LWPOLYLINE
  5
3AE6
330
2
100
AcDbEntity
  8
AM_2
100
AcDbPolyline
 90
        6
 70
     0
 43
0.0
 10
2059.69660466583
 20
907.4136899151636
 10
2060.696604665829
 20
908.413689915163
 10
2060.696604665829
 20
910.4136899151635
 10
2065.69660466583
 20
910.4136899151635
 10
2065.69660466583
 20
908.4136899151641
 10
2066.69660466583
 20
907.4136899151636
  0
LINE
  5
3AE7
330
2
100
AcDbEntity
  8
AM_1
100
AcDbLine
 10
2100.696604665829
 20
907.4136899151636
 30
0.0
 11
2100.696604665829
 21
929.4136899151636
 31
0.0
  0
LINE
  5
3AE8
330
2
100
AcDbEntity
  8
細線
100
AcDbLine
 10
2083.196604665829
 20
929.4136899151636
 30
0.0
 11
2083.196604665829
 21
907.4136899151636
 31
0.0
  0
LINE
  5
3AE9
330
2
100
AcDbEntity
  8
AM_1
100
AcDbLine
 10
2085.69660466583
 20
907.4136899151636
 30
0.0
 11
2085.69660466583
 21
929.4136899151636
 31
0.0
  0
LWPOLYLINE
  5
3AEA
330
2
100
AcDbEntity
  8
AM_2
100
AcDbPolyline
 90
        4
 70
     1
 43
0.0
 10
2056.196604665829
 20
907.4136899151636
 10
2113.19660466583
 20
907.4136899151636
 10
2113.19660466583
 20
929.4136899151636
 10
2056.196604665829
 20
929.4136899151636
  0
LWPOLYLINE
  5
3AEB
330
2
100
AcDbEntity
  8
AM_5
100
AcDbPolyline
 90
        2
 70
     0
 43
0.0
 10
2063.835701512484
 20
907.7094690019093
 10
2123.616945482316
 20
790.5109389743834
1001
ACAD
1000
DSTYLE
1002
{
1070
    41
1040
1.0
1070
   341
1005
10D3
1002
}
  0
LINE
  5
3AEC
330
2
100
AcDbEntity
  8
AM_7
100
AcDbLine
 10
2093.19660466583
 20
949.4136899151635
 30
0.0
 11
2093.19660466583
 21
865.4136899151636
 31
0.0
  0
LINE
  5
3AED
330
2
100
AcDbEntity
  8
AM_5
100
AcDbLine
 10
2166.710956249898
 20
845.1519551257611
 30
0.0
 11
2226.710956249898
 21
845.1519551257611
 31
0.0
  0
MTEXT
  5
3AEE
330
2
100
AcDbEntity
  8
AM_5
100
AcDbMText
 10
2196.034403662483
 20
841.3832332040861
 30
0.0
 40
12.0
 41
0.0
 71
     2
 72
     5
  1
Ry6.3
  7
スタイル１
 73
     1
 44
1.0
  0
CIRCLE
  5
3B88
330
2
100
AcDbEntity
  8
AM_2_2
100
AcDbCircle
 10
2547.444114444684
 20
1620.758410386535
 30
0.0
 40
47.50000000000091
  0
CIRCLE
  5
3B8A
330
2
100
AcDbEntity
  8
AM_2_2
100
AcDbCircle
 10
2547.444114444684
 20
1620.758410386535
 30
0.0
 40
57.50000000000046
  0
LINE
  5
3B8D
330
2
100
AcDbEntity
  8
AM_7
100
AcDbLine
 10
2685.814881576624
 20
1620.758410386535
 30
0.0
 11
2410.219813217383
 21
1620.758410386535
 31
0.0
  0
ARC
  5
3B8E
330
2
100
AcDbEntity
  8
細線
100
AcDbCircle
 10
2547.444114444684
 20
1620.758410386535
 30
0.0
 40
87.22430122730111
100
AcDbArc
 50
90.0
 51
270.0
  0
ARC
  5
3B8F
330
2
100
AcDbEntity
  8
細線
100
AcDbCircle
 10
2545.047478019586
 20
1620.758410386535
 30
0.0
 40
87.25722085160098
100
AcDbArc
 50
271.5739032488932
 51
88.42609675110681
  0
ARC
  5
3B91
330
2
100
AcDbEntity
  8
細線
100
AcDbCircle
 10
2548.583143591031
 20
1620.758410386535
 30
0.0
 40
87.23173798559324
100
AcDbArc
 50
269.2518386200079
 51
90.74816137999235
  0
ARC
  5
3B95
330
2
100
AcDbEntity
  8
AM_3
100
AcDbCircle
 10
2552.150000021313
 20
1620.758410386535
 30
0.0
 40
87.35115387704553
100
AcDbArc
 50
93.08820164672257
 51
266.9117983532774
  0
LINE
  5
3B96
330
2
100
AcDbEntity
  8
AM_2
100
AcDbLine
 10
2923.792031226168
 20
1773.08811943352
 30
0.0
 11
3038.792031226166
 21
1773.08811943352
 31
0.0
  0
LINE
  5
3B97
330
2
100
AcDbEntity
  8
AM_2
100
AcDbLine
 10
2923.792031226169
 20
1522.770939765648
 30
0.0
 11
3038.792031226169
 21
1522.770939765648
 31
0.0
  0
DIMENSION
  5
3B99
330
2
100
AcDbEntity
  8
AM_5
100
AcDbDimension
  2
*D18
 10
2688.961017932577
 20
1826.858520530262
 30
0.0
 11
2668.067813904434
 21
1808.758252209204
 31
0.0
 70
    33
  1
t<>
 71
     5
 42
7.000000000020918
  3
スタイル2
100
AcDbAlignedDimension
 13
2635.814881576624
 23
1865.752422382355
 33
0.0
 14
2632.304698871188
 24
1859.696134957311
 34
0.0
  0
DIMENSION
  5
3BBE
330
2
100
AcDbEntity
  8
AM_5
100
AcDbDimension
  2
*D19
 10
3197.444114444684
 20
2834.758410386577
 30
0.0
 11
2643.345327452308
 21
1960.809233371936
 31
0.0
 70
   164
 71
     5
 42
1120.0
  3
スタイル2$4
100
AcDbRadialDimension
 15
2597.724187154078
 25
1888.853547934464
 35
0.0
 40
0.0
  0
DIMENSION
  5
3BC7
330
2
100
AcDbEntity
  8
AM_5
100
AcDbDimension
  2
*D20
 10
2711.106899988878
 20
1971.40282228852
 30
0.0
 11
2630.842718385825
 21
2039.698517673329
 31
0.0
 70
    33
  1
210 diam.
 71
     5
 42
210.0000000000011
  3
スタイル2
100
AcDbAlignedDimension
 13
2464.798846144268
 23
1987.627422382353
 33
0.0
 14
2635.814881576624
 24
1865.752422382355
 34
0.0
  0
DIMENSION
  5
3BE1
330
2
100
AcDbEntity
  8
AM_5
100
AcDbDimension
  2
*D21
 10
2604.94411444468
 20
1774.031536597565
 30
0.0
 11
2547.444114444681
 21
1783.067069592489
 31
0.0
 70
    32
  1
115 diam.
 71
     5
 42
114.9999999999977
  3
スタイル2
100
AcDbAlignedDimension
 13
2489.944114444683
 23
1876.075590054407
 33
0.0
 14
2604.94411444468
 24
1876.075590054407
 34
0.0
100
AcDbRotatedDimension
  0
DIMENSION
  5
3BEE
330
2
100
AcDbEntity
  8
AM_5
100
AcDbDimension
  2
*D22
 10
2499.944114444682
 20
1808.277199623175
 30
0.0
 11
2464.091322566511
 21
1817.277199623174
 31
0.0
 70
    32
 71
     5
 42
9.999999999999545
  3
スタイル2
100
AcDbAlignedDimension
 13
2489.944114444683
 23
1876.075590054407
 33
0.0
 14
2499.944114444682
 24
1852.075590054406
 34
0.0
100
AcDbRotatedDimension
1001
ACAD
1000
DSTYLE
1002
{
1070
   280
1070
     1
1002
}
  0
DIMENSION
  5
3BFD
330
2
100
AcDbEntity
  8
AM_5
100
AcDbDimension
  2
*D23
 10
2594.94411444469
 20
1808.277199623175
 30
0.0
 11
2547.444114444686
 21
1827.667935663784
 31
0.0
 70
    32
  1
<>\Pdiam.
 71
     5
 41
0.75
 42
95.00000000000682
  3
スタイル2
100
AcDbAlignedDimension
 13
2499.944114444682
 23
1852.075590054406
 33
0.0
 14
2594.94411444469
 24
1852.075590054406
 34
0.0
100
AcDbRotatedDimension
1001
ACAD
1000
DSTYLE
1002
{
1070
    47
1040
0.0
1070
    48
1040
0.2
1070
    71
1070
     1
1002
}
  0
DIMENSION
  5
3C0A
330
2
100
AcDbEntity
  8
AM_5
100
AcDbDimension
  2
*D24
 10
2604.944114444681
 20
1808.277199623175
 30
0.0
 11
2630.796906322854
 21
1817.277199623174
 31
0.0
 70
    32
 71
     5
 42
9.999999999991814
  3
スタイル2
100
AcDbAlignedDimension
 13
2594.94411444469
 23
1852.075590054406
 33
0.0
 14
2604.944114444681
 24
1876.075590054407
 34
0.0
100
AcDbRotatedDimension
  0
DIMENSION
  5
3C61
330
2
100
AcDbEntity
  8
AM_5
100
AcDbDimension
  2
*D25
 10
3028.792031226167
 20
1842.878024854795
 30
0.0
 11
2981.292031226168
 21
1862.268760895404
 31
0.0
 70
    32
  1
<>\Pdiam.
 71
     5
 41
0.75
 42
94.99999999999955
  3
スタイル2
100
AcDbAlignedDimension
 13
2933.792031226168
 23
1773.08811943352
 33
0.0
 14
3028.792031226167
 24
1773.08811943352
 34
0.0
100
AcDbRotatedDimension
1001
ACAD
1000
DSTYLE
1002
{
1070
    47
1040
0.0
1070
    48
1040
0.2
1070
    71
1070
     1
1070
   272
1070
     1
1002
}
  0
DIMENSION
  5
3C80
330
2
100
AcDbEntity
  8
AM_5
100
AcDbDimension
  2
*D26
 10
2933.792031226168
 20
1842.878024854795
 30
0.0
 11
2892.858021073884
 21
1851.878024854795
 31
0.0
 70
    32
  1
t<>
 71
     5
 42
9.99999999999909
  3
スタイル2
100
AcDbAlignedDimension
 13
2923.792031226168
 23
1773.08811943352
 33
0.0
 14
2933.792031226168
 24
1773.08811943352
 34
0.0
100
AcDbRotatedDimension
1001
ACAD
1000
DSTYLE
1002
{
1070
   280
1070
     1
1002
}
  0
DIMENSION
  5
3CD5
330
2
100
AcDbEntity
  8
AM_5
100
AcDbDimension
  2
*D27
 10
3038.792031226166
 20
1880.557915383273
 30
0.0
 11
2981.292031226168
 21
1889.593448378197
 31
0.0
 70
    32
  1
115 diam.
 71
     5
 42
114.9999999999968
  3
スタイル2
100
AcDbAlignedDimension
 13
2923.792031226168
 23
1773.08811943352
 33
0.0
 14
3038.792031226166
 24
1773.08811943352
 34
0.0
100
AcDbRotatedDimension
  0
DIMENSION
  5
3F81
330
2
100
AcDbEntity
  8
AM_5
100
AcDbDimension
  2
*D28
 10
2846.983914070118
 20
1522.770939765648
 30
0.0
 11
2837.983914070118
 21
1647.929529599585
 31
0.0
 70
    32
 71
     5
 42
250.3171796678716
  3
スタイル2
100
AcDbAlignedDimension
 13
2923.792031226168
 23
1773.08811943352
 33
0.0
 14
2923.792031226169
 24
1522.770939765648
 34
0.0
 50
90.0
100
AcDbRotatedDimension
  0
DIMENSION
  5
3F8E
330
2
100
AcDbEntity
  8
AM_5
100
AcDbDimension
  2
*D29
 10
2406.049606981884
 20
1852.075590054406
 30
0.0
 11
2397.049606981883
 21
1864.075590054407
 31
0.0
 70
    32
 71
     5
 42
24.0
  3
スタイル2
100
AcDbAlignedDimension
 13
2489.944114444683
 23
1876.075590054407
 33
0.0
 14
2499.944114444682
 24
1852.075590054406
 34
0.0
 50
90.0
100
AcDbRotatedDimension
  0
DIMENSION
  5
3FA8
330
2
100
AcDbEntity
  8
AM_5
100
AcDbDimension
  2
*D30
 10
2371.439665940088
 20
1922.67288808069
 30
0.0
 11
2362.439665940087
 21
1887.374239067549
 31
0.0
 70
    32
 71
     5
 42
70.59729802628362
  3
スタイル2
100
AcDbAlignedDimension
 13
2499.944114444682
 23
1852.075590054406
 33
0.0
 14
2547.444114444683
 24
1922.67288808069
 34
0.0
 50
90.0
100
AcDbRotatedDimension
  0
DIMENSION
  5
3FB5
330
2
100
AcDbEntity
  8
AM_5
100
AcDbDimension
  2
*D31
 10
2332.757954617663
 20
1957.505453708724
 30
0.0
 11
2323.757954617663
 21
1904.790521881565
 31
0.0
 70
    32
 71
     5
 42
105.4298636543176
  3
スタイル2
100
AcDbAlignedDimension
 13
2499.944114444682
 23
1852.075590054406
 33
0.0
 14
2489.944114444684
 24
1957.505453708724
 34
0.0
 50
90.0
100
AcDbRotatedDimension
  0
LINE
  5
3FC2
330
2
100
AcDbEntity
  8
AM_2_5
100
AcDbLine
 10
2460.539478683092
 20
794.2940854114985
 30
0.0
 11
2625.739478683092
 21
794.2940854114985
 31
0.0
  0
LINE
  5
3FC3
330
2
100
AcDbEntity
  8
AM_7
100
AcDbLine
 10
2684.348750206275
 20
604.5074969782108
 30
0.0
 11
2410.539478683092
 21
604.5074969782108
 31
0.0
  0
CIRCLE
  5
3FC4
330
2
100
AcDbEntity
  8
AM_2_5
100
AcDbCircle
 10
2547.444114444683
 20
604.5074969782108
 30
0.0
 40
75.90463576159163
  0
CIRCLE
  5
3FC5
330
2
100
AcDbEntity
  8
AM_2_5
100
AcDbCircle
 10
2547.444114444683
 20
604.5074969782108
 30
0.0
 40
86.90463576159164
  0
DIMENSION
  5
3FC6
330
2
100
AcDbEntity
  8
AM_5
100
AcDbDimension
  2
*D32
 10
2377.782416409532
 20
794.2940854114985
 30
0.0
 11
2368.782416409533
 21
918.0843317237231
 31
0.0
 70
    32
 71
     5
 42
247.5804926244478
  3
スタイル2
100
AcDbAlignedDimension
 13
2460.539478683091
 23
1041.874578035946
 33
0.0
 14
2460.539478683092
 24
794.2940854114985
 34
0.0
 50
90.0
100
AcDbRotatedDimension
  0
DIMENSION
  5
3FD3
330
2
100
AcDbEntity
  8
AM_5
100
AcDbDimension
  2
*D33
 10
2703.926169129616
 20
794.2940854114985
 30
0.0
 11
2694.926169129616
 21
864.6029563011296
 31
0.0
 70
    32
 71
     5
 42
140.6177417792612
  3
スタイル2
100
AcDbAlignedDimension
 13
2625.739478683093
 23
934.9118271907597
 33
0.0
 14
2625.739478683092
 24
794.2940854114985
 34
0.0
 50
90.0
100
AcDbRotatedDimension
  0
LINE
  5
3FFB
330
2
100
AcDbEntity
  8
A1枠
 62
     9
100
AcDbLine
 10
40.00000000086299
 20
142.0000000000213
 30
0.0
 11
520.0000000008628
 21
142.0000000000172
 31
0.0
  0
MTEXT
  5
3FFC
330
2
100
AcDbEntity
  8
A1枠
  6
Continuous
 62
     9
100
AcDbMText
 10
110.2671873617146
 20
127.3660530228505
 30
0.0
 40
8.8
 41
0.0
 71
     5
 72
     5
  1
2002,8,22
  7
TITLE
 73
     1
 44
1.0
  0
MTEXT
  5
3FFD
330
2
100
AcDbEntity
  8
A1枠
  6
Continuous
 62
     9
100
AcDbMText
 10
60.45116236388719
 20
125.5301640426337
 30
0.0
 40
10.0
 41
0.0
 71
     5
 72
     5
  1
2
  7
TITLE
 73
     1
 44
1.0
  0
MTEXT
  5
3FFE
330
2
100
AcDbEntity
  8
A1枠
  6
Continuous
 62
     9
100
AcDbMText
 10
273.2164398277193
 20
128.7541599842442
 30
0.0
 40
10.0
 41
0.0
 71
     5
 72
     5
  1
Correction of Position
  7
TITLE
 73
     1
 44
1.0
  0
MTEXT
  5
3FFF
330
2
100
AcDbEntity
  8
A1枠
  6
Continuous
 62
     9
100
AcDbMText
 10
489.2266119189226
 20
128.7541599842442
 30
0.0
 40
10.0
 41
0.0
 71
     5
 72
     5
  1
Kamioka
  7
TITLE
 73
     1
 44
1.0
  0
MTEXT
  5
4000
330
2
100
AcDbEntity
  8
A1枠
  6
Continuous
 62
     9
100
AcDbMText
 10
429.2266119189227
 20
128.7541599842442
 30
0.0
 40
10.0
 41
0.0
 71
     5
 72
     5
  1
Urakawa
  7
TITLE
 73
     1
 44
1.0
  0
REGION
  5
4001
330
2
100
AcDbEntity
  8
A1枠
 62
     9
100
AcDbModelerGeometry
 70
     1
  1
koo mn n o          
  1
h J1410(1 nl ^ \VL kqoqm QK mk R01 R>- nh ngekienj mool 
  1
rn fqfffffffffffffffj:rooh n:rono 
  1
=0;& {rn {n {rn {rn |
  1
3*2/ {rn {rn {m {o |
  1
,7:33 {rn {rn {rn {l {rn {n |
  1
9><: {rn {rn {k {m {rn {j -:):-,:; ;0*=3: 0*+ |
  1
300/ {rn {rn {i {l |
  1
/3>1:r,*-9><: {rn jfqfffffffffffhokk nmkqjllllllllljghh o o o rn rk o o 90-(>-;@) V V V V |
  1
<0:;8: {rn {h {g {rn {f 90-(>-; {k {rn |
  1
<0:;8: {rn {g {i {rn {no 90-(>-; {k {rn |
  1
<0:;8: {rn {i {h {rn {nn 90-(>-; {k {rn |
  1
:;8: {rn {nm {nl {i {nk 90-(>-; |
  1
:;8: {rn {nl {nj {h {ni 90-(>-; |
  1
:;8: {rn {nj {nm {g {nh 90-(>-; |
  1
):-+:' {rn {f {ng |
  1
):-+:' {rn {f {nf |
  1
,+->687+r<*-): {rn khqffnnnkkoogjfgmg nnhqiooooooooomjlh o k o o V V |
  1
):-+:' {rn {no {mo |
  1
,+->687+r<*-): {rn hmqoogggjjffnkjfh nnhqiooooooooomjlh o rmqoooooooooooonmog lqkiknoninjnlhigkh o V V |
  1
,+->687+r<*-): {rn jfqfffffffffffhokk nlgqkooooooooomjji o rnqffffffffffffgflk rlqkiknoninjnlhgnin o V V |
  1
/061+ {rn khqffnnnkkoogjfgmg nnhqiooooooooomjlh o |
  1
/061+ {rn hmqoogggjjffnkjfh nnhqiooooooooomjlh o |
  1
/061+ {rn jfqfffffffffffhokk nlgqkooooooooomjji o |
  0
SPLINE
  5
42D8
330
2
100
AcDbEntity
  8
細線
100
AcDbSpline
210
0.0
220
0.0
230
1.0
 70
     8
 71
     3
 72
    10
 73
     6
 74
     4
 42
0.0000000001
 43
0.0000000001
 44
0.0000000001
 40
0.0
 40
0.0
 40
0.0
 40
0.0
 40
18.21337486469302
 40
33.21629467616419
 40
49.61971580001033
 40
49.61971580001033
 40
49.61971580001033
 40
49.61971580001033
 10
279.7507212039489
 20
2088.791471232559
 30
0.0
 10
285.7808281013782
 20
2091.951443464927
 30
0.0
 10
296.7781204275833
 20
2097.714382492901
 30
0.0
 10
310.6321328663518
 20
2083.021336408794
 30
0.0
 10
321.1280219511646
 20
2087.860594746977
 30
0.0
 10
326.6099878090134
 20
2090.388122312567
 30
0.0
 11
279.7507212039489
 21
2088.791471232559
 31
0.0
 11
297.3229480798398
 21
2093.581446867575
 31
0.0
 11
310.6352374847427
 21
2086.662591928386
 31
0.0
 11
326.6099878090134
 21
2090.388122312567
 31
0.0
  0
SPLINE
  5
42D9
330
2
100
AcDbEntity
  8
細線
100
AcDbSpline
210
0.0
220
0.0
230
1.0
 70
     8
 71
     3
 72
    10
 73
     6
 74
     4
 42
0.0000000001
 43
0.0000000001
 44
0.0000000001
 40
0.0
 40
0.0
 40
0.0
 40
0.0
 40
18.21337486469302
 40
33.21629467616419
 40
49.61971580001033
 40
49.61971580001033
 40
49.61971580001033
 40
49.61971580001033
 10
364.427506942728
 20
2086.879108799797
 30
0.0
 10
370.4576138401573
 20
2090.039081032166
 30
0.0
 10
381.4549061663624
 20
2095.802020060139
 30
0.0
 10
395.308918605131
 20
2081.108973976032
 30
0.0
 10
405.8048076899439
 20
2085.948232314215
 30
0.0
 10
411.2867735477925
 20
2088.475759879805
 30
0.0
 11
364.427506942728
 21
2086.879108799797
 31
0.0
 11
381.9997338186189
 21
2091.669084434813
 31
0.0
 11
395.3120232235218
 21
2084.750229495624
 31
0.0
 11
411.2867735477925
 21
2088.475759879805
 31
0.0
  0
SPLINE
  5
42DD
330
2
100
AcDbEntity
  8
細線
100
AcDbSpline
210
0.0
220
0.0
230
1.0
 70
     8
 71
     3
 72
    10
 73
     6
 74
     4
 42
0.0000000001
 43
0.0000000001
 44
0.0000000001
 40
0.0
 40
0.0
 40
0.0
 40
0.0
 40
18.21337486469302
 40
33.21629467616419
 40
49.61971580001033
 40
49.61971580001033
 40
49.61971580001033
 40
49.61971580001033
 10
876.0535724283442
 20
2088.791471232559
 30
0.0
 10
882.0836793257736
 20
2091.951443464927
 30
0.0
 10
893.0809716519789
 20
2097.714382492901
 30
0.0
 10
906.9349840907474
 20
2083.021336408794
 30
0.0
 10
917.43087317556
 20
2087.860594746977
 30
0.0
 10
922.9128390334087
 20
2090.388122312567
 30
0.0
 11
876.0535724283442
 21
2088.791471232559
 31
0.0
 11
893.6257993042351
 21
2093.581446867575
 31
0.0
 11
906.9380887091382
 21
2086.662591928386
 31
0.0
 11
922.9128390334087
 21
2090.388122312567
 31
0.0
  0
SPLINE
  5
42DE
330
2
100
AcDbEntity
  8
細線
100
AcDbSpline
210
0.0
220
0.0
230
1.0
 70
     8
 71
     3
 72
    10
 73
     6
 74
     4
 42
0.0000000001
 43
0.0000000001
 44
0.0000000001
 40
0.0
 40
0.0
 40
0.0
 40
0.0
 40
18.21337486469302
 40
33.21629467616419
 40
49.61971580001033
 40
49.61971580001033
 40
49.61971580001033
 40
49.61971580001033
 10
960.7303581671233
 20
2086.879108799797
 30
0.0
 10
966.7604650645527
 20
2090.039081032166
 30
0.0
 10
977.7577573907578
 20
2095.802020060139
 30
0.0
 10
991.6117698295261
 20
2081.108973976032
 30
0.0
 10
1002.107658914339
 20
2085.948232314215
 30
0.0
 10
1007.589624772187
 20
2088.475759879805
 30
0.0
 11
960.7303581671233
 21
2086.879108799797
 31
0.0
 11
978.3025850430142
 21
2091.669084434813
 31
0.0
 11
991.6148744479171
 21
2084.750229495624
 31
0.0
 11
1007.589624772187
 21
2088.475759879805
 31
0.0
  0
MTEXT
  5
42E0
330
2
100
AcDbEntity
  8
AM_5
100
AcDbMText
 10
1489.995166733628
 20
2115.731187700783
 30
0.0
 40
31.5
 41
0.0
 71
     5
 72
     5
  1
L
  7
スタイル１
 73
     1
 44
1.0
  0
MTEXT
  5
42E1
330
2
100
AcDbEntity
  8
AM_5
100
AcDbMText
 10
1483.488225180412
 20
2119.958264535065
 30
0.0
 40
31.5
 41
0.0
 71
     5
 72
     5
  1
c
  7
スタイル１
 73
     1
 44
1.0
  0
MTEXT
  5
42FF
330
2
100
AcDbEntity
  8
AM_6
100
AcDbMText
 10
1109.752393704462
 20
243.968240756465
 30
0.0
 40
22.5
 41
0.0
 71
     5
 72
     5
  1
Assembly
  7
スタイル１
 73
     1
 44
1.0
  0
LINE
  5
4300
330
2
100
AcDbEntity
  8
AM_6
100
AcDbLine
 10
1033.844854966719
 20
227.2889723726712
 30
0.0
 11
1194.146852089505
 21
227.2889723726712
 31
0.0
  0
LEADER
  5
4301
330
2
100
AcDbEntity
  8
AM_5
100
AcDbLeader
  3
スタイル2
 76
     2
 10
929.5703880340333
 20
804.6533328490532
 30
0.0
 10
1096.61055305065
 20
1170.89966159188
 30
0.0
1001
ACAD
1000
DSTYLE
1002
{
1070
    41
1040
5.0
1070
   341
1005
51
1002
}
  0
MTEXT
  5
4302
330
2
100
AcDbEntity
  8
AM_5
100
AcDbMText
 10
1102.946314422708
 20
1186.590986670129
 30
0.0
 40
17.5
 41
0.0
 71
     5
 72
     5
  1
6
  7
スタイル１
 73
     1
 44
1.0
  0
CIRCLE
  5
4303
330
2
100
AcDbEntity
  8
AM_5
100
AcDbCircle
 10
1103.87243965814
 20
1186.821816059789
 30
0.0
 40
17.5
  0
LEADER
  5
4304
330
2
100
AcDbEntity
  8
AM_5
100
AcDbLeader
  3
スタイル2
 76
     2
 10
851.306757078284
 20
925.876610556741
 30
0.0
 10
1032.449214858953
 20
1171.331375308156
 30
0.0
1001
ACAD
1000
DSTYLE
1002
{
1070
    41
1040
5.0
1070
   341
1005
51
1002
}
  0
CIRCLE
  5
4305
330
2
100
AcDbEntity
  8
AM_5
100
AcDbCircle
 10
1040.591465488854
 20
1186.821816059789
 30
0.0
 40
17.5
  0
MTEXT
  5
4306
330
2
100
AcDbEntity
  8
AM_5
100
AcDbMText
 10
1039.665340253422
 20
1186.590986670129
 30
0.0
 40
17.5
 41
0.0
 71
     5
 72
     5
  1
2
  7
スタイル１
 73
     1
 44
1.0
  0
LEADER
  5
4307
330
2
100
AcDbEntity
  8
AM_5
100
AcDbLeader
  3
スタイル2
 76
     2
 10
780.1341836143601
 20
904.5389516337936
 30
0.0
 10
874.4302847412436
 20
1171.374187652626
 30
0.0
1001
ACAD
1000
DSTYLE
1002
{
1070
    41
1040
5.0
1070
   341
1005
51
1002
}
  0
CIRCLE
  5
4308
330
2
100
AcDbEntity
  8
AM_5
100
AcDbCircle
 10
880.2611774790584
 20
1187.87420855807
 30
0.0
 40
17.5
  0
MTEXT
  5
4309
330
2
100
AcDbEntity
  8
AM_5
100
AcDbMText
 10
879.3350522436266
 20
1187.64337916841
 30
0.0
 40
17.5
 41
0.0
 71
     5
 72
     5
  1
3
  7
スタイル１
 73
     1
 44
1.0
  0
LEADER
  5
430A
330
2
100
AcDbEntity
  8
AM_5
100
AcDbLeader
  3
スタイル2
 76
     2
 10
967.813400172332
 20
672.646932920823
 30
0.0
 10
1105.274232656231
 20
508.4361316359881
 30
0.0
1001
ACAD
1000
DSTYLE
1002
{
1070
    41
1040
5.0
1070
   341
1005
51
1002
}
  0
MTEXT
  5
430B
330
2
100
AcDbEntity
  8
AM_5
100
AcDbMText
 10
1116.878970511947
 20
495.9894326419608
 30
0.0
 40
17.5
 41
0.0
 71
     5
 72
     5
  1
4
  7
スタイル１
 73
     1
 44
1.0
  0
CIRCLE
  5
430C
330
2
100
AcDbEntity
  8
AM_5
100
AcDbCircle
 10
1117.805095747378
 20
496.2202620316211
 30
0.0
 40
17.5
  0
LEADER
  5
430D
330
2
100
AcDbEntity
  8
AM_5
100
AcDbLeader
  3
スタイル2
 76
     2
 10
874.4900103970939
 20
649.4095392794497
 30
0.0
 10
972.0349463323891
 20
510.8695444961285
 30
0.0
1001
ACAD
1000
DSTYLE
1002
{
1070
    41
1040
5.0
1070
   341
1005
51
1002
}
  0
LEADER
  5
430E
330
2
100
AcDbEntity
  8
AM_5
100
AcDbLeader
  3
スタイル2
 76
     2
 10
912.1127636996188
 20
758.1105196174558
 30
0.0
 10
1188.178059412382
 20
508.4361316359881
 30
0.0
1001
ACAD
1000
DSTYLE
1002
{
1070
    41
1040
5.0
1070
   341
1005
51
1002
}
  0
MTEXT
  5
430F
330
2
100
AcDbEntity
  8
AM_5
100
AcDbMText
 10
980.6821446199082
 20
495.9894326419608
 30
0.0
 40
17.5
 41
0.0
 71
     5
 72
     5
  1
1
  7
スタイル１
 73
     1
 44
1.0
  0
CIRCLE
  5
4310
330
2
100
AcDbEntity
  8
AM_5
100
AcDbCircle
 10
981.608269855339
 20
496.2202620316211
 30
0.0
 40
17.5
  0
MTEXT
  5
4311
330
2
100
AcDbEntity
  8
AM_5
100
AcDbMText
 10
1199.782797268098
 20
495.9894326419608
 30
0.0
 40
17.5
 41
0.0
 71
     5
 72
     5
  1
5
  7
スタイル１
 73
     1
 44
1.0
  0
CIRCLE
  5
4312
330
2
100
AcDbEntity
  8
AM_5
100
AcDbCircle
 10
1200.70892250353
 20
496.2202620316211
 30
0.0
 40
17.5
  0
LINE
  5
4314
330
2
100
AcDbEntity
  8
AM_5
100
AcDbLine
 10
846.44425132069
 20
606.8430525640037
 30
0.0
 11
796.44425132069
 21
606.8430525640037
 31
0.0
1001
ACAD
1000
DSTYLE
1002
{
1070
   147
1040
2.0
1070
    77
1070
     1
1002
}
  0
CIRCLE
  5
4315
330
2
100
AcDbEntity
  8
AM_5
100
AcDbCircle
 10
796.44425132069
 20
606.8430525640037
 30
0.0
 40
3.75
  0
LWPOLYLINE
  5
4316
330
2
100
AcDbEntity
  8
AM_5
100
AcDbPolyline
 90
        4
 70
     0
 43
0.0
 10
813.9442513206899
 20
606.8430525640037
 10
813.9442513206899
 20
591.8430525640038
 10
828.94425132069
 20
606.8430525640037
 10
813.9442513206899
 20
606.8430525640037
  0
LEADER
  5
4317
330
2
100
AcDbEntity
  8
AM_5
100
AcDbLeader
  3
スタイル2
 76
     2
 10
747.6588376785234
 20
909.2382159846943
 30
0.0
 10
668.7235458144653
 20
819.1813315156577
 30
0.0
1001
ACAD
1000
DSTYLE
1002
{
1070
   147
1040
2.5
1070
    77
1070
     0
1002
}
  0
LEADER
  5
4318
330
2
100
AcDbEntity
  8
AM_5
100
AcDbLeader
  3
スタイル2
 76
     2
 10
745.9619466553469
 20
690.9847130572996
 30
0.0
 10
668.7235458144653
 20
772.0081224121863
 30
0.0
1001
ACAD
1000
DSTYLE
1002
{
1070
   147
1040
2.5
1070
    77
1070
     0
1002
}
  0
CIRCLE
  5
4319
330
2
100
AcDbEntity
  8
AM_5
100
AcDbCircle
 10
668.7235458144653
 20
772.0081224121863
 30
0.0
 40
3.75
  0
CIRCLE
  5
431A
330
2
100
AcDbEntity
  8
AM_5
100
AcDbCircle
 10
668.7235458144653
 20
819.1813315156577
 30
0.0
 40
3.75
  0
LWPOLYLINE
  5
431B
330
2
100
AcDbEntity
  8
AM_5
100
AcDbPolyline
 90
        4
 70
     0
 43
0.0
 10
636.2235458144652
 20
772.0081224121863
 10
636.2235458144652
 20
757.0081224121864
 10
651.2235458144653
 20
772.0081224121863
 10
636.2235458144652
 20
772.0081224121863
  0
LWPOLYLINE
  5
431C
330
2
100
AcDbEntity
  8
AM_5
100
AcDbPolyline
 90
        4
 70
     0
 43
0.0
 10
636.2235458144652
 20
819.1813315156577
 10
636.2235458144652
 20
804.1813315156577
 10
651.2235458144653
 20
819.1813315156577
 10
636.2235458144652
 20
819.1813315156577
  0
LINE
  5
431D
330
2
100
AcDbEntity
  8
AM_5
100
AcDbLine
 10
668.7235458144653
 20
772.0081224121863
 30
0.0
 11
618.7235458144653
 21
772.0081224121863
 31
0.0
1001
ACAD
1000
DSTYLE
1002
{
1070
   147
1040
2.0
1070
    77
1070
     1
1002
}
  0
LINE
  5
431E
330
2
100
AcDbEntity
  8
AM_5
100
AcDbLine
 10
668.7235458144653
 20
819.1813315156577
 30
0.0
 11
618.7235458144653
 21
819.1813315156577
 31
0.0
1001
ACAD
1000
DSTYLE
1002
{
1070
   147
1040
2.0
1070
    77
1070
     1
1002
}
  0
LINE
  5
431F
330
2
100
AcDbEntity
  8
AM_5
100
AcDbLine
 10
668.7235458144653
 20
857.6283654931939
 30
0.0
 11
618.7235458144653
 21
857.6283654931939
 31
0.0
1001
ACAD
1000
DSTYLE
1002
{
1070
   147
1040
2.0
1070
    77
1070
     1
1002
}
  0
LEADER
  5
4320
330
2
100
AcDbEntity
  8
AM_5
100
AcDbLeader
  3
スタイル2
 76
     2
 10
726.8304446973965
 20
936.5697731364837
 30
0.0
 10
668.7235458144653
 20
857.6283654931939
 30
0.0
1001
ACAD
1000
DSTYLE
1002
{
1070
   147
1040
2.5
1070
    77
1070
     0
1002
}
  0
LWPOLYLINE
  5
4321
330
2
100
AcDbEntity
  8
AM_5
100
AcDbPolyline
 90
        4
 70
     0
 43
0.0
 10
636.2235458144652
 20
857.6283654931939
 10
636.2235458144652
 20
842.6283654931939
 10
651.2235458144653
 20
857.6283654931939
 10
636.2235458144652
 20
857.6283654931939
  0
CIRCLE
  5
4322
330
2
100
AcDbEntity
  8
AM_5
100
AcDbCircle
 10
668.7235458144653
 20
857.6283654931939
 30
0.0
 40
3.75
  0
HATCH
  5
4337
330
2
100
AcDbEntity
  8
AM_8
100
AcDbHatch
 10
0.0
 20
0.0
 30
0.0
210
0.0
220
0.0
230
1.0
  2
LINE
 70
     0
 71
     0
 91
        1
 92
        7
 72
     0
 73
     1
 93
        4
 10
750.7116941236526
 20
695.7344605256053
 10
741.2121991870415
 20
686.2349655889938
 10
750.3116941236528
 20
686.2349655889938
 10
750.7116941236525
 20
686.2349655889938
 97
        0
 75
     0
 76
     1
 52
0.0
 41
0.5
 77
     0
 78
     1
 53
0.0
 43
0.0
 44
203.3724220996446
 45
0.0
 46
1.587499999999999
 79
     0
 47
0.144050002537557
 98
        1
 10
746.2287653463645
 20
690.6075488820934
  0
HATCH
  5
433C
330
2
100
AcDbEntity
  8
AM_8
100
AcDbHatch
 10
0.0
 20
0.0
 30
0.0
210
0.0
220
0.0
230
1.0
  2
LINE
 70
     0
 71
     1
 91
        1
 92
        7
 72
     0
 73
     1
 93
        4
 10
761.7116941236524
 20
675.2349655889937
 10
750.3116941236529
 20
675.234965588994
 10
750.3116941236528
 20
664.2349655889939
 10
750.7116941236526
 20
664.2349655889939
 97
        4
330
36F3
330
36C6
330
36C7
330
36F2
 75
     0
 76
     1
 52
0.0
 41
0.5
 77
     0
 78
     1
 53
0.0
 43
0.0
 44
203.3724220996446
 45
0.0
 46
1.587499999999999
 79
     0
 47
0.1311585901576854
 98
        1
 10
755.6827006413405
 20
672.6715327509264
  0
HATCH
  5
4341
330
2
100
AcDbEntity
  8
AM_8
100
AcDbHatch
 10
0.0
 20
0.0
 30
0.0
210
0.0
220
0.0
230
1.0
  2
LINE
 70
     0
 71
     0
 91
        1
 92
        7
 72
     0
 73
     1
 93
        4
 10
916.3116941236529
 20
675.2349655889938
 10
904.9116941236533
 20
675.2349655889938
 10
915.9116941236533
 20
664.2349655889939
 10
916.3116941236529
 20
664.2349655889939
 97
        0
 75
     0
 76
     1
 52
0.0
 41
0.5
 77
     0
 78
     1
 53
0.0
 43
0.0
 44
203.3724220996446
 45
0.0
 46
1.587499999999999
 79
     0
 47
0.1511770132360599
 98
        1
 10
915.5275233593711
 20
671.0823839938275
  0
LINE
  5
4342
330
2
100
AcDbEntity
  8
AM_2
100
AcDbLine
 10
916.3116941236529
 20
686.2349655889938
 30
0.0
 11
915.9116941236531
 21
686.2349655889938
 31
0.0
  0
LEADER
  5
4343
330
2
100
AcDbEntity
  8
AM_5
100
AcDbLeader
  3
スタイル2
 76
     2
 10
756.1761727201363
 20
669.6994441854777
 30
0.0
 10
796.44425132069
 20
606.8430525640037
 30
0.0
1001
ACAD
1000
DSTYLE
1002
{
1070
   147
1040
2.0
1070
    77
1070
     0
1002
}
  0
HATCH
  5
4345
330
2
100
AcDbEntity
  8
AM_8
100
AcDbHatch
 10
0.0
 20
0.0
 30
0.0
210
0.0
220
0.0
230
1.0
  2
LINE
 70
     0
 71
     0
 91
        1
 92
        7
 72
     0
 73
     1
 93
        4
 10
915.911694123655
 20
695.7344605256053
 10
925.4111890602661
 20
686.2349655889938
 10
916.3116941236548
 20
686.2349655889938
 10
915.9116941236552
 20
686.2349655889938
 97
        0
 75
     0
 76
     1
 52
0.0
 41
0.5
 77
     0
 78
     1
 53
180.0
 43
1666.623388247307
 44
203.3724220996446
 45
0.0
 46
1.587499999999999
 79
     0
 47
0.144050002537557
 98
        1
 10
920.3946229009432
 20
690.6075488820934
  0
LINE
  5
4346
330
2
100
AcDbEntity
  8
AM_8
100
AcDbLine
 10
915.9116941236552
 20
695.7344605256053
 30
0.0
 11
925.4111890602661
 21
686.2349655889938
 31
0.0
  0
LINE
  5
4347
330
2
100
AcDbEntity
  8
AM_2
100
AcDbLine
 10
916.3116941236548
 20
686.2349655889938
 30
0.0
 11
915.9116941236552
 21
686.2349655889938
 31
0.0
  0
LINE
  5
4348
330
2
100
AcDbEntity
  8
AM_8
100
AcDbLine
 10
726.8304446973965
 20
931.4281280334112
 30
0.0
 11
726.8304446973965
 21
941.7114182395565
 31
0.0
  0
HATCH
  5
4357
330
2
100
AcDbEntity
  8
AM_8
100
AcDbHatch
 10
0.0
 20
0.0
 30
0.0
210
0.0
220
0.0
230
1.0
  2
LINE
 70
     0
 71
     0
 91
        1
 92
        7
 72
     1
 73
     1
 93
        3
 10
731.8402542962379
 20
937.6652594079411
 42
-0.0013416042750414
 10
726.8304446973965
 20
941.7114182395563
 42
0.0
 10
726.8304446973965
 20
931.4281280334112
 42
0.0
 97
        0
 75
     0
 76
     1
 52
0.0
 41
0.5
 77
     0
 78
     1
 53
0.0
 43
0.0
 44
203.3724220996446
 45
0.0
 46
1.587499999999999
 79
     0
 47
0.1917774670526886
 98
        1
 10
728.1202801281761
 20
937.5804233382478
  0
LINE
  5
4358
330
2
100
AcDbEntity
  8
AM_8
100
AcDbLine
 10
744.6059812333949
 20
917.4222905614792
 30
0.0
 11
750.711694123652
 21
901.0541414079094
 31
0.0
  0
HATCH
  5
4367
330
2
100
AcDbEntity
  8
AM_8
100
AcDbHatch
 10
0.0
 20
0.0
 30
0.0
210
0.0
220
0.0
230
1.0
  2
LINE
 70
     0
 71
     0
 91
        1
 92
        7
 72
     1
 73
     1
 93
        3
 10
750.711694123652
 20
912.7344502325696
 42
-0.0015930844251078
 10
744.6059812333949
 20
917.4222905614794
 42
0.0
 10
750.7116941236521
 20
901.054141407909
 42
0.0
 97
        0
 75
     0
 76
     1
 52
0.0
 41
0.5
 77
     0
 78
     1
 53
0.0
 43
0.0
 44
203.3724220996446
 45
0.0
 46
1.587499999999999
 79
     0
 47
0.187638394439689
 98
        1
 10
747.7923550008345
 20
911.4883469151173
  0
LINE
  5
436B
102
{ACAD_REACTORS
330
4371
102
}
330
2
100
AcDbEntity
  8
AM_8
100
AcDbLine
 10
915.9116941236534
 20
791.0164507032866
 30
0.0
 11
926.244141471399
 21
801.348898051032
 31
0.0
  0
HATCH
  5
4371
330
2
100
AcDbEntity
  8
AM_8
100
AcDbHatch
 10
0.0
 20
0.0
 30
0.0
210
0.0
220
0.0
230
1.0
  2
LINE
 70
     0
 71
     1
 91
        1
 92
        7
 72
     1
 73
     1
 93
        3
 10
926.2441414713991
 20
801.3488980510322
 42
-0.002415984658085
 10
915.9116941236534
 20
806.7823224772764
 42
0.0
 10
915.9116941236531
 20
791.0164507032865
 42
0.0
 97
        3
330
3869
330
36EE
330
436B
 75
     0
 76
     1
 52
0.0
 41
0.5
 77
     0
 78
     1
 53
0.0
 43
0.0
 44
203.3724220996446
 45
0.0
 46
1.587499999999999
 79
     0
 47
0.2361418808292489
 98
        1
 10
918.0589186351717
 20
798.6476948950512
  0
LINE
  5
4372
330
2
100
AcDbEntity
  8
AM_8
100
AcDbLine
 10
947.4439302326164
 20
790.5947947000737
 30
0.0
 11
956.7497924354174
 21
794.9341895109751
 31
0.0
  0
HATCH
  5
4379
330
2
100
AcDbEntity
  8
AM_8
100
AcDbHatch
 10
0.0
 20
0.0
 30
0.0
210
0.0
220
0.0
230
1.0
  2
LINE
 70
     0
 71
     0
 91
        1
 92
        7
 72
     1
 73
     1
 93
        3
 10
956.7497924354178
 20
794.9341895109753
 42
-0.0013365066189975
 10
950.9927233709644
 20
797.7645971562851
 42
0.0
 10
947.4439302326162
 20
790.5947947000736
 42
0.0
 97
        0
 75
     0
 76
     1
 52
0.0
 41
0.5
 77
     0
 78
     1
 53
0.0
 43
0.0
 44
203.3724220996446
 45
0.0
 46
1.587499999999999
 79
     0
 47
0.0391134633122568
 98
        1
 10
951.4206289228241
 20
794.0197616594304
  0
LINE
  5
437A
330
2
100
AcDbEntity
  8
AM_8
100
AcDbLine
 10
918.1722785501575
 20
898.1726901597699
 30
0.0
 11
925.9197731295676
 21
901.7854062136631
 31
0.0
  0
HATCH
  5
4389
330
2
100
AcDbEntity
  8
AM_8
100
AcDbHatch
 10
0.0
 20
0.0
 30
0.0
210
0.0
220
0.0
230
1.0
  2
LINE
 70
     0
 71
     0
 91
        1
 92
        7
 72
     1
 73
     1
 93
        3
 10
921.6824612555763
 20
904.2289775847832
 42
0.0
 10
918.1722785501575
 20
898.1726901597699
 42
0.0
 10
925.9197731295675
 20
901.7854062136633
 42
-0.0010918330049912
 97
        0
 75
     0
 76
     1
 52
0.0
 41
0.5
 77
     0
 78
     1
 53
0.0
 43
0.0
 44
203.3724220996446
 45
0.0
 46
1.587499999999999
 79
     0
 47
0.0735166952842381
 98
        1
 10
922.0693786175543
 20
902.0288691054483
  0
LINE
  5
438A
330
2
100
AcDbEntity
  8
AM_8
100
AcDbLine
 10
746.0873928963524
 20
1020.809408909775
 30
0.0
 11
746.0873928963524
 21
1030.085910154594
 31
0.0
  0
HATCH
  5
439A
330
2
100
AcDbEntity
  8
AM_8
100
AcDbHatch
 10
0.0
 20
0.0
 30
0.0
210
0.0
220
0.0
230
1.0
  2
LINE
 70
     0
 71
     0
 91
        1
 92
        7
 72
     1
 73
     1
 93
        3
 10
750.6664258232166
 20
1026.103977584787
 42
-0.0013545165321624
 10
746.0873928963525
 20
1030.085910154594
 42
0.0
 10
746.0873928963525
 20
1020.809408909775
 42
0.0
 97
        0
 75
     0
 76
     1
 52
0.0
 41
0.5
 77
     0
 78
     1
 53
0.0
 43
0.0
 44
203.3724220996446
 45
0.0
 46
1.587499999999999
 79
     0
 47
0.1983779264115965
 98
        1
 10
748.0285497504519
 20
1025.761153968498
  0
LEADER
  5
439B
330
2
100
AcDbEntity
  8
AM_5
100
AcDbLeader
  3
スタイル2
 76
     2
 10
745.8795903698744
 20
1025.63349882917
 30
0.0
 10
668.7235458144653
 20
901.842462206987
 30
0.0
1001
ACAD
1000
DSTYLE
1002
{
1070
   147
1040
2.5
1070
    77
1070
     0
1002
}
  0
LWPOLYLINE
  5
439C
330
2
100
AcDbEntity
  8
AM_5
100
AcDbPolyline
 90
        4
 70
     0
 43
0.0
 10
636.2235458144652
 20
901.842462206987
 10
636.2235458144652
 20
886.842462206987
 10
651.2235458144653
 20
901.842462206987
 10
636.2235458144652
 20
901.842462206987
  0
LINE
  5
439D
330
2
100
AcDbEntity
  8
AM_5
100
AcDbLine
 10
668.7235458144653
 20
901.842462206987
 30
0.0
 11
618.7235458144653
 21
901.842462206987
 31
0.0
1001
ACAD
1000
DSTYLE
1002
{
1070
   147
1040
2.0
1070
    77
1070
     1
1002
}
  0
CIRCLE
  5
439E
330
2
100
AcDbEntity
  8
AM_5
100
AcDbCircle
 10
668.7235458144653
 20
901.842462206987
 30
0.0
 40
3.75
  0
DIMENSION
  5
43A0
330
2
100
AcDbEntity
  8
AM_5
100
AcDbDimension
  2
*D34
 10
1483.31169412365
 20
1873.234965588991
 30
0.0
 11
665.4126263507639
 21
1390.233181065413
 31
0.0
 70
   164
  1
R1120(Inner Vessel Outer Wall)
 71
     5
 42
1119.999999999997
  3
スタイル2$4
100
AcDbRadialDimension
 15
518.9179497656289
 25
1303.722274033212
 35
0.0
 40
0.0
  0
DIMENSION
  5
43A9
330
2
100
AcDbEntity
  8
AM_5
100
AcDbDimension
  2
*D35
 10
1483.311694123654
 20
1873.234965588998
 30
0.0
 11
719.4577330008618
 21
1329.463554295197
 31
0.0
 70
   164
  1
R1200(Outer Vessel Outer Wall)
 71
     5
 42
1200.0
  3
スタイル2$4
100
AcDbRadialDimension
 15
505.7198577731589
 25
1177.308100537168
 35
0.0
 40
0.0
  0
ATTDEF
  5
5039
330
2
100
AcDbEntity
  8
A1枠
100
AcDbText
 10
31375.18777760976
 20
5487.248486948543
 30
0.0
 40
15.0
  1

  7
表題
 11
31375.18777760976
 21
5494.748486948544
 31
0.0
100
AcDbAttributeDefinition
  3
部品名称
  2

 70
     0
 74
     2
  0
ATTDEF
  5
503A
330
2
100
AcDbEntity
  8
A1枠
100
AcDbText
 10
31375.18777760976
 20
5562.248486948544
 30
0.0
 40
15.0
  1

  7
表題
 11
31375.18777760976
 21
5569.748486948544
 31
0.0
100
AcDbAttributeDefinition
  3
部品名称
  2

 70
     0
 74
     2
  0
ATTDEF
  5
503B
330
2
100
AcDbEntity
  8
A1枠
100
AcDbText
 10
31697.8939470865
 20
5562.248486948549
 30
0.0
 40
15.0
  1

  7
表題
 11
31697.8939470865
 21
5569.748486948549
 31
0.0
100
AcDbAttributeDefinition
  3
素材寸法
  2

 70
     0
 74
     2
  0
ATTDEF
  5
503C
330
2
100
AcDbEntity
  8
A1枠
100
AcDbText
 10
31697.8939470865
 20
5512.248486948549
 30
0.0
 40
15.0
  1

  7
表題
 11
31697.8939470865
 21
5519.748486948549
 31
0.0
100
AcDbAttributeDefinition
  3
素材寸法
  2

 70
     0
 74
     2
  0
MTEXT
  5
503D
330
2
100
AcDbEntity
  8
A1枠
 62
     9
100
AcDbMText
 10
23561.75213889072
 20
5178.050636130712
 30
0.0
 40
12.5
 41
0.0
 71
     5
 72
     5
  1

  7
表題
 73
     1
 44
1.0
  0
ATTDEF
  5
503E
330
2
100
AcDbEntity
  8
A1枠
100
AcDbText
 10
33159.16618760915
 20
5363.880815926492
 30
0.0
 40
15.0
  1

  7
表題
 11
33159.16618760915
 21
5371.380815926492
 31
0.0
100
AcDbAttributeDefinition
  3
部品名称
  2

 70
     0
 74
     2
  0
ATTDEF
  5
503F
330
2
100
AcDbEntity
  8
A1枠
100
AcDbText
 10
33159.16618760915
 20
5438.880815926491
 30
0.0
 40
15.0
  1

  7
表題
 11
33159.16618760915
 21
5446.380815926492
 31
0.0
100
AcDbAttributeDefinition
  3
部品名称
  2

 70
     0
 74
     2
  0
ATTDEF
  5
5040
330
2
100
AcDbEntity
  8
A1枠
100
AcDbText
 10
33481.8723570859
 20
5438.880815926498
 30
0.0
 40
15.0
  1

  7
表題
 11
33481.8723570859
 21
5446.380815926497
 31
0.0
100
AcDbAttributeDefinition
  3
素材寸法
  2

 70
     0
 74
     2
  0
ATTDEF
  5
5041
330
2
100
AcDbEntity
  8
A1枠
100
AcDbText
 10
33481.8723570859
 20
5388.880815926498
 30
0.0
 40
15.0
  1

  7
表題
 11
33481.8723570859
 21
5396.380815926497
 31
0.0
100
AcDbAttributeDefinition
  3
素材寸法
  2

 70
     0
 74
     2
  0
MTEXT
  5
5095
330
2
100
AcDbEntity
  8
AM_5
100
AcDbMText
 10
20981.4883290433
 20
4810.869065401382
 30
0.0
 40
3.5
 41
0.0
 71
     7
 72
     1
  1

  7
スタイル１
 73
     1
 44
1.0
  0
ATTDEF
  5
509C
330
2
100
AcDbEntity
  8
A1枠
100
AcDbText
 10
41232.54508672377
 20
7061.760039899524
 30
0.0
 40
15.0
  1

  7
表題
 11
41232.54508672377
 21
7069.260039899524
 31
0.0
100
AcDbAttributeDefinition
  3
部品名称
  2

 70
     0
 74
     2
  0
ATTDEF
  5
509D
330
2
100
AcDbEntity
  8
A1枠
100
AcDbText
 10
41232.54508672377
 20
7136.760039899524
 30
0.0
 40
15.0
  1

  7
表題
 11
41232.54508672377
 21
7144.260039899524
 31
0.0
100
AcDbAttributeDefinition
  3
部品名称
  2

 70
     0
 74
     2
  0
ATTDEF
  5
509E
330
2
100
AcDbEntity
  8
A1枠
100
AcDbText
 10
41555.25125620051
 20
7136.760039899529
 30
0.0
 40
15.0
  1

  7
表題
 11
41555.25125620051
 21
7144.260039899529
 31
0.0
100
AcDbAttributeDefinition
  3
素材寸法
  2

 70
     0
 74
     2
  0
ATTDEF
  5
509F
330
2
100
AcDbEntity
  8
A1枠
100
AcDbText
 10
41555.25125620051
 20
7086.760039899529
 30
0.0
 40
15.0
  1

  7
表題
 11
41555.25125620051
 21
7094.26003989953
 31
0.0
100
AcDbAttributeDefinition
  3
素材寸法
  2

 70
     0
 74
     2
  0
MTEXT
  5
50A0
330
2
100
AcDbEntity
  8
AM_5
100
AcDbMText
 10
39625.3104687987
 20
8717.95258951032
 30
0.0
 40
17.5
 41
0.0
 71
     9
 72
     1
  1

  7
スタイル１
 73
     1
 44
1.0
  0
DIMENSION
  5
574F
330
2
100
AcDbEntity
  8
AM_5
100
AcDbDimension
  2
*D36
 10
3631.292031226195
 20
2010.988746404465
 30
0.0
 11
3078.361563147693
 21
1038.982424582493
 31
0.0
 70
   164
 71
     5
 42
1199.999999999996
  3
スタイル2$4
100
AcDbRadialDimension
 15
3037.950170400559
 25
967.9425172314886
 35
0.0
 40
0.0
  0
DIMENSION
  5
5758
330
2
100
AcDbEntity
  8
AM_5
100
AcDbDimension
  2
*D37
 10
3193.139478683093
 20
1992.294085411503
 30
0.0
 11
2604.136610565605
 21
1019.609797354212
 31
0.0
 70
   164
 71
     5
 42
1200.0
  3
スタイル2$4
100
AcDbRadialDimension
 15
2571.565498195219
 25
965.8215885658938
 35
0.0
 40
0.0
  0
DIMENSION
  5
577E
330
2
100
AcDbEntity
  8
AM_5
100
AcDbDimension
  2
*D38
 10
2471.539478683093
 20
1079.671323781279
 30
0.0
 11
2501.052169038422
 21
1088.671323781279
 31
0.0
 70
    32
  1
t<>
 71
     5
 42
11.0000000000009
  3
スタイル2
100
AcDbAlignedDimension
 13
2460.539478683092
 23
1041.874578035946
 33
0.0
 14
2471.539478683093
 24
1033.496171354532
 34
0.0
100
AcDbRotatedDimension
  0
LINE
  5
57AF
330
2
100
AcDbEntity
  8
AM_11
100
AcDbLine
 10
1891.208058167172
 20
1587.033497322392
 30
0.0
 11
1891.208058167172
 21
1565.033497322392
 31
0.0
  0
LINE
  5
57B0
330
2
100
AcDbEntity
  8
AM_11
100
AcDbLine
 10
2031.208058167172
 20
1587.033497322392
 30
0.0
 11
2031.208058167172
 21
1565.033497322392
 31
0.0
  0
DIMENSION
  5
57B1
330
2
100
AcDbEntity
  8
AM_5
100
AcDbDimension
  2
*D39
 10
2031.208058167172
 20
1676.722009335149
 30
0.0
 11
1961.208058167172
 21
1685.757542330072
 31
0.0
 70
    32
  1
140 diam.
 71
     5
 42
140.0
  3
スタイル2
100
AcDbAlignedDimension
 13
1891.208058167172
 23
1576.033497322392
 33
0.0
 14
2031.208058167172
 24
1576.033497322392
 34
0.0
100
AcDbRotatedDimension
  0
DIMENSION
  5
57C7
330
2
100
AcDbEntity
  8
AM_5
100
AcDbDimension
  2
*D40
 10
2101.208058167172
 20
1676.722009335149
 30
0.0
 11
2169.411103852451
 21
1685.757542330072
 31
0.0
 70
    32
  1
Polished Area
 71
     5
 42
70.0
  3
スタイル2
100
AcDbAlignedDimension
 13
2031.208058167172
 23
1576.033497322392
 33
0.0
 14
2101.208058167172
 24
1576.033497322392
 34
0.0
100
AcDbRotatedDimension
  0
LEADER
  5
57E9
330
2
100
AcDbEntity
  8
AM_5
100
AcDbLeader
  3
スタイル2
 76
     2
 10
2047.377750284729
 20
1576.033497322392
 30
0.0
 10
2144.633258342459
 20
1827.723289625024
 30
0.0
1001
ACAD
1000
DSTYLE
1002
{
1070
   147
1040
2.0
1070
    77
1070
     0
1002
}
  0
LEADER
  5
57ED
330
2
100
AcDbEntity
  8
AM_5
100
AcDbLeader
  3
スタイル2
 73
     0
 74
     0
 75
     1
 40
16.77157360406091
 41
134.8121827411167
 76
     3
 10
2088.572795016248
 20
685.4187348942461
 30
0.0
 10
2121.133661667176
 20
740.7421248698228
 30
0.0
 10
2129.133661667176
 20
740.7421248698228
 30
0.0
340
57EE
1001
ACAD
1000
DSTYLE
1002
{
1070
   147
1040
2.0
1070
    77
1070
     1
1002
}
  0
MTEXT
  5
57EE
102
{ACAD_REACTORS
330
57ED
102
}
330
2
100
AcDbEntity
  8
AM_5
 62
     2
100
AcDbMText
 10
2131.133661667175
 20
742.7421248698228
 30
0.0
 40
14.0
 41
0.0
 71
     7
 72
     1
  1
8-M20x2.5 Screw Hole
  7
スタイル１
 73
     1
 44
1.0
  0
DIMENSION
  5
588A
330
2
100
AcDbEntity
  8
AM_5
100
AcDbDimension
  2
*D41
 10
1383.31169412385
 20
423.4963641085378
 30
0.0
 11
1323.811694123725
 21
432.4963641085378
 31
0.0
 70
    32
 71
     5
 42
119.0000000002501
  3
スタイル2
100
AcDbAlignedDimension
 13
1264.311694123599
 23
774.8547946099392
 33
0.0
 14
1383.31169412385
 24
686.7953337491819
 34
0.0
100
AcDbRotatedDimension
1001
ACAD
1000
DSTYLE
1002
{
1070
   279
1070
     1
1002
}
  0
DIMENSION
  5
5897
330
2
100
AcDbEntity
  8
AM_5
100
AcDbDimension
  2
*D42
 10
1483.311694123653
 20
423.4963641085378
 30
0.0
 11
1433.311694123751
 21
432.4963641085378
 31
0.0
 70
    32
 71
     5
 42
99.9999999998031
  3
スタイル2
100
AcDbAlignedDimension
 13
1383.31169412385
 23
686.7953337491819
 33
0.0
 14
1483.311694123653
 24
591.2349655889934
 34
0.0
100
AcDbRotatedDimension
1001
ACAD
1000
DSTYLE
1002
{
1070
   279
1070
     1
1002
}
  0
DIMENSION
  5
58B1
330
2
100
AcDbEntity
  8
AM_5
100
AcDbDimension
  2
*D43
 10
1264.311694123599
 20
423.4963641085378
 30
0.0
 11
1048.811694123627
 21
432.4963641085378
 31
0.0
 70
    32
 71
     5
 42
430.9999999999456
  3
スタイル2
100
AcDbAlignedDimension
 13
833.3116941236541
 23
592.2349655889938
 33
0.0
 14
1264.311694123599
 24
770.8547946099392
 34
0.0
100
AcDbRotatedDimension
  0
DIMENSION
  5
58BE
330
2
100
AcDbEntity
  8
AM_5
100
AcDbDimension
  2
*D44
 10
1368.311694123653
 20
363.2129782945667
 30
0.0
 11
1100.811694123653
 21
372.2129782945667
 31
0.0
 70
    32
 71
     5
 42
534.999999999999
  3
スタイル2
100
AcDbAlignedDimension
 13
833.3116941236541
 23
588.2349655889938
 33
0.0
 14
1368.311694123653
 24
678.7580926441941
 34
0.0
100
AcDbRotatedDimension
  0
DIMENSION
  5
58CB
330
2
100
AcDbEntity
  8
AM_5
100
AcDbDimension
  2
*D45
 10
1483.311694123653
 20
363.2129782945667
 30
0.0
 11
1425.811694123653
 21
372.2129782945667
 31
0.0
 70
    32
 71
     5
 42
114.9999999999997
  3
スタイル2
100
AcDbAlignedDimension
 13
1368.311694123653
 23
678.7580926441941
 33
0.0
 14
1483.311694123653
 24
591.2349655889934
 34
0.0
100
AcDbRotatedDimension
1001
ACAD
1000
DSTYLE
1002
{
1070
   279
1070
     1
1002
}
  0
DIMENSION
  5
58D8
330
2
100
AcDbEntity
  8
AM_5
100
AcDbDimension
  2
*D46
 10
1483.311694123653
 20
306.9484939543453
 30
0.0
 11
1158.311694123653
 21
315.9484939543454
 31
0.0
 70
    32
 71
     5
 42
649.9999999999988
  3
スタイル2
100
AcDbAlignedDimension
 13
833.3116941236541
 23
584.2349655889939
 33
0.0
 14
1483.311694123653
 24
587.2349655889934
 34
0.0
100
AcDbRotatedDimension
  0
DIMENSION
  5
5906
330
2
100
AcDbEntity
  8
AM_5
100
AcDbDimension
  2
*D47
 10
1615.279242705328
 20
1873.234965588993
 30
0.0
 11
1606.279242705328
 21
1257.734965588994
 31
0.0
 70
    32
 71
     5
 42
1230.999999999999
  3
スタイル2
100
AcDbAlignedDimension
 13
973.3116941236529
 23
642.2349655889938
 33
0.0
 14
1626.775528561061
 24
1873.234965588993
 34
0.0
 50
90.0
100
AcDbRotatedDimension
1001
ACAD
1000
DSTYLE
1002
{
1070
   271
1070
     2
1070
   272
1070
     2
1002
}
  0
CIRCLE
  5
591D
330
2
100
AcDbEntity
  8
AM_5
100
AcDbCircle
 10
1047.5065094589
 20
496.2202620316211
 30
0.0
 40
17.5
  0
MTEXT
  5
591E
330
2
100
AcDbEntity
  8
AM_5
100
AcDbMText
 10
1046.580384223469
 20
495.9894326419608
 30
0.0
 40
17.5
 41
0.0
 71
     5
 72
     5
  1
7
  7
スタイル１
 73
     1
 44
1.0
  0
LEADER
  5
591F
330
2
100
AcDbEntity
  8
AM_5
100
AcDbLeader
  3
スタイル2
 76
     2
 10
968.9001513917727
 20
626.2349655889939
 30
0.0
 10
1038.452276951889
 20
511.1959381001319
 30
0.0
1001
ACAD
1000
DSTYLE
1002
{
1070
   147
1040
2.0
1070
    77
1070
     1
1002
}
  0
DIMENSION
  5
5920
330
2
100
AcDbEntity
  8
AM_5
100
AcDbDimension
  2
*D48
 10
1885.69660466583
 20
844.35918016104
 30
0.0
 11
1859.072239183596
 21
853.35918016104
 31
0.0
 70
    32
 71
     5
 42
5.0
  3
スタイル2
100
AcDbAlignedDimension
 13
1880.696604665829
 23
908.413689915163
 33
0.0
 14
1885.69660466583
 24
908.4136899151641
 34
0.0
100
AcDbRotatedDimension
1001
ACAD
1000
DSTYLE
1002
{
1070
   280
1070
     1
1002
}
  0
LEADER
  5
5948
330
2
100
AcDbEntity
  8
AM_5
100
AcDbLeader
  3
スタイル2
 73
     0
 74
     0
 75
     1
 40
16.70050761421319
 41
90.18274111675127
 76
     3
 10
2016.695759359821
 20
2039.921815727882
 30
0.0
 10
2078.827135638268
 20
2111.684353596639
 30
0.0
 10
2086.827135638268
 20
2111.684353596639
 30
0.0
340
5949
1001
ACAD
1000
DSTYLE
1002
{
1070
   147
1040
2.0
1070
    77
1070
     1
1002
}
  0
MTEXT
  5
5949
102
{ACAD_REACTORS
330
5948
102
}
330
2
100
AcDbEntity
  8
AM_5
 62
     2
100
AcDbMText
 10
2088.827135638268
 20
2113.68435359664
 30
0.0
 40
14.0
 41
0.0
 71
     7
 72
     1
  1
8-23 diam. Through Hole
  7
スタイル１
 73
     1
 44
1.0
  0
DIMENSION
  5
599A
330
2
100
AcDbEntity
  8
AM_5
100
AcDbDimension
  2
*D49
 10
2158.202211885969
 20
907.4136899151636
 30
0.0
 11
2149.202211885969
 21
885.7893244329304
 31
0.0
 70
    32
 71
     5
 42
3.0
  3
スタイル2
100
AcDbAlignedDimension
 13
2065.69660466583
 23
910.4136899151635
 33
0.0
 14
2117.196604665829
 24
907.4136899151636
 34
0.0
 50
90.0
100
AcDbRotatedDimension
  0
REGION
  5
59C5
330
2
100
AcDbEntity
  8
AM_5
 62
     1
100
AcDbModelerGeometry
 70
     1
  1
koo mn n o          
  1
h J1410(1 nl ^ \VL kqoqm QK mk R01 R>- nh ngekienj mool 
  1
rn fqfffffffffffffffj:rooh n:rono 
  1
=0;& {rn {n {rn {rn |
  1
3*2/ {rn {rn {m {o |
  1
,7:33 {rn {rn {rn {l {rn {n |
  1
9><: {rn {rn {k {m {rn {j -:):-,:; ;0*=3: 0*+ |
  1
300/ {rn {rn {i {l |
  1
/3>1:r,*-9><: {rn mmihqgkmggnnkijghk mniqloljniinllifjk o o o rn rk o o 90-(>-;@) V V V V |
  1
<0:;8: {rn {h {g {rn {f 90-(>-; {k {rn |
  1
<0:;8: {rn {g {i {rn {no 90-(>-; {k {rn |
  1
<0:;8: {rn {i {h {rn {nn 90-(>-; {k {rn |
  1
:;8: {rn {nm {nl {i {nk 90-(>-; |
  1
:;8: {rn {nl {nj {h {ni 90-(>-; |
  1
:;8: {rn {nj {nm {g {nh 90-(>-; |
  1
):-+:' {rn {f {ng |
  1
):-+:' {rn {f {nf |
  1
,+->687+r<*-): {rn mmjjqgllffjjkhkjol mofqlhonglmgoolink o k o o V V |
  1
):-+:' {rn {no {mo |
  1
,+->687+r<*-): {rn mmhfqgjnhiihkjhlil mofqlhonglmgoolink o rmqoooooooooooonmog lqkiknoninjnlhigkh o V V |
  1
,+->687+r<*-): {rn mmihqgkmggnnkijghk mloqnhonglmgoolill o rnqffffffffffffgflk rlqkiknoninjnlhgnin o V V |
  1
/061+ {rn mmjjqgllffjjkhkjol mofqlhonglmgoolink o |
  1
/061+ {rn mmhfqgjnhiihkjhlil mofqlhonglmgoolink o |
  1
/061+ {rn mmihqgkmggnnkijghk mloqnhonglmgoolill o |
  0
MTEXT
  5
59C6
330
2
100
AcDbEntity
  8
AM_5
  6
Continuous
 62
     1
100
AcDbMText
 10
2268.294043510477
 20
217.3003473226444
 30
0.0
 40
10.0
 41
0.0
 71
     5
 72
     5
  1
3
  7
TITLE
 73
     1
 44
1.0
  0
MTEXT
  5
59C7
330
2
100
AcDbEntity
  8
AM_6
100
AcDbMText
 10
2392.507168288076
 20
218.9180120946821
 30
0.0
 40
22.5
 41
0.0
 71
     5
 72
     5
  1
Produce a pair  
  7
スタイル１
 73
     1
 44
1.0
  0
LINE
  5
59C8
330
2
100
AcDbEntity
  8
AM_6
100
AcDbLine
 10
2290.799423289343
 20
201.3355743991541
 30
0.0
 11
2500.773800483395
 21
201.3355743991541
 31
0.0
  0
MTEXT
  5
59CA
330
2
100
AcDbEntity
  8
A1枠
  6
Continuous
 62
     9
100
AcDbMText
 10
110.2671873617145
 20
155.3660530228505
 30
0.0
 40
8.8
 41
0.0
 71
     5
 72
     5
  1
2002,9,2
  7
TITLE
 73
     1
 44
1.0
  0
LINE
  5
59CB
330
2
100
AcDbEntity
  8
A1枠
 62
     9
100
AcDbLine
 10
40.00000000086288
 20
170.0000000000213
 30
0.0
 11
520.0000000008627
 21
170.0000000000172
 31
0.0
  0
LINE
  5
59CC
330
2
100
AcDbEntity
  8
A1枠
 62
     9
100
AcDbLine
 10
40.00000000086288
 20
142.0000000000213
 30
0.0
 11
520.0000000008627
 21
142.0000000000172
 31
0.0
  0
REGION
  5
59CD
330
2
100
AcDbEntity
  8
A1枠
 62
     9
100
AcDbModelerGeometry
 70
     1
  1
koo mn n o          
  1
h J1410(1 nl ^ \VL kqoqm QK mk R01 R>- nh ngekienj mool 
  1
rn fqfffffffffffffffj:rooh n:rono 
  1
=0;& {rn {n {rn {rn |
  1
3*2/ {rn {rn {m {o |
  1
,7:33 {rn {rn {rn {l {rn {n |
  1
9><: {rn {rn {k {m {rn {j -:):-,:; ;0*=3: 0*+ |
  1
300/ {rn {rn {i {l |
  1
/3>1:r,*-9><: {rn jfqfffffffffffifl njmqjllllllllljghh o o o rn rk o o 90-(>-;@) V V V V |
  1
<0:;8: {rn {h {g {rn {f 90-(>-; {k {rn |
  1
<0:;8: {rn {g {i {rn {no 90-(>-; {k {rn |
  1
<0:;8: {rn {i {h {rn {nn 90-(>-; {k {rn |
  1
:;8: {rn {nm {nl {i {nk 90-(>-; |
  1
:;8: {rn {nl {nj {h {ni 90-(>-; |
  1
:;8: {rn {nj {nm {g {nh 90-(>-; |
  1
):-+:' {rn {f {ng |
  1
):-+:' {rn {f {nf |
  1
,+->687+r<*-): {rn khqffnnnkkoogjfhnj nkjqiooooooooomjlh o k o o V V |
  1
):-+:' {rn {no {mo |
  1
,+->687+r<*-): {rn hmqoogggjjffnkjgji nkjqiooooooooomjlh o rmqoooooooooooonmog lqkiknoninjnlhigkh o V V |
  1
,+->687+r<*-): {rn jfqfffffffffffifl niiqkooooooooomjji o rnqffffffffffffgflk rlqkiknoninjnlhgnin o V V |
  1
/061+ {rn khqffnnnkkoogjfhnj nkjqiooooooooomjlh o |
  1
/061+ {rn hmqoogggjjffnkjgji nkjqiooooooooomjlh o |
  1
/061+ {rn jfqfffffffffffifl niiqkooooooooomjji o |
  0
MTEXT
  5
59CE
330
2
100
AcDbEntity
  8
A1枠
  6
Continuous
 62
     9
100
AcDbMText
 10
60.45116236388707
 20
153.5301640426337
 30
0.0
 40
10.0
 41
0.0
 71
     5
 72
     5
  1
3
  7
TITLE
 73
     1
 44
1.0
  0
MTEXT
  5
59CF
330
2
100
AcDbEntity
  8
A1枠
  6
Continuous
 62
     9
100
AcDbMText
 10
273.2164398277192
 20
156.7541599842442
 30
0.0
 40
10.0
 41
0.0
 71
     5
 72
     5
  1
Number of Products added
  7
TITLE
 73
     1
 44
1.0
  0
MTEXT
  5
59D0
330
2
100
AcDbEntity
  8
A1枠
  6
Continuous
 62
     9
100
AcDbMText
 10
429.2266119189226
 20
156.7541599842442
 30
0.0
 40
10.0
 41
0.0
 71
     5
 72
     5
  1
Urakawa
  7
TITLE
 73
     1
 44
1.0
  0
MTEXT
  5
59D1
330
2
100
AcDbEntity
  8
A1枠
  6
Continuous
 62
     9
100
AcDbMText
 10
489.2266119189225
 20
156.7541599842442
 30
0.0
 40
10.0
 41
0.0
 71
     5
 72
     5
  1
Kamioka
  7
TITLE
 73
     1
 44
1.0
  0
ENDSEC
  0
SECTION
  2
OBJECTS
  0
DICTIONARY
  5
7
330
0
100
AcDbDictionary
281
     1
  3
ACAD_GROUP
350
1F
  3
ACAD_LAYOUT
350
B
  3
ACAD_MLINESTYLE
350
20
  3
ACAD_PLOTSETTINGS
350
21
  3
ACAD_PLOTSTYLENAME
350
6
  3
AcadDim
350
57EC
  3
AcDbVariableDictionary
350
46E
  0
DICTIONARY
  5
1F
102
{ACAD_REACTORS
330
7
102
}
330
7
100
AcDbDictionary
281
     1
  0
DICTIONARY
  5
B
102
{ACAD_REACTORS
330
7
102
}
330
7
100
AcDbDictionary
281
     1
  3
Model
350
A
  3
ﾚｲｱｳﾄ1
350
F
  0
DICTIONARY
  5
20
102
{ACAD_REACTORS
330
7
102
}
330
7
100
AcDbDictionary
281
     1
  3
Standard
350
22
  0
DICTIONARY
  5
21
102
{ACAD_REACTORS
330
7
102
}
330
7
100
AcDbDictionary
281
     1
  0
ACDBDICTIONARYWDFLT
  5
6
102
{ACAD_REACTORS
330
7
102
}
330
7
100
AcDbDictionary
281
     1
  3
Normal
350
5
100
AcDbDictionaryWithDefault
340
5
  0
XRECORD
  5
57EC
102
{ACAD_REACTORS
330
7
102
}
330
7
100
AcDbXrecord
280
     1
 90
   990106
  3

 60
     0
 61
     0
 62
     1
 63
     3
 64
     1
 65
     0
 66
     0
 67
     3
 68
     1
 69
     0
 70
     0
 71
     0
 72
     0
 40
0.0
170
     2
340
5949
  0
DICTIONARY
  5
46E
102
{ACAD_REACTORS
330
7
102
}
330
7
100
AcDbDictionary
281
     1
  3
DIMASSOC
350
46F
  0
LAYOUT
  5
A
102
{ACAD_REACTORS
330
B
102
}
330
B
100
AcDbPlotSettings
  1

  2
HP DesignJet 700 (E (2000i).pc3
  4
User271
  6

 40
4.995333194732666
 41
16.97562789916992
 42
4.99530029296875
 43
16.97564697265625
 44
593.97900390625
 45
840.9093017578125
 46
0.0
 47
0.0
 48
6471.454911101634
 49
1600.420131132477
140
7111.142337990078
141
1987.294270251304
142
1.0
143
4.0
 70
 11936
 72
     1
 73
     1
 74
     2
  7
monochrome.ctb
 75
     0
147
0.25
148
20.0
149
10.0
100
AcDbLayout
  1
Model
 70
     1
 71
     0
 10
0.0
 20
0.0
 11
12.0
 21
9.0
 12
0.0
 22
0.0
 32
0.0
 14
0.0
 24
0.0
 34
0.0
 15
0.0
 25
0.0
 35
0.0
146
0.0
 13
0.0
 23
0.0
 33
0.0
 16
1.0
 26
0.0
 36
0.0
 17
0.0
 27
1.0
 37
0.0
 76
     0
330
2
  0
LAYOUT
  5
F
102
{ACAD_REACTORS
330
B
102
}
330
B
100
AcDbPlotSettings
  1

  2
EPSON VP-1000
  4

  6

 40
0.0
 41
0.0
 42
0.0
 43
0.0
 44
0.0
 45
0.0
 46
0.0
 47
0.0
 48
0.0
 49
0.0
140
0.0
141
0.0
142
1.0
143
1.0
 70
   688
 72
     0
 73
     0
 74
     5
  7
monochrome.ctb
 75
    16
147
1.0
148
0.0
149
0.0
100
AcDbLayout
  1
ﾚｲｱｳﾄ1
 70
     1
 71
     1
 10
0.0
 20
0.0
 11
420.0
 21
297.0
 12
0.0
 22
0.0
 32
0.0
 14
1.000000000000000E+20
 24
1.000000000000000E+20
 34
1.000000000000000E+20
 15
-1.000000000000000E+20
 25
-1.000000000000000E+20
 35
-1.000000000000000E+20
146
0.0
 13
0.0
 23
0.0
 33
0.0
 16
1.0
 26
0.0
 36
0.0
 17
0.0
 27
1.0
 37
0.0
 76
     0
330
C
  0
MLINESTYLE
  5
22
102
{ACAD_REACTORS
330
20
102
}
330
20
100
AcDbMlineStyle
  2
STANDARD
 70
     0
  3

 62
   256
 51
90.0
 52
90.0
 71
     2
 49
0.5
 62
   256
  6
BYLAYER
 49
-0.5
 62
   256
  6
BYLAYER
  0
ACDBPLACEHOLDER
  5
5
102
{ACAD_REACTORS
330
6
102
}
330
6
  0
DICTIONARYVAR
  5
46F
102
{ACAD_REACTORS
330
46E
102
}
330
46E
100
DictionaryVariables
280
     0
  1
1
  0
ENDSEC
  0
EOF
