  0
SECTION
  2
HEADER
  9
$ACADVER
  1
AC1015
  9
$ACADMAINTVER
 70
     6
  9
$DWGCODEPAGE
  3
ANSI_932
  9
$INSBASE
 10
0.0
 20
0.0
 30
0.0
  9
$EXTMIN
 10
-25.0
 20
-12.50000000000056
 30
-0.00000001
  9
$EXTMAX
 10
4097.8
 20
2961.377004843335
 30
0.00000001
  9
$LIMMIN
 10
-25.0
 20
-12.5
  9
$LIMMAX
 10
4097.8
 20
2845.2
  9
$ORTHOMODE
 70
     0
  9
$REGENMODE
 70
     1
  9
$FILLMODE
 70
     1
  9
$QTEXTMODE
 70
     0
  9
$MIRRTEXT
 70
     1
  9
$LTSCALE
 40
5.0
  9
$ATTMODE
 70
     1
  9
$TEXTSIZE
 40
4.5
  9
$TRACEWID
 40
1.0
  9
$TEXTSTYLE
  7
表題
  9
$CLAYER
  8
AM_5
  9
$CELTYPE
  6
ByLayer
  9
$CECOLOR
 62
   256
  9
$CELTSCALE
 40
1.0
  9
$DISPSILH
 70
     0
  9
$DIMSCALE
 40
1.0
  9
$DIMASZ
 40
10.0
  9
$DIMEXO
 40
5.0
  9
$DIMDLI
 40
43.75
  9
$DIMRND
 40
0.0
  9
$DIMDLE
 40
0.0
  9
$DIMEXE
 40
5.0
  9
$DIMTP
 40
0.0
  9
$DIMTM
 40
0.000000001
  9
$DIMTXT
 40
17.5
  9
$DIMCEN
 40
0.0
  9
$DIMTSZ
 40
0.0
  9
$DIMTOL
 70
     0
  9
$DIMLIM
 70
     0
  9
$DIMTIH
 70
     0
  9
$DIMTOH
 70
     0
  9
$DIMSE1
 70
     0
  9
$DIMSE2
 70
     0
  9
$DIMTAD
 70
     1
  9
$DIMZIN
 70
     8
  9
$DIMBLK
  1
Open30
  9
$DIMASO
 70
     1
  9
$DIMSHO
 70
     1
  9
$DIMPOST
  1

  9
$DIMAPOST
  1

  9
$DIMALT
 70
     0
  9
$DIMALTD
 70
     3
  9
$DIMALTF
 40
25.4
  9
$DIMLFAC
 40
1.0
  9
$DIMTOFL
 70
     1
  9
$DIMTVP
 40
0.0
  9
$DIMTIX
 70
     0
  9
$DIMSOXD
 70
     0
  9
$DIMSAH
 70
     0
  9
$DIMBLK1
  1

  9
$DIMBLK2
  1

  9
$DIMSTYLE
  2
スタイル2
  9
$DIMCLRD
 70
     2
  9
$DIMCLRE
 70
     2
  9
$DIMCLRT
 70
     0
  9
$DIMTFAC
 40
1.0
  9
$DIMGAP
 40
5.0
  9
$DIMJUST
 70
     0
  9
$DIMSD1
 70
     0
  9
$DIMSD2
 70
     0
  9
$DIMTOLJ
 70
     1
  9
$DIMTZIN
 70
     0
  9
$DIMALTZ
 70
     0
  9
$DIMALTTZ
 70
     0
  9
$DIMUPT
 70
     0
  9
$DIMDEC
 70
     2
  9
$DIMTDEC
 70
     2
  9
$DIMALTU
 70
     2
  9
$DIMALTTD
 70
     3
  9
$DIMTXSTY
  7
スタイル１
  9
$DIMAUNIT
 70
     0
  9
$DIMADEC
 70
     0
  9
$DIMALTRND
 40
0.0
  9
$DIMAZIN
 70
     0
  9
$DIMDSEP
 70
    46
  9
$DIMATFIT
 70
     0
  9
$DIMFRAC
 70
     0
  9
$DIMLDRBLK
  1
Open30
  9
$DIMLUNIT
 70
     2
  9
$DIMLWD
 70
    -2
  9
$DIMLWE
 70
    -2
  9
$DIMTMOVE
 70
     0
  9
$LUNITS
 70
     2
  9
$LUPREC
 70
     4
  9
$SKETCHINC
 40
1.0
  9
$FILLETRAD
 40
38.77
  9
$AUNITS
 70
     0
  9
$AUPREC
 70
     0
  9
$MENU
  1
.
  9
$ELEVATION
 40
0.0
  9
$PELEVATION
 40
0.0
  9
$THICKNESS
 40
0.0
  9
$LIMCHECK
 70
     0
  9
$CHAMFERA
 40
10.0
  9
$CHAMFERB
 40
10.0
  9
$CHAMFERC
 40
20.0
  9
$CHAMFERD
 40
0.0
  9
$SKPOLY
 70
     0
  9
$TDCREATE
 40
2452325.298286921
  9
$TDUCREATE
 40
2452325.256620254
  9
$TDUPDATE
 40
2452716.805031678
  9
$TDUUPDATE
 40
2452716.763365011
  9
$TDINDWG
 40
0.3601350694
  9
$TDUSRTIMER
 40
0.3601350694
  9
$USRTIMER
 70
     1
  9
$ANGBASE
 50
0.0
  9
$ANGDIR
 70
     0
  9
$PDMODE
 70
     0
  9
$PDSIZE
 40
0.0
  9
$PLINEWID
 40
0.0
  9
$SPLFRAME
 70
     0
  9
$SPLINETYPE
 70
     6
  9
$SPLINESEGS
 70
     8
  9
$HANDSEED
  5
59C
  9
$SURFTAB1
 70
     6
  9
$SURFTAB2
 70
     6
  9
$SURFTYPE
 70
     6
  9
$SURFU
 70
     6
  9
$SURFV
 70
     6
  9
$UCSBASE
  2

  9
$UCSNAME
  2

  9
$UCSORG
 10
0.0
 20
0.0
 30
0.0
  9
$UCSXDIR
 10
1.0
 20
0.0
 30
0.0
  9
$UCSYDIR
 10
0.0
 20
1.0
 30
0.0
  9
$UCSORTHOREF
  2

  9
$UCSORTHOVIEW
 70
     0
  9
$UCSORGTOP
 10
0.0
 20
0.0
 30
0.0
  9
$UCSORGBOTTOM
 10
0.0
 20
0.0
 30
0.0
  9
$UCSORGLEFT
 10
0.0
 20
0.0
 30
0.0
  9
$UCSORGRIGHT
 10
0.0
 20
0.0
 30
0.0
  9
$UCSORGFRONT
 10
0.0
 20
0.0
 30
0.0
  9
$UCSORGBACK
 10
0.0
 20
0.0
 30
0.0
  9
$PUCSBASE
  2

  9
$PUCSNAME
  2

  9
$PUCSORG
 10
0.0
 20
0.0
 30
0.0
  9
$PUCSXDIR
 10
1.0
 20
0.0
 30
0.0
  9
$PUCSYDIR
 10
0.0
 20
1.0
 30
0.0
  9
$PUCSORTHOREF
  2

  9
$PUCSORTHOVIEW
 70
     0
  9
$PUCSORGTOP
 10
0.0
 20
0.0
 30
0.0
  9
$PUCSORGBOTTOM
 10
0.0
 20
0.0
 30
0.0
  9
$PUCSORGLEFT
 10
0.0
 20
0.0
 30
0.0
  9
$PUCSORGRIGHT
 10
0.0
 20
0.0
 30
0.0
  9
$PUCSORGFRONT
 10
0.0
 20
0.0
 30
0.0
  9
$PUCSORGBACK
 10
0.0
 20
0.0
 30
0.0
  9
$USERI1
 70
     0
  9
$USERI2
 70
     0
  9
$USERI3
 70
     0
  9
$USERI4
 70
     0
  9
$USERI5
 70
     0
  9
$USERR1
 40
0.0
  9
$USERR2
 40
0.0
  9
$USERR3
 40
0.0
  9
$USERR4
 40
0.0
  9
$USERR5
 40
0.0
  9
$WORLDVIEW
 70
     1
  9
$SHADEDGE
 70
     3
  9
$SHADEDIF
 70
    70
  9
$TILEMODE
 70
     1
  9
$MAXACTVP
 70
    64
  9
$PINSBASE
 10
0.0
 20
0.0
 30
0.0
  9
$PLIMCHECK
 70
     0
  9
$PEXTMIN
 10
1.000000000000000E+20
 20
1.000000000000000E+20
 30
1.000000000000000E+20
  9
$PEXTMAX
 10
-1.000000000000000E+20
 20
-1.000000000000000E+20
 30
-1.000000000000000E+20
  9
$PLIMMIN
 10
0.0
 20
0.0
  9
$PLIMMAX
 10
420.0
 20
297.0
  9
$UNITMODE
 70
     0
  9
$VISRETAIN
 70
     1
  9
$PLINEGEN
 70
     0
  9
$PSLTSCALE
 70
     1
  9
$TREEDEPTH
 70
  3020
  9
$CMLSTYLE
  2
Standard
  9
$CMLJUST
 70
     0
  9
$CMLSCALE
 40
20.0
  9
$PROXYGRAPHICS
 70
     1
  9
$MEASUREMENT
 70
     1
  9
$CELWEIGHT
370
    -1
  9
$ENDCAPS
280
     0
  9
$JOINSTYLE
280
     0
  9
$LWDISPLAY
290
     0
  9
$INSUNITS
 70
     4
  9
$HYPERLINKBASE
  1

  9
$STYLESHEET
  1
monochrome.ctb
  9
$XEDIT
290
     1
  9
$CEPSNTYPE
380
     0
  9
$PSTYLEMODE
290
     1
  9
$FINGERPRINTGUID
  2
{6D68E1BD-2541-11D6-A2ED-90BA86E43932}
  9
$VERSIONGUID
  2
{8C33C893-5C80-46F6-B09E-5A603D2C9F4F}
  9
$EXTNAMES
290
     1
  9
$PSVPSCALE
 40
0.0
  9
$OLESTARTUP
290
     0
  0
ENDSEC
  0
SECTION
  2
CLASSES
  0
CLASS
  1
ACDBDICTIONARYWDFLT
  2
AcDbDictionaryWithDefault
  3
AutoCAD 2000
 90
        0
280
     0
281
     0
  0
CLASS
  1
ACDBPLACEHOLDER
  2
AcDbPlaceHolder
  3
AutoCAD 2000
 90
        0
280
     0
281
     0
  0
CLASS
  1
LAYOUT
  2
AcDbLayout
  3
AutoCAD 2000
 90
        0
280
     0
281
     0
  0
CLASS
  1
AMDTACMWBLOCKBOMENTITY
  2
AmdtAcmWblockBomEntity
  3
"AcmSymBB|Product Description: AutoCAD Mechanical 2000|Company: Autodesk"
 90
    33791
280
     1
281
     1
  0
CLASS
  1
ACDB_PROXY_ENTITY_DATA
  2
AcDbProxyEntityData
  3
AutoCAD 2000
 90
    32768
280
     0
281
     0
  0
CLASS
  1
DICTIONARYVAR
  2
AcDbDictionaryVar
  3
AutoCAD 2000
 90
        0
280
     0
281
     0
  0
ENDSEC
  0
SECTION
  2
TABLES
  0
TABLE
  2
VPORT
  5
19
330
0
100
AcDbSymbolTable
 70
     4
  0
VPORT
  5
59B
330
19
100
AcDbSymbolTableRecord
100
AcDbViewportTableRecord
  2
*Active
 70
     0
 10
0.0
 20
0.0
 11
1.0
 21
1.0
 12
2101.555485848585
 22
1474.44307924977
 13
0.0
 23
0.0
 14
10.0
 24
10.0
 15
10.0
 25
10.0
 16
0.0
 26
0.0
 36
1.0
 17
0.0
 27
0.0
 37
0.0
 40
2731.824075086274
 41
1.702127659574468
 42
50.0
 43
0.0
 44
0.0
 50
0.0
 51
0.0
 71
     0
 72
   100
 73
     1
 74
     3
 75
     0
 76
     0
 77
     0
 78
     0
281
     0
 65
     1
110
0.0
120
0.0
130
0.0
111
1.0
121
0.0
131
0.0
112
0.0
122
1.0
132
0.0
 79
     0
146
0.0
  0
ENDTAB
  0
TABLE
  2
LTYPE
  5
14
330
0
100
AcDbSymbolTable
 70
     4
  0
LTYPE
  5
15
330
14
100
AcDbSymbolTableRecord
100
AcDbLinetypeTableRecord
  2
ByBlock
 70
     0
  3

 72
    65
 73
     0
 40
0.0
  0
LTYPE
  5
16
330
14
100
AcDbSymbolTableRecord
100
AcDbLinetypeTableRecord
  2
ByLayer
 70
     0
  3

 72
    65
 73
     0
 40
0.0
  0
LTYPE
  5
8
330
14
100
AcDbSymbolTableRecord
100
AcDbLinetypeTableRecord
  2
Continuous
 70
     0
  3
Solid line
 72
    65
 73
     0
 40
0.0
  0
LTYPE
  5
52
330
14
100
AcDbSymbolTableRecord
100
AcDbLinetypeTableRecord
  2
AM_ISO08W050
 70
     0
  3
____ . ____ . ____ . ____ . ____ . ____ . ____
 72
    65
 73
     4
 40
18.0
 49
12.0
 74
     0
 49
-1.5
 74
     0
 49
3.0
 74
     0
 49
-1.5
 74
     0
  0
LTYPE
  5
70
330
14
100
AcDbSymbolTableRecord
100
AcDbLinetypeTableRecord
  2
AM_ISO09W050
 70
     0
  3
_____ . . _____ . . _____ . . ____ .. ____
 72
    65
 73
     6
 40
22.5
 49
12.0
 74
     0
 49
-1.5
 74
     0
 49
3.0
 74
     0
 49
-1.5
 74
     0
 49
3.0
 74
     0
 49
-1.5
 74
     0
  0
LTYPE
  5
4EB
330
14
100
AcDbSymbolTableRecord
100
AcDbLinetypeTableRecord
  2
AM_ISO02W050
 70
     0
  3
__ __ __ __ __ __ __ __ __ __ __ __ __ __ __
 72
    65
 73
     2
 40
7.5
 49
6.0
 74
     0
 49
-1.5
 74
     0
  0
ENDTAB
  0
TABLE
  2
LAYER
  5
10
330
0
100
AcDbSymbolTable
 70
    20
  0
LAYER
  5
4
330
10
100
AcDbSymbolTableRecord
100
AcDbLayerTableRecord
  2
0
 70
     0
 62
     7
  6
Continuous
370
    -3
390
5
  0
LAYER
  5
38
330
10
100
AcDbSymbolTableRecord
100
AcDbLayerTableRecord
  2
DEFPOINTS
 70
     0
 62
     7
  6
Continuous
290
     0
370
    -3
390
5
  0
LAYER
  5
61
330
10
100
AcDbSymbolTableRecord
100
AcDbLayerTableRecord
  2
A1枠
 70
     0
 62
     7
  6
Continuous
370
    50
390
5
  0
LAYER
  5
1A6
330
10
100
AcDbSymbolTableRecord
100
AcDbLayerTableRecord
  2
AM_0
 70
     0
 62
     7
  6
Continuous
370
    50
390
5
  0
LAYER
  5
2E
330
10
100
AcDbSymbolTableRecord
100
AcDbLayerTableRecord
  2
AM_5
 70
     0
 62
     3
  6
Continuous
370
    18
390
5
  0
LAYER
  5
51
330
10
100
AcDbSymbolTableRecord
100
AcDbLayerTableRecord
  2
AM_7
 70
     0
 62
     4
  6
AM_ISO08W050
370
    18
390
5
  0
LAYER
  5
56
330
10
100
AcDbSymbolTableRecord
100
AcDbLayerTableRecord
  2
細線
 70
     0
 62
     2
  6
Continuous
370
    18
390
5
  0
LAYER
  5
1A9
330
10
100
AcDbSymbolTableRecord
100
AcDbLayerTableRecord
  2
AM_6
 70
     0
 62
     2
  6
Continuous
370
    35
390
5
  0
LAYER
  5
64
330
10
100
AcDbSymbolTableRecord
100
AcDbLayerTableRecord
  2
図面範囲
 70
     0
 62
    -7
  6
Continuous
290
     0
370
    -3
390
5
  0
LAYER
  5
5A
330
10
100
AcDbSymbolTableRecord
100
AcDbLayerTableRecord
  2
AM_1
 70
     0
 62
    14
  6
Continuous
370
    35
390
5
  0
LAYER
  5
5E
330
10
100
AcDbSymbolTableRecord
100
AcDbLayerTableRecord
  2
外槽外板
 70
     0
 62
     8
  6
Continuous
370
    18
390
5
  0
LAYER
  5
2A1
330
10
100
AcDbSymbolTableRecord
100
AcDbLayerTableRecord
  2
内槽内板
 70
     0
 62
     8
  6
Continuous
370
    18
390
5
  0
LAYER
  5
2D6
330
10
100
AcDbSymbolTableRecord
100
AcDbLayerTableRecord
  2
外槽側板
 70
     0
 62
     8
  6
Continuous
370
    18
390
5
  0
LAYER
  5
2D8
330
10
100
AcDbSymbolTableRecord
100
AcDbLayerTableRecord
  2
内槽側板
 70
     0
 62
     8
  6
Continuous
370
    18
390
5
  0
LAYER
  5
6F
330
10
100
AcDbSymbolTableRecord
100
AcDbLayerTableRecord
  2
AM_11
 70
     0
 62
     3
  6
AM_ISO09W050
370
    18
390
5
  0
LAYER
  5
2A
330
10
100
AcDbSymbolTableRecord
100
AcDbLayerTableRecord
  2
内槽外板
 70
     0
 62
     8
  6
Continuous
370
    18
390
5
  0
LAYER
  5
66
330
10
100
AcDbSymbolTableRecord
100
AcDbLayerTableRecord
  2
内槽フランジ
 70
     0
 62
     8
  6
Continuous
370
    18
390
5
  0
LAYER
  5
280
330
10
100
AcDbSymbolTableRecord
100
AcDbLayerTableRecord
  2
外槽内板
 70
     0
 62
     8
  6
Continuous
370
    18
390
5
  0
LAYER
  5
4EC
330
10
100
AcDbSymbolTableRecord
100
AcDbLayerTableRecord
  2
AM_3
 70
     0
 62
     6
  6
AM_ISO02W050
370
    18
390
5
  0
LAYER
  5
505
330
10
100
AcDbSymbolTableRecord
100
AcDbLayerTableRecord
  2
ノゾキポイント
 70
     0
 62
     7
  6
Continuous
370
    18
390
5
  0
ENDTAB
  0
TABLE
  2
STYLE
  5
11
330
0
100
AcDbSymbolTable
 70
     5
  0
STYLE
  5
12
330
11
100
AcDbSymbolTableRecord
100
AcDbTextStyleTableRecord
  2
Standard
 70
     0
 40
0.0
 41
1.0
 50
0.0
 71
     0
 42
2.5
  3
txt.shx
  4
bigfont.shx
  0
STYLE
  5
1F
330
11
100
AcDbSymbolTableRecord
100
AcDbTextStyleTableRecord
  2
スタイル１
 70
     0
 40
0.0
 41
1.0
 50
0.0
 71
     0
 42
4.5
  3
MS Gothic.ttf
  4

1001
ACAD
1000
MS Gothic
1071
    32817
  0
STYLE
  5
2B
330
11
100
AcDbSymbolTableRecord
100
AcDbTextStyleTableRecord
  2
表題
 70
     0
 40
0.0
 41
1.0
 50
0.0
 71
     0
 42
4.5
  3
MS PMincho.ttf
  4

1001
ACAD
1000
MS PMincho
1071
    32786
  0
STYLE
  5
2C6
330
11
100
AcDbSymbolTableRecord
100
AcDbTextStyleTableRecord
  2
大陽東洋酸素
 70
     0
 40
0.0
 41
0.8
 50
0.0
 71
     0
 42
4.5
  3
MS Mincho.ttf
  4

1001
ACAD
1000
MS Mincho
1071
    32785
  0
STYLE
  5
93
330
11
100
AcDbSymbolTableRecord
100
AcDbTextStyleTableRecord
  2
TITLE
 70
     0
 40
0.0
 41
1.0
 50
0.0
 71
     0
 42
0.8
  3
MS Mincho.ttf
  4

1001
ACAD
1000
MS Mincho
1071
    32785
  0
ENDTAB
  0
TABLE
  2
VIEW
  5
17
330
0
100
AcDbSymbolTable
 70
     0
  0
ENDTAB
  0
TABLE
  2
UCS
  5
18
330
0
100
AcDbSymbolTable
 70
     0
  0
ENDTAB
  0
TABLE
  2
APPID
  5
1B
330
0
100
AcDbSymbolTable
 70
     3
  0
APPID
  5
1C
330
1B
100
AcDbSymbolTableRecord
100
AcDbRegAppTableRecord
  2
ACAD
 70
     0
  0
APPID
  5
2BC
330
1B
100
AcDbSymbolTableRecord
100
AcDbRegAppTableRecord
  2
GENIUS_GENODEF_13
 70
     0
  0
APPID
  5
2BB
330
1B
100
AcDbSymbolTableRecord
100
AcDbRegAppTableRecord
  2
GENIUS_GENOBJ-N-CEN_13
 70
     0
  0
ENDTAB
  0
TABLE
  2
DIMSTYLE
  5
1D
330
0
100
AcDbSymbolTable
 70
     2
100
AcDbDimStyleTable
 71
     1
340
1E
  0
DIMSTYLE
105
1E
102
{ACAD_REACTORS
330
3FB
330
282
330
408
330
48F
330
3C4
330
468
330
3EC
330
4A5
330
4BF
330
4CF
330
47B
330
14C
330
261
330
2AC
330
2F
330
42E
330
419
330
54
330
32C
330
231
330
1CE
330
1CD
330
45F
330
1E1
330
1CB
330
441
330
43C
330
17A
330
187
330
159
330
1F6
330
1EB
330
201
330
220
330
2D9
330
1D2
102
}
330
1D
100
AcDbSymbolTableRecord
100
AcDbDimStyleTableRecord
  2
スタイル2
 70
     0
 41
10.0
 42
5.0
 43
43.75
 44
5.0
 48
0.000000001
 73
     0
 74
     0
 77
     1
 78
     8
140
17.5
141
0.0
147
5.0
171
     3
172
     1
176
     2
177
     2
271
     2
272
     2
274
     3
289
     0
340
1F
341
20
342
20
  0
DIMSTYLE
105
3E
102
{ACAD_REACTORS
330
47
330
297
330
2A3
330
20C
330
232
330
3D
102
}
330
1D
100
AcDbSymbolTableRecord
100
AcDbDimStyleTableRecord
  2
スタイル2$4
 70
     0
 41
10.0
 42
5.0
 43
43.75
 44
5.0
 48
0.000000001
 73
     0
 74
     0
 77
     1
 78
     8
140
17.5
141
0.0
147
5.0
171
     3
176
     2
177
     2
271
     2
272
     2
274
     3
288
     1
340
1F
341
20
342
20
  0
ENDTAB
  0
TABLE
  2
BLOCK_RECORD
  5
1
330
0
100
AcDbSymbolTable
 70
    37
  0
BLOCK_RECORD
  5
2
330
1
100
AcDbSymbolTableRecord
100
AcDbBlockTableRecord
  2
*Model_Space
340
A
  0
BLOCK_RECORD
  5
C
330
1
100
AcDbSymbolTableRecord
100
AcDbBlockTableRecord
  2
*Paper_Space
340
F
  0
BLOCK_RECORD
  5
20
330
1
100
AcDbSymbolTableRecord
100
AcDbBlockTableRecord
  2
_Open30
340
0
102
{BLKREFS
331
287
331
288
331
2B1
331
2B2
331
3C9
331
3CA
331
3F3
331
3F4
331
400
331
401
331
40F
331
410
331
46D
331
46E
331
4AD
331
487
331
496
331
497
331
4D6
331
4D7
331
433
331
434
331
2A7
331
29B
331
4B
331
17F
331
180
331
1F9
331
1FA
331
15C
331
15D
331
18B
331
18C
331
204
331
205
331
1EE
331
1EF
331
210
331
236
331
265
331
266
331
151
331
152
331
34
331
35
331
42
331
2DE
331
2DF
331
225
331
226
331
1D6
331
1D7
331
53D
331
53E
331
56A
331
56B
331
578
331
579
331
586
331
587
331
593
331
594
102
}
  0
BLOCK_RECORD
  5
47C
330
1
100
AcDbSymbolTableRecord
100
AcDbBlockTableRecord
  2
_DotSmall
340
0
102
{BLKREFS
331
4AC
331
486
102
}
  0
BLOCK_RECORD
  5
14D
330
1
100
AcDbSymbolTableRecord
100
AcDbBlockTableRecord
  2
*D2
340
0
  0
BLOCK_RECORD
  5
262
330
1
100
AcDbSymbolTableRecord
100
AcDbBlockTableRecord
  2
*D3
340
0
  0
BLOCK_RECORD
  5
30
330
1
100
AcDbSymbolTableRecord
100
AcDbBlockTableRecord
  2
*D4
340
0
  0
BLOCK_RECORD
  5
42F
330
1
100
AcDbSymbolTableRecord
100
AcDbBlockTableRecord
  2
*D5
340
0
  0
BLOCK_RECORD
  5
48
330
1
100
AcDbSymbolTableRecord
100
AcDbBlockTableRecord
  2
*D6
340
0
  0
BLOCK_RECORD
  5
3FC
330
1
100
AcDbSymbolTableRecord
100
AcDbBlockTableRecord
  2
*D7
340
0
  0
BLOCK_RECORD
  5
283
330
1
100
AcDbSymbolTableRecord
100
AcDbBlockTableRecord
  2
*D8
340
0
  0
BLOCK_RECORD
  5
409
330
1
100
AcDbSymbolTableRecord
100
AcDbBlockTableRecord
  2
*D9
340
0
  0
BLOCK_RECORD
  5
490
330
1
100
AcDbSymbolTableRecord
100
AcDbBlockTableRecord
  2
*D10
340
0
  0
BLOCK_RECORD
  5
3C5
330
1
100
AcDbSymbolTableRecord
100
AcDbBlockTableRecord
  2
*D11
340
0
  0
BLOCK_RECORD
  5
469
330
1
100
AcDbSymbolTableRecord
100
AcDbBlockTableRecord
  2
*D12
340
0
  0
BLOCK_RECORD
  5
3ED
330
1
100
AcDbSymbolTableRecord
100
AcDbBlockTableRecord
  2
*D13
340
0
  0
BLOCK_RECORD
  5
4A6
330
1
100
AcDbSymbolTableRecord
100
AcDbBlockTableRecord
  2
*D14
340
0
  0
BLOCK_RECORD
  5
4D0
330
1
100
AcDbSymbolTableRecord
100
AcDbBlockTableRecord
  2
*D15
340
0
  0
BLOCK_RECORD
  5
480
330
1
100
AcDbSymbolTableRecord
100
AcDbBlockTableRecord
  2
*D16
340
0
  0
BLOCK_RECORD
  5
2AD
330
1
100
AcDbSymbolTableRecord
100
AcDbBlockTableRecord
  2
*D17
340
0
  0
BLOCK_RECORD
  5
298
330
1
100
AcDbSymbolTableRecord
100
AcDbBlockTableRecord
  2
*D18
340
0
  0
BLOCK_RECORD
  5
2A4
330
1
100
AcDbSymbolTableRecord
100
AcDbBlockTableRecord
  2
*D19
340
0
  0
BLOCK_RECORD
  5
20D
330
1
100
AcDbSymbolTableRecord
100
AcDbBlockTableRecord
  2
*D20
340
0
  0
BLOCK_RECORD
  5
17B
330
1
100
AcDbSymbolTableRecord
100
AcDbBlockTableRecord
  2
*D21
340
0
  0
BLOCK_RECORD
  5
188
330
1
100
AcDbSymbolTableRecord
100
AcDbBlockTableRecord
  2
*D22
340
0
  0
BLOCK_RECORD
  5
15A
330
1
100
AcDbSymbolTableRecord
100
AcDbBlockTableRecord
  2
*D23
340
0
  0
BLOCK_RECORD
  5
1F7
330
1
100
AcDbSymbolTableRecord
100
AcDbBlockTableRecord
  2
*D24
340
0
  0
BLOCK_RECORD
  5
1EC
330
1
100
AcDbSymbolTableRecord
100
AcDbBlockTableRecord
  2
*D25
340
0
  0
BLOCK_RECORD
  5
202
330
1
100
AcDbSymbolTableRecord
100
AcDbBlockTableRecord
  2
*D26
340
0
  0
BLOCK_RECORD
  5
221
330
1
100
AcDbSymbolTableRecord
100
AcDbBlockTableRecord
  2
*D27
340
0
  0
BLOCK_RECORD
  5
233
330
1
100
AcDbSymbolTableRecord
100
AcDbBlockTableRecord
  2
*D28
340
0
  0
BLOCK_RECORD
  5
3F
330
1
100
AcDbSymbolTableRecord
100
AcDbBlockTableRecord
  2
*D29
340
0
  0
BLOCK_RECORD
  5
2DA
330
1
100
AcDbSymbolTableRecord
100
AcDbBlockTableRecord
  2
*D30
340
0
  0
BLOCK_RECORD
  5
1D3
330
1
100
AcDbSymbolTableRecord
100
AcDbBlockTableRecord
  2
*D31
340
0
  0
BLOCK_RECORD
  5
4ED
330
1
100
AcDbSymbolTableRecord
100
AcDbBlockTableRecord
  2
B-ノゾキポイント側面
340
0
1001
ACAD
1000
DesignCenter Data
1002
{
1070
     1
1070
     4
1002
}
  0
BLOCK_RECORD
  5
537
330
1
100
AcDbSymbolTableRecord
100
AcDbBlockTableRecord
  2
*D33
340
0
  0
BLOCK_RECORD
  5
566
330
1
100
AcDbSymbolTableRecord
100
AcDbBlockTableRecord
  2
*D34
340
0
  0
BLOCK_RECORD
  5
572
330
1
100
AcDbSymbolTableRecord
100
AcDbBlockTableRecord
  2
*D35
340
0
  0
BLOCK_RECORD
  5
580
330
1
100
AcDbSymbolTableRecord
100
AcDbBlockTableRecord
  2
*D36
340
0
  0
ENDTAB
  0
ENDSEC
  0
SECTION
  2
BLOCKS
  0
BLOCK
  5
3
330
2
100
AcDbEntity
  8
0
100
AcDbBlockBegin
  2
*Model_Space
 70
     2
 10
0.0
 20
0.0
 30
0.0
  3
*Model_Space
  1

  0
ENDBLK
  5
9
330
2
100
AcDbEntity
  8
0
100
AcDbBlockEnd
  0
BLOCK
  5
D
330
C
100
AcDbEntity
 67
     1
  8
0
100
AcDbBlockBegin
  2
*Paper_Space
 70
     0
 10
0.0
 20
0.0
 30
0.0
  3
*Paper_Space
  1

  0
ENDBLK
  5
E
330
C
100
AcDbEntity
 67
     1
  8
0
100
AcDbBlockEnd
  0
BLOCK
  5
24
330
20
100
AcDbEntity
  8
0
100
AcDbBlockBegin
  2
_Open30
 70
     0
 10
0.0
 20
0.0
 30
0.0
  3
_Open30
  1

  0
LINE
  5
21
330
20
100
AcDbEntity
  8
0
 62
     0
370
    -2
380
     1
100
AcDbLine
 10
-1.0
 20
0.26794919
 30
0.0
 11
0.0
 21
0.0
 31
0.0
  0
LINE
  5
22
330
20
100
AcDbEntity
  8
0
 62
     0
370
    -2
380
     1
100
AcDbLine
 10
0.0
 20
0.0
 30
0.0
 11
-1.0
 21
-0.26794919
 31
0.0
  0
LINE
  5
23
330
20
100
AcDbEntity
  8
0
 62
     0
370
    -2
380
     1
100
AcDbLine
 10
0.0
 20
0.0
 30
0.0
 11
-1.0
 21
0.0
 31
0.0
  0
ENDBLK
  5
25
330
20
100
AcDbEntity
  8
0
100
AcDbBlockEnd
  0
BLOCK
  5
47E
330
47C
100
AcDbEntity
  8
0
100
AcDbBlockBegin
  2
_DotSmall
 70
     0
 10
0.0
 20
0.0
 30
0.0
  3
_DotSmall
  1

  0
LWPOLYLINE
  5
47D
330
47C
100
AcDbEntity
  8
0
  6
ByBlock
 62
     0
100
AcDbPolyline
 90
        2
 70
     1
 43
0.5
 10
-0.0625
 20
0.0
 42
1.0
 10
0.0625
 20
0.0
 42
1.0
  0
ENDBLK
  5
47F
330
47C
100
AcDbEntity
  8
0
100
AcDbBlockEnd
  0
BLOCK
  5
157
330
14D
100
AcDbEntity
  8
0
100
AcDbBlockBegin
  2
*D2
 70
     1
 10
0.0
 20
0.0
 30
0.0
  3
*D2
  1

  0
LINE
  5
14E
330
14D
100
AcDbEntity
  8
AM_5
 62
     2
370
    -2
100
AcDbLine
 10
553.7294880793324
 20
2780.031922731157
 30
0.0
 11
553.7294880793324
 21
2784.311574239208
 31
0.0
  0
LINE
  5
14F
330
14D
100
AcDbEntity
  8
AM_5
 62
     2
370
    -2
100
AcDbLine
 10
803.7294880793288
 20
2780.031922731158
 30
0.0
 11
803.7294880793288
 21
2784.311574239208
 31
0.0
  0
LINE
  5
150
330
14D
100
AcDbEntity
  8
AM_5
 62
     2
370
    -2
100
AcDbLine
 10
563.7294880793324
 20
2779.311574239208
 30
0.0
 11
793.7294880793288
 21
2779.311574239208
 31
0.0
  0
INSERT
  5
151
330
14D
100
AcDbEntity
  8
AM_5
 62
     2
370
    -2
100
AcDbBlockReference
  2
_Open30
 10
553.7294880793324
 20
2779.311574239208
 30
0.0
 41
10.0
 42
10.0
 43
10.0
 50
180.0
  0
INSERT
  5
152
330
14D
100
AcDbEntity
  8
AM_5
 62
     2
370
    -2
100
AcDbBlockReference
  2
_Open30
 10
803.7294880793288
 20
2779.311574239208
 30
0.0
 41
10.0
 42
10.0
 43
10.0
  0
MTEXT
  5
153
330
14D
100
AcDbEntity
  8
AM_5
 62
     0
100
AcDbMText
 10
678.7294880793306
 20
2793.061574239208
 30
0.0
 40
17.5
 41
0.0
 71
     5
 72
     1
  1
\A1;250
  7
スタイル１
 73
     1
 44
1.0
  0
POINT
  5
154
330
14D
100
AcDbEntity
  8
DEFPOINTS
 62
     0
100
AcDbPoint
 10
553.7294880793324
 20
2775.031922731157
 30
0.0
  0
POINT
  5
155
330
14D
100
AcDbEntity
  8
DEFPOINTS
 62
     0
100
AcDbPoint
 10
803.7294880793288
 20
2775.031922731157
 30
0.0
  0
POINT
  5
156
330
14D
100
AcDbEntity
  8
DEFPOINTS
 62
     0
100
AcDbPoint
 10
803.7294880793288
 20
2779.311574239208
 30
0.0
  0
ENDBLK
  5
158
330
14D
100
AcDbEntity
  8
0
100
AcDbBlockEnd
  0
BLOCK
  5
26B
330
262
100
AcDbEntity
  8
0
100
AcDbBlockBegin
  2
*D3
 70
     1
 10
0.0
 20
0.0
 30
0.0
  3
*D3
  1

  0
LINE
  5
263
330
262
100
AcDbEntity
  8
AM_5
 62
     2
370
    -2
100
AcDbLine
 10
803.7294880793288
 20
2780.031922731158
 30
0.0
 11
803.7294880793288
 21
2784.311574239208
 31
0.0
  0
LINE
  5
264
330
262
100
AcDbEntity
  8
AM_5
 62
     2
370
    -2
100
AcDbLine
 10
813.7294880793287
 20
2779.311574239208
 30
0.0
 11
1043.729488079336
 21
2779.311574239208
 31
0.0
  0
INSERT
  5
265
330
262
100
AcDbEntity
  8
AM_5
 62
     2
370
    -2
100
AcDbBlockReference
  2
_Open30
 10
803.7294880793288
 20
2779.311574239208
 30
0.0
 41
10.0
 42
10.0
 43
10.0
 50
180.0
  0
INSERT
  5
266
330
262
100
AcDbEntity
  8
AM_5
 62
     2
370
    -2
100
AcDbBlockReference
  2
_Open30
 10
1053.729488079336
 20
2779.311574239208
 30
0.0
 41
10.0
 42
10.0
 43
10.0
  0
MTEXT
  5
267
330
262
100
AcDbEntity
  8
AM_5
 62
     0
100
AcDbMText
 10
928.7294880793323
 20
2793.061574239208
 30
0.0
 40
17.5
 41
0.0
 71
     5
 72
     1
  1
\A1;250
  7
スタイル１
 73
     1
 44
1.0
  0
POINT
  5
268
330
262
100
AcDbEntity
  8
DEFPOINTS
 62
     0
100
AcDbPoint
 10
803.7294880793288
 20
2775.031922731157
 30
0.0
  0
POINT
  5
269
330
262
100
AcDbEntity
  8
DEFPOINTS
 62
     0
100
AcDbPoint
 10
1053.729488079336
 20
2779.311574239208
 30
0.0
  0
POINT
  5
26A
330
262
100
AcDbEntity
  8
DEFPOINTS
 62
     0
100
AcDbPoint
 10
1053.729488079336
 20
2779.311574239208
 30
0.0
  0
ENDBLK
  5
26C
330
262
100
AcDbEntity
  8
0
100
AcDbBlockEnd
  0
BLOCK
  5
3B
330
30
100
AcDbEntity
  8
0
100
AcDbBlockBegin
  2
*D4
 70
     1
 10
0.0
 20
0.0
 30
0.0
  3
*D4
  1

  0
LINE
  5
31
330
30
100
AcDbEntity
  8
AM_5
 62
     2
370
    -2
100
AcDbLine
 10
2105.750737075178
 20
2674.656181445454
 30
0.0
 11
1956.896228038808
 21
2674.656181445454
 31
0.0
  0
LINE
  5
32
330
30
100
AcDbEntity
  8
AM_5
 62
     2
370
    -2
100
AcDbLine
 10
2105.750737075178
 20
2434.656181445454
 30
0.0
 11
1956.896228038807
 21
2434.656181445454
 31
0.0
  0
LINE
  5
33
330
30
100
AcDbEntity
  8
AM_5
 62
     2
370
    -2
100
AcDbLine
 10
1961.896228038807
 20
2664.656181445454
 30
0.0
 11
1961.896228038807
 21
2444.656181445454
 31
0.0
  0
INSERT
  5
34
330
30
100
AcDbEntity
  8
AM_5
 62
     2
370
    -2
100
AcDbBlockReference
  2
_Open30
 10
1961.896228038807
 20
2674.656181445454
 30
0.0
 41
10.0
 42
10.0
 43
10.0
 50
90.0
  0
INSERT
  5
35
330
30
100
AcDbEntity
  8
AM_5
 62
     2
370
    -2
100
AcDbBlockReference
  2
_Open30
 10
1961.896228038807
 20
2434.656181445454
 30
0.0
 41
10.0
 42
10.0
 43
10.0
 50
270.0
  0
MTEXT
  5
36
330
30
100
AcDbEntity
  8
AM_5
 62
     0
100
AcDbMText
 10
1948.146228038807
 20
2554.656181445454
 30
0.0
 40
17.5
 41
0.0
 71
     5
 72
     1
  1
\A1;240
  7
スタイル１
 11
0.0000000000000001
 21
1.0
 31
0.0
 73
     1
 44
1.0
  0
POINT
  5
37
330
30
100
AcDbEntity
  8
DEFPOINTS
 62
     0
100
AcDbPoint
 10
2110.750737075178
 20
2674.656181445454
 30
0.0
  0
POINT
  5
39
330
30
100
AcDbEntity
  8
DEFPOINTS
 62
     0
100
AcDbPoint
 10
2110.750737075178
 20
2434.656181445454
 30
0.0
  0
POINT
  5
3A
330
30
100
AcDbEntity
  8
DEFPOINTS
 62
     0
100
AcDbPoint
 10
1961.896228038807
 20
2434.656181445454
 30
0.0
  0
ENDBLK
  5
3C
330
30
100
AcDbEntity
  8
0
100
AcDbBlockEnd
  0
BLOCK
  5
439
330
42F
100
AcDbEntity
  8
0
100
AcDbBlockBegin
  2
*D5
 70
     1
 10
0.0
 20
0.0
 30
0.0
  3
*D5
  1

  0
LINE
  5
430
330
42F
100
AcDbEntity
  8
AM_5
 62
     2
370
    -2
100
AcDbLine
 10
2115.520737075178
 20
2729.16515255934
 30
0.0
 11
2115.520737075178
 21
2784.311574239208
 31
0.0
  0
LINE
  5
431
330
42F
100
AcDbEntity
  8
AM_5
 62
     2
370
    -2
100
AcDbLine
 10
2865.520737075171
 20
2780.657910492562
 30
0.0
 11
2865.520737075171
 21
2774.311574239209
 31
0.0
  0
LINE
  5
432
330
42F
100
AcDbEntity
  8
AM_5
 62
     2
370
    -2
100
AcDbLine
 10
2125.520737075178
 20
2779.311574239208
 30
0.0
 11
2855.520737075171
 21
2779.311574239208
 31
0.0
  0
INSERT
  5
433
330
42F
100
AcDbEntity
  8
AM_5
 62
     2
370
    -2
100
AcDbBlockReference
  2
_Open30
 10
2115.520737075178
 20
2779.311574239208
 30
0.0
 41
10.0
 42
10.0
 43
10.0
 50
180.0
  0
INSERT
  5
434
330
42F
100
AcDbEntity
  8
AM_5
 62
     2
370
    -2
100
AcDbBlockReference
  2
_Open30
 10
2865.520737075171
 20
2779.311574239208
 30
0.0
 41
10.0
 42
10.0
 43
10.0
  0
MTEXT
  5
435
330
42F
100
AcDbEntity
  8
AM_5
 62
     0
100
AcDbMText
 10
2490.520737075175
 20
2793.061574239208
 30
0.0
 40
17.5
 41
0.0
 71
     5
 72
     1
  1
\A1;750
  7
スタイル１
 73
     1
 44
1.0
  0
POINT
  5
436
330
42F
100
AcDbEntity
  8
DEFPOINTS
 62
     0
100
AcDbPoint
 10
2115.520737075178
 20
2724.16515255934
 30
0.0
  0
POINT
  5
437
330
42F
100
AcDbEntity
  8
DEFPOINTS
 62
     0
100
AcDbPoint
 10
2865.520737075171
 20
2785.657910492562
 30
0.0
  0
POINT
  5
438
330
42F
100
AcDbEntity
  8
DEFPOINTS
 62
     0
100
AcDbPoint
 10
2865.520737075171
 20
2779.311574239208
 30
0.0
  0
ENDBLK
  5
43A
330
42F
100
AcDbEntity
  8
0
100
AcDbBlockEnd
  0
BLOCK
  5
4E
330
48
100
AcDbEntity
  8
0
100
AcDbBlockBegin
  2
*D6
 70
     1
 10
0.0
 20
0.0
 30
0.0
  3
*D6
  1

  0
LINE
  5
49
330
48
100
AcDbEntity
  8
AM_5
 62
     2
370
    -2
100
AcDbLine
 10
1983.687640815423
 20
1890.174862232708
 30
0.0
 11
1751.345249546441
 21
1977.338920969474
 31
0.0
  0
MTEXT
  5
4A
330
48
100
AcDbEntity
  8
AM_5
 62
     0
100
AcDbMText
 10
1958.135685002806
 20
1914.446515214863
 30
0.0
 40
17.5
 41
0.0
 71
     5
 72
     1
  1
\A1;R1200
  7
スタイル１
 11
0.9362819222930614
 21
-0.3512494298745691
 31
0.0
 73
     1
 44
1.0
  0
INSERT
  5
4B
330
48
100
AcDbEntity
  8
AM_5
 62
     2
370
    -2
100
AcDbBlockReference
  2
_Open30
 10
1741.98243032351
 20
1980.851415268219
 30
0.0
 41
10.0
 42
10.0
 43
10.0
 50
159.436245120834
  0
POINT
  5
4C
330
48
100
AcDbEntity
  8
DEFPOINTS
 62
     0
100
AcDbPoint
 10
1741.98243032351
 20
1980.851415268219
 30
0.0
  0
POINT
  5
4D
330
48
100
AcDbEntity
  8
DEFPOINTS
 62
     0
100
AcDbPoint
 10
2865.520737075183
 20
1559.352099418737
 30
0.0
  0
ENDBLK
  5
4F
330
48
100
AcDbEntity
  8
0
100
AcDbBlockEnd
  0
BLOCK
  5
406
330
3FC
100
AcDbEntity
  8
0
100
AcDbBlockBegin
  2
*D7
 70
     1
 10
0.0
 20
0.0
 30
0.0
  3
*D7
  1

  0
LINE
  5
3FD
330
3FC
100
AcDbEntity
  8
AM_5
 62
     2
370
    -2
100
AcDbLine
 10
3342.341620348856
 20
1669.832729381043
 30
0.0
 11
3215.163931213432
 21
1669.832729381043
 31
0.0
  0
LINE
  5
3FE
330
3FC
100
AcDbEntity
  8
AM_5
 62
     2
370
    -2
100
AcDbLine
 10
3391.491620348855
 20
2169.839619377288
 30
0.0
 11
3215.163931213432
 21
2169.839619377288
 31
0.0
  0
LINE
  5
3FF
330
3FC
100
AcDbEntity
  8
AM_5
 62
     2
370
    -2
100
AcDbLine
 10
3220.163931213432
 20
1679.832729381043
 30
0.0
 11
3220.163931213432
 21
2159.839619377288
 31
0.0
  0
INSERT
  5
400
330
3FC
100
AcDbEntity
  8
AM_5
 62
     2
370
    -2
100
AcDbBlockReference
  2
_Open30
 10
3220.163931213432
 20
1669.832729381043
 30
0.0
 41
10.0
 42
10.0
 43
10.0
 50
270.0
  0
INSERT
  5
401
330
3FC
100
AcDbEntity
  8
AM_5
 62
     2
370
    -2
100
AcDbBlockReference
  2
_Open30
 10
3220.163931213432
 20
2169.839619377288
 30
0.0
 41
10.0
 42
10.0
 43
10.0
 50
90.0
  0
MTEXT
  5
402
330
3FC
100
AcDbEntity
  8
AM_5
 62
     0
100
AcDbMText
 10
3206.413931213431
 20
1919.836174379166
 30
0.0
 40
17.5
 41
0.0
 71
     5
 72
     1
  1
\A1;100
  7
スタイル１
 11
0.0000000000000001
 21
1.0
 31
0.0
 73
     1
 44
1.0
  0
POINT
  5
403
330
3FC
100
AcDbEntity
  8
DEFPOINTS
 62
     0
100
AcDbPoint
 10
3347.341620348855
 20
1669.832729381043
 30
0.0
  0
POINT
  5
404
330
3FC
100
AcDbEntity
  8
DEFPOINTS
 62
     0
100
AcDbPoint
 10
3396.491620348855
 20
2169.839619377288
 30
0.0
  0
POINT
  5
405
330
3FC
100
AcDbEntity
  8
DEFPOINTS
 62
     0
100
AcDbPoint
 10
3220.163931213432
 20
2169.839619377288
 30
0.0
  0
ENDBLK
  5
407
330
3FC
100
AcDbEntity
  8
0
100
AcDbBlockEnd
  0
BLOCK
  5
28D
330
283
100
AcDbEntity
  8
0
100
AcDbBlockBegin
  2
*D8
 70
     1
 10
0.0
 20
0.0
 30
0.0
  3
*D8
  1

  0
LINE
  5
284
330
283
100
AcDbEntity
  8
AM_5
 62
     2
370
    -2
100
AcDbLine
 10
3347.341620348855
 20
1169.832729381043
 30
0.0
 11
3215.163931213432
 21
1169.832729381043
 31
0.0
  0
LINE
  5
285
330
283
100
AcDbEntity
  8
AM_5
 62
     2
370
    -2
100
AcDbLine
 10
3347.341620348855
 20
1669.832729381043
 30
0.0
 11
3215.163931213432
 21
1669.832729381043
 31
0.0
  0
LINE
  5
286
330
283
100
AcDbEntity
  8
AM_5
 62
     2
370
    -2
100
AcDbLine
 10
3220.163931213432
 20
1179.832729381043
 30
0.0
 11
3220.163931213432
 21
1659.832729381043
 31
0.0
  0
INSERT
  5
287
330
283
100
AcDbEntity
  8
AM_5
 62
     2
370
    -2
100
AcDbBlockReference
  2
_Open30
 10
3220.163931213432
 20
1169.832729381043
 30
0.0
 41
10.0
 42
10.0
 43
10.0
 50
270.0
  0
INSERT
  5
288
330
283
100
AcDbEntity
  8
AM_5
 62
     2
370
    -2
100
AcDbBlockReference
  2
_Open30
 10
3220.163931213432
 20
1669.832729381043
 30
0.0
 41
10.0
 42
10.0
 43
10.0
 50
90.0
  0
MTEXT
  5
289
330
283
100
AcDbEntity
  8
AM_5
 62
     0
100
AcDbMText
 10
3206.413931213431
 20
1419.832729381043
 30
0.0
 40
17.5
 41
0.0
 71
     5
 72
     1
  1
\A1;100
  7
スタイル１
 11
0.0000000000000001
 21
1.0
 31
0.0
 73
     1
 44
1.0
  0
POINT
  5
28A
330
283
100
AcDbEntity
  8
DEFPOINTS
 62
     0
100
AcDbPoint
 10
3352.341620348855
 20
1169.832729381043
 30
0.0
  0
POINT
  5
28B
330
283
100
AcDbEntity
  8
DEFPOINTS
 62
     0
100
AcDbPoint
 10
3352.341620348855
 20
1669.832729381043
 30
0.0
  0
POINT
  5
28C
330
283
100
AcDbEntity
  8
DEFPOINTS
 62
     0
100
AcDbPoint
 10
3220.163931213432
 20
1669.832729381043
 30
0.0
  0
ENDBLK
  5
28E
330
283
100
AcDbEntity
  8
0
100
AcDbBlockEnd
  0
BLOCK
  5
415
330
409
100
AcDbEntity
  8
0
100
AcDbBlockBegin
  2
*D9
 70
     1
 10
0.0
 20
0.0
 30
0.0
  3
*D9
  1

  0
LINE
  5
40A
330
409
100
AcDbEntity
  8
AM_5
 62
     2
370
    -2
100
AcDbLine
 10
3352.341620348855
 20
1674.832729381042
 30
0.0
 11
3352.341620348855
 21
1968.773218179862
 31
0.0
  0
LINE
  5
40B
330
409
100
AcDbEntity
  8
AM_5
 62
     2
370
    -2
100
AcDbLine
 10
3488.341620348855
 20
1674.832729381042
 30
0.0
 11
3488.341620348855
 21
1968.773218179862
 31
0.0
  0
LINE
  5
40C
330
409
100
AcDbEntity
  8
AM_5
 62
     2
370
    -2
100
AcDbLine
 10
3498.341620348855
 20
1963.773218179862
 30
0.0
 11
3508.341620348855
 21
1963.773218179862
 31
0.0
  0
LINE
  5
40D
330
409
100
AcDbEntity
  8
AM_5
 62
     2
370
    -2
100
AcDbLine
 10
3342.341620348856
 20
1963.773218179862
 30
0.0
 11
3256.578083969837
 21
1963.773218179862
 31
0.0
  0
LINE
  5
40E
330
409
100
AcDbEntity
  8
AM_5
 62
     2
370
    -2
100
AcDbLine
 10
3488.341620348855
 20
1963.773218179862
 30
0.0
 11
3352.341620348855
 21
1963.773218179862
 31
0.0
  0
INSERT
  5
40F
330
409
100
AcDbEntity
  8
AM_5
 62
     2
370
    -2
100
AcDbBlockReference
  2
_Open30
 10
3488.341620348855
 20
1963.773218179862
 30
0.0
 41
10.0
 42
10.0
 43
10.0
 50
180.0
  0
INSERT
  5
410
330
409
100
AcDbEntity
  8
AM_5
 62
     2
370
    -2
100
AcDbBlockReference
  2
_Open30
 10
3352.341620348855
 20
1963.773218179862
 30
0.0
 41
10.0
 42
10.0
 43
10.0
  0
MTEXT
  5
411
330
409
100
AcDbEntity
  8
AM_5
 62
     0
100
AcDbMText
 10
3292.758287015522
 20
1978.944537976816
 30
0.0
 40
17.5
 41
0.0
 71
     5
 72
     1
  1
\A1;φ27.2
  7
スタイル１
 73
     1
 44
1.0
  0
POINT
  5
412
330
409
100
AcDbEntity
  8
DEFPOINTS
 62
     0
100
AcDbPoint
 10
3352.341620348855
 20
1669.832729381043
 30
0.0
  0
POINT
  5
413
330
409
100
AcDbEntity
  8
DEFPOINTS
 62
     0
100
AcDbPoint
 10
3488.341620348855
 20
1669.832729381043
 30
0.0
  0
POINT
  5
414
330
409
100
AcDbEntity
  8
DEFPOINTS
 62
     0
100
AcDbPoint
 10
3488.341620348855
 20
1963.773218179862
 30
0.0
  0
ENDBLK
  5
416
330
409
100
AcDbEntity
  8
0
100
AcDbBlockEnd
  0
BLOCK
  5
49C
330
490
100
AcDbEntity
  8
0
100
AcDbBlockBegin
  2
*D10
 70
     1
 10
0.0
 20
0.0
 30
0.0
  3
*D10
  1

  0
LINE
  5
491
330
490
100
AcDbEntity
  8
AM_5
 62
     2
370
    -2
100
AcDbLine
 10
3480.091620348854
 20
1464.656612488796
 30
0.0
 11
3480.091620348854
 21
1514.967616153701
 31
0.0
  0
LINE
  5
492
330
490
100
AcDbEntity
  8
AM_5
 62
     2
370
    -2
100
AcDbLine
 10
3488.341620348855
 20
1464.656612488796
 30
0.0
 11
3488.341620348855
 21
1514.967616153701
 31
0.0
  0
LINE
  5
493
330
490
100
AcDbEntity
  8
AM_5
 62
     2
370
    -2
100
AcDbLine
 10
3470.091620348854
 20
1509.967616153701
 30
0.0
 11
3460.091620348853
 21
1509.967616153701
 31
0.0
  0
LINE
  5
494
330
490
100
AcDbEntity
  8
AM_5
 62
     2
370
    -2
100
AcDbLine
 10
3498.341620348855
 20
1509.967616153701
 30
0.0
 11
3564.722754020598
 21
1509.967616153701
 31
0.0
  0
LINE
  5
495
330
490
100
AcDbEntity
  8
AM_5
 62
     2
370
    -2
100
AcDbLine
 10
3480.091620348854
 20
1509.967616153701
 30
0.0
 11
3488.341620348855
 21
1509.967616153701
 31
0.0
  0
INSERT
  5
496
330
490
100
AcDbEntity
  8
AM_5
 62
     2
370
    -2
100
AcDbBlockReference
  2
_Open30
 10
3480.091620348854
 20
1509.967616153701
 30
0.0
 41
10.0
 42
10.0
 43
10.0
  0
INSERT
  5
497
330
490
100
AcDbEntity
  8
AM_5
 62
     2
370
    -2
100
AcDbBlockReference
  2
_Open30
 10
3488.341620348855
 20
1509.967616153701
 30
0.0
 41
10.0
 42
10.0
 43
10.0
 50
180.0
  0
MTEXT
  5
498
330
490
100
AcDbEntity
  8
AM_5
 62
     0
100
AcDbMText
 10
3538.758287015522
 20
1523.717616153701
 30
0.0
 40
17.5
 41
0.0
 71
     5
 72
     1
  1
\A1;1.65
  7
スタイル１
 73
     1
 44
1.0
  0
POINT
  5
499
330
490
100
AcDbEntity
  8
DEFPOINTS
 62
     0
100
AcDbPoint
 10
3480.091620348854
 20
1459.656612488796
 30
0.0
  0
POINT
  5
49A
330
490
100
AcDbEntity
  8
DEFPOINTS
 62
     0
100
AcDbPoint
 10
3488.341620348855
 20
1459.656612488796
 30
0.0
  0
POINT
  5
49B
330
490
100
AcDbEntity
  8
DEFPOINTS
 62
     0
100
AcDbPoint
 10
3488.341620348855
 20
1509.967616153701
 30
0.0
  0
ENDBLK
  5
49D
330
490
100
AcDbEntity
  8
0
100
AcDbBlockEnd
  0
BLOCK
  5
3CF
330
3C5
100
AcDbEntity
  8
0
100
AcDbBlockBegin
  2
*D11
 70
     1
 10
0.0
 20
0.0
 30
0.0
  3
*D11
  1

  0
LINE
  5
3C6
330
3C5
100
AcDbEntity
  8
AM_5
 62
     2
370
    -2
100
AcDbLine
 10
3350.341620348855
 20
1163.337309648696
 30
0.0
 11
3350.341620348855
 21
889.3906134674463
 31
0.0
  0
LINE
  5
3C7
330
3C5
100
AcDbEntity
  8
AM_5
 62
     2
370
    -2
100
AcDbLine
 10
3490.341620348853
 20
1264.92773221714
 30
0.0
 11
3490.341620348853
 21
889.3906134674463
 31
0.0
  0
LINE
  5
3C8
330
3C5
100
AcDbEntity
  8
AM_5
 62
     2
370
    -2
100
AcDbLine
 10
3360.341620348855
 20
894.3906134674461
 30
0.0
 11
3480.341620348854
 21
894.3906134674461
 31
0.0
  0
INSERT
  5
3C9
330
3C5
100
AcDbEntity
  8
AM_5
 62
     2
370
    -2
100
AcDbBlockReference
  2
_Open30
 10
3350.341620348855
 20
894.3906134674461
 30
0.0
 41
10.0
 42
10.0
 43
10.0
 50
180.0
  0
INSERT
  5
3CA
330
3C5
100
AcDbEntity
  8
AM_5
 62
     2
370
    -2
100
AcDbBlockReference
  2
_Open30
 10
3490.341620348853
 20
894.3906134674461
 30
0.0
 41
10.0
 42
10.0
 43
10.0
  0
MTEXT
  5
3CB
330
3C5
100
AcDbEntity
  8
AM_5
 62
     0
100
AcDbMText
 10
3420.341620348854
 20
909.5619332644005
 30
0.0
 40
17.5
 41
0.0
 71
     5
 72
     1
  1
\A1;φ28
  7
スタイル１
 73
     1
 44
1.0
  0
POINT
  5
3CC
330
3C5
100
AcDbEntity
  8
DEFPOINTS
 62
     0
100
AcDbPoint
 10
3350.341620348855
 20
1168.337309648696
 30
0.0
  0
POINT
  5
3CD
330
3C5
100
AcDbEntity
  8
DEFPOINTS
 62
     0
100
AcDbPoint
 10
3490.341620348853
 20
1269.92773221714
 30
0.0
  0
POINT
  5
3CE
330
3C5
100
AcDbEntity
  8
DEFPOINTS
 62
     0
100
AcDbPoint
 10
3490.341620348853
 20
894.3906134674461
 30
0.0
  0
ENDBLK
  5
3D0
330
3C5
100
AcDbEntity
  8
0
100
AcDbBlockEnd
  0
BLOCK
  5
473
330
469
100
AcDbEntity
  8
0
100
AcDbBlockBegin
  2
*D12
 70
     1
 10
0.0
 20
0.0
 30
0.0
  3
*D12
  1

  0
LINE
  5
46A
330
469
100
AcDbEntity
  8
AM_5
 62
     2
370
    -2
100
AcDbLine
 10
3456.691620348856
 20
1679.832729381043
 30
0.0
 11
3675.800200597299
 21
1679.832729381042
 31
0.0
  0
LINE
  5
46B
330
469
100
AcDbEntity
  8
AM_5
 62
     2
370
    -2
100
AcDbLine
 10
3490.091620348853
 20
1619.832729381043
 30
0.0
 11
3675.800200597299
 21
1619.832729381043
 31
0.0
  0
LINE
  5
46C
330
469
100
AcDbEntity
  8
AM_5
 62
     2
370
    -2
100
AcDbLine
 10
3670.800200597299
 20
1669.832729381043
 30
0.0
 11
3670.800200597299
 21
1629.832729381042
 31
0.0
  0
INSERT
  5
46D
330
469
100
AcDbEntity
  8
AM_5
 62
     2
370
    -2
100
AcDbBlockReference
  2
_Open30
 10
3670.800200597299
 20
1679.832729381042
 30
0.0
 41
10.0
 42
10.0
 43
10.0
 50
90.0
  0
INSERT
  5
46E
330
469
100
AcDbEntity
  8
AM_5
 62
     2
370
    -2
100
AcDbBlockReference
  2
_Open30
 10
3670.800200597299
 20
1619.832729381043
 30
0.0
 41
10.0
 42
10.0
 43
10.0
 50
270.0
  0
MTEXT
  5
46F
330
469
100
AcDbEntity
  8
AM_5
 62
     0
100
AcDbMText
 10
3657.050200597298
 20
1649.832729381043
 30
0.0
 40
17.5
 41
0.0
 71
     5
 72
     1
  1
\A1;12
  7
スタイル１
 11
0.0000000000000001
 21
1.0
 31
0.0
 73
     1
 44
1.0
  0
POINT
  5
470
330
469
100
AcDbEntity
  8
DEFPOINTS
 62
     0
100
AcDbPoint
 10
3451.691620348855
 20
1679.832729381043
 30
0.0
  0
POINT
  5
471
330
469
100
AcDbEntity
  8
DEFPOINTS
 62
     0
100
AcDbPoint
 10
3485.091620348853
 20
1619.832729381043
 30
0.0
  0
POINT
  5
472
330
469
100
AcDbEntity
  8
DEFPOINTS
 62
     0
100
AcDbPoint
 10
3670.800200597299
 20
1619.832729381043
 30
0.0
  0
ENDBLK
  5
474
330
469
100
AcDbEntity
  8
0
100
AcDbBlockEnd
  0
BLOCK
  5
3F9
330
3ED
100
AcDbEntity
  8
0
100
AcDbBlockBegin
  2
*D13
 70
     1
 10
0.0
 20
0.0
 30
0.0
  3
*D13
  1

  0
LINE
  5
3EE
330
3ED
100
AcDbEntity
  8
AM_5
 62
     2
370
    -2
100
AcDbLine
 10
3388.991620348855
 20
1684.832729381043
 30
0.0
 11
3388.991620348855
 21
1887.836034587576
 31
0.0
  0
LINE
  5
3EF
330
3ED
100
AcDbEntity
  8
AM_5
 62
     2
370
    -2
100
AcDbLine
 10
3451.691620348855
 20
1684.832729381043
 30
0.0
 11
3451.691620348855
 21
1887.836034587576
 31
0.0
  0
LINE
  5
3F0
330
3ED
100
AcDbEntity
  8
AM_5
 62
     2
370
    -2
100
AcDbLine
 10
3461.691620348855
 20
1882.836034587576
 30
0.0
 11
3471.691620348856
 21
1882.836034587576
 31
0.0
  0
LINE
  5
3F1
330
3ED
100
AcDbEntity
  8
AM_5
 62
     2
370
    -2
100
AcDbLine
 10
3378.991620348855
 20
1882.836034587576
 30
0.0
 11
3265.372500213492
 21
1882.836034587576
 31
0.0
  0
LINE
  5
3F2
330
3ED
100
AcDbEntity
  8
AM_5
 62
     2
370
    -2
100
AcDbLine
 10
3451.691620348855
 20
1882.836034587576
 30
0.0
 11
3388.991620348855
 21
1882.836034587576
 31
0.0
  0
INSERT
  5
3F3
330
3ED
100
AcDbEntity
  8
AM_5
 62
     2
370
    -2
100
AcDbBlockReference
  2
_Open30
 10
3451.691620348855
 20
1882.836034587576
 30
0.0
 41
10.0
 42
10.0
 43
10.0
 50
180.0
  0
INSERT
  5
3F4
330
3ED
100
AcDbEntity
  8
AM_5
 62
     2
370
    -2
100
AcDbBlockReference
  2
_Open30
 10
3388.991620348855
 20
1882.836034587576
 30
0.0
 41
10.0
 42
10.0
 43
10.0
  0
MTEXT
  5
3F5
330
3ED
100
AcDbEntity
  8
AM_5
 62
     0
100
AcDbMText
 10
3301.508287015522
 20
1898.007354384531
 30
0.0
 40
17.5
 41
0.0
 71
     5
 72
     1
  1
\A1;φ12.5
  7
スタイル１
 73
     1
 44
1.0
  0
POINT
  5
3F6
330
3ED
100
AcDbEntity
  8
DEFPOINTS
 62
     0
100
AcDbPoint
 10
3388.991620348855
 20
1679.832729381043
 30
0.0
  0
POINT
  5
3F7
330
3ED
100
AcDbEntity
  8
DEFPOINTS
 62
     0
100
AcDbPoint
 10
3451.691620348855
 20
1679.832729381043
 30
0.0
  0
POINT
  5
3F8
330
3ED
100
AcDbEntity
  8
DEFPOINTS
 62
     0
100
AcDbPoint
 10
3451.691620348855
 20
1882.836034587576
 30
0.0
  0
ENDBLK
  5
3FA
330
3ED
100
AcDbEntity
  8
0
100
AcDbBlockEnd
  0
BLOCK
  5
4B2
330
4A6
100
AcDbEntity
  8
0
100
AcDbBlockBegin
  2
*D14
 70
     1
 10
0.0
 20
0.0
 30
0.0
  3
*D14
  1

  0
LINE
  5
4A7
330
4A6
100
AcDbEntity
  8
AM_5
 62
     2
370
    -2
100
AcDbLine
 10
3456.691620348856
 20
1679.832729381043
 30
0.0
 11
3624.980617831718
 21
1679.832729381042
 31
0.0
  0
LINE
  5
4A8
330
4A6
100
AcDbEntity
  8
AM_5
 62
     2
370
    -2
100
AcDbLine
 10
3498.341620348855
 20
1669.832729381043
 30
0.0
 11
3624.980617831718
 21
1669.832729381043
 31
0.0
  0
LINE
  5
4A9
330
4A6
100
AcDbEntity
  8
AM_5
 62
     2
370
    -2
100
AcDbLine
 10
3619.980617831718
 20
1669.832729381043
 30
0.0
 11
3619.980617831718
 21
1649.832729381042
 31
0.0
  0
LINE
  5
4AA
330
4A6
100
AcDbEntity
  8
AM_5
 62
     2
370
    -2
100
AcDbLine
 10
3619.980617831718
 20
1689.832729381042
 30
0.0
 11
3619.980617831718
 21
1720.196519567168
 31
0.0
  0
LINE
  5
4AB
330
4A6
100
AcDbEntity
  8
AM_5
 62
     2
370
    -2
100
AcDbLine
 10
3619.980617831718
 20
1669.832729381043
 30
0.0
 11
3619.980617831718
 21
1679.832729381042
 31
0.0
  0
INSERT
  5
4AC
330
4A6
100
AcDbEntity
  8
AM_5
 62
     2
370
    -2
100
AcDbBlockReference
  2
_DotSmall
 10
3619.980617831718
 20
1669.832729381043
 30
0.0
 41
10.0
 42
10.0
 43
10.0
 50
90.0
  0
INSERT
  5
4AD
330
4A6
100
AcDbEntity
  8
AM_5
 62
     2
370
    -2
100
AcDbBlockReference
  2
_Open30
 10
3619.980617831718
 20
1679.832729381042
 30
0.0
 41
10.0
 42
10.0
 43
10.0
 50
270.0
  0
MTEXT
  5
4AE
330
4A6
100
AcDbEntity
  8
AM_5
 62
     0
100
AcDbMText
 10
3606.230617831718
 20
1710.666062714376
 30
0.0
 40
17.5
 41
0.0
 71
     5
 72
     1
  1
\A1;2
  7
スタイル１
 11
0.0000000000000001
 21
1.0
 31
0.0
 73
     1
 44
1.0
  0
POINT
  5
4AF
330
4A6
100
AcDbEntity
  8
DEFPOINTS
 62
     0
100
AcDbPoint
 10
3451.691620348855
 20
1679.832729381043
 30
0.0
  0
POINT
  5
4B0
330
4A6
100
AcDbEntity
  8
DEFPOINTS
 62
     0
100
AcDbPoint
 10
3493.341620348855
 20
1669.832729381043
 30
0.0
  0
POINT
  5
4B1
330
4A6
100
AcDbEntity
  8
DEFPOINTS
 62
     0
100
AcDbPoint
 10
3619.980617831718
 20
1669.832729381043
 30
0.0
  0
ENDBLK
  5
4B3
330
4A6
100
AcDbEntity
  8
0
100
AcDbBlockEnd
  0
BLOCK
  5
4DC
330
4D0
100
AcDbEntity
  8
0
100
AcDbBlockBegin
  2
*D15
 70
     1
 10
0.0
 20
0.0
 30
0.0
  3
*D15
  1

  0
LINE
  5
4D1
330
4D0
100
AcDbEntity
  8
AM_5
 62
     2
370
    -2
100
AcDbLine
 10
3439.191620348855
 20
2164.839619377288
 30
0.0
 11
3439.191620348855
 21
2152.521484472847
 31
0.0
  0
LINE
  5
4D2
330
4D0
100
AcDbEntity
  8
AM_5
 62
     2
370
    -2
100
AcDbLine
 10
3444.191620348856
 20
2164.839619377288
 30
0.0
 11
3444.191620348856
 21
2152.521484472847
 31
0.0
  0
LINE
  5
4D3
330
4D0
100
AcDbEntity
  8
AM_5
 62
     2
370
    -2
100
AcDbLine
 10
3429.191620348856
 20
2157.521484472847
 30
0.0
 11
3419.191620348856
 21
2157.521484472847
 31
0.0
  0
LINE
  5
4D4
330
4D0
100
AcDbEntity
  8
AM_5
 62
     2
370
    -2
100
AcDbLine
 10
3454.191620348856
 20
2157.521484472847
 30
0.0
 11
3478.899742176267
 21
2157.521484472847
 31
0.0
  0
LINE
  5
4D5
330
4D0
100
AcDbEntity
  8
AM_5
 62
     2
370
    -2
100
AcDbLine
 10
3439.191620348855
 20
2157.521484472847
 30
0.0
 11
3444.191620348856
 21
2157.521484472847
 31
0.0
  0
INSERT
  5
4D6
330
4D0
100
AcDbEntity
  8
AM_5
 62
     2
370
    -2
100
AcDbBlockReference
  2
_Open30
 10
3439.191620348855
 20
2157.521484472847
 30
0.0
 41
10.0
 42
10.0
 43
10.0
  0
INSERT
  5
4D7
330
4D0
100
AcDbEntity
  8
AM_5
 62
     2
370
    -2
100
AcDbBlockReference
  2
_Open30
 10
3444.191620348856
 20
2157.521484472847
 30
0.0
 41
10.0
 42
10.0
 43
10.0
 50
180.0
  0
MTEXT
  5
4D8
330
4D0
100
AcDbEntity
  8
AM_5
 62
     0
100
AcDbMText
 10
3471.545681262561
 20
2171.271484472848
 30
0.0
 40
17.5
 41
0.0
 71
     5
 72
     1
  1
\A1;1
  7
スタイル１
 73
     1
 44
1.0
  0
POINT
  5
4D9
330
4D0
100
AcDbEntity
  8
DEFPOINTS
 62
     0
100
AcDbPoint
 10
3439.191620348855
 20
2169.839619377288
 30
0.0
  0
POINT
  5
4DA
330
4D0
100
AcDbEntity
  8
DEFPOINTS
 62
     0
100
AcDbPoint
 10
3444.191620348856
 20
2169.839619377288
 30
0.0
  0
POINT
  5
4DB
330
4D0
100
AcDbEntity
  8
DEFPOINTS
 62
     0
100
AcDbPoint
 10
3444.191620348856
 20
2157.521484472847
 30
0.0
  0
ENDBLK
  5
4DD
330
4D0
100
AcDbEntity
  8
0
100
AcDbBlockEnd
  0
BLOCK
  5
48C
330
480
100
AcDbEntity
  8
0
100
AcDbBlockBegin
  2
*D16
 70
     1
 10
0.0
 20
0.0
 30
0.0
  3
*D16
  1

  0
LINE
  5
481
330
480
100
AcDbEntity
  8
AM_5
 62
     2
370
    -2
100
AcDbLine
 10
3493.341620348854
 20
1669.832729381043
 30
0.0
 11
3624.980617831718
 21
1669.832729381043
 31
0.0
  0
LINE
  5
482
330
480
100
AcDbEntity
  8
AM_5
 62
     2
370
    -2
100
AcDbLine
 10
3493.341620348854
 20
1644.832729381045
 30
0.0
 11
3624.980617831718
 21
1644.832729381044
 31
0.0
  0
LINE
  5
483
330
480
100
AcDbEntity
  8
AM_5
 62
     2
370
    -2
100
AcDbLine
 10
3619.980617831719
 20
1669.832729381043
 30
0.0
 11
3619.980617831719
 21
1679.832729381043
 31
0.0
  0
LINE
  5
484
330
480
100
AcDbEntity
  8
AM_5
 62
     2
370
    -2
100
AcDbLine
 10
3619.980617831719
 20
1634.832729381044
 30
0.0
 11
3619.980617831719
 21
1598.627666789428
 31
0.0
  0
LINE
  5
485
330
480
100
AcDbEntity
  8
AM_5
 62
     2
370
    -2
100
AcDbLine
 10
3619.980617831719
 20
1669.832729381043
 30
0.0
 11
3619.980617831719
 21
1644.832729381044
 31
0.0
  0
INSERT
  5
486
330
480
100
AcDbEntity
  8
AM_5
 62
     2
370
    -2
100
AcDbBlockReference
  2
_DotSmall
 10
3619.980617831719
 20
1669.832729381043
 30
0.0
 41
10.0
 42
10.0
 43
10.0
 50
270.0
  0
INSERT
  5
487
330
480
100
AcDbEntity
  8
AM_5
 62
     2
370
    -2
100
AcDbBlockReference
  2
_Open30
 10
3619.980617831719
 20
1644.832729381044
 30
0.0
 41
10.0
 42
10.0
 43
10.0
 50
90.0
  0
MTEXT
  5
488
330
480
100
AcDbEntity
  8
AM_5
 62
     0
100
AcDbMText
 10
3606.230617831718
 20
1608.15812364222
 30
0.0
 40
17.5
 41
0.0
 71
     5
 72
     1
  1
\A1;5
  7
スタイル１
 11
0.0000000000000001
 21
1.0
 31
0.0
 73
     1
 44
1.0
  0
POINT
  5
489
330
480
100
AcDbEntity
  8
DEFPOINTS
 62
     0
100
AcDbPoint
 10
3488.341620348855
 20
1669.832729381043
 30
0.0
  0
POINT
  5
48A
330
480
100
AcDbEntity
  8
DEFPOINTS
 62
     0
100
AcDbPoint
 10
3488.341620348854
 20
1644.832729381045
 30
0.0
  0
POINT
  5
48B
330
480
100
AcDbEntity
  8
DEFPOINTS
 62
     0
100
AcDbPoint
 10
3619.980617831719
 20
1644.832729381044
 30
0.0
  0
ENDBLK
  5
48D
330
480
100
AcDbEntity
  8
0
100
AcDbBlockEnd
  0
BLOCK
  5
2B7
330
2AD
100
AcDbEntity
  8
0
100
AcDbBlockBegin
  2
*D17
 70
     1
 10
0.0
 20
0.0
 30
0.0
  3
*D17
  1

  0
LINE
  5
2AE
330
2AD
100
AcDbEntity
  8
AM_5
 62
     2
370
    -2
100
AcDbLine
 10
3391.491620348856
 20
2169.839619377288
 30
0.0
 11
3145.921370749213
 21
2169.839619377288
 31
0.0
  0
LINE
  5
2AF
330
2AD
100
AcDbEntity
  8
AM_5
 62
     2
370
    -2
100
AcDbLine
 10
3391.491620348856
 20
969.8396193772579
 30
0.0
 11
3145.921370749213
 21
969.8396193772579
 31
0.0
  0
LINE
  5
2B0
330
2AD
100
AcDbEntity
  8
AM_5
 62
     2
370
    -2
100
AcDbLine
 10
3150.921370749213
 20
2159.839619377287
 30
0.0
 11
3150.921370749212
 21
979.8396193772578
 31
0.0
  0
INSERT
  5
2B1
330
2AD
100
AcDbEntity
  8
AM_5
 62
     2
370
    -2
100
AcDbBlockReference
  2
_Open30
 10
3150.921370749213
 20
2169.839619377288
 30
0.0
 41
10.0
 42
10.0
 43
10.0
 50
90.0
  0
INSERT
  5
2B2
330
2AD
100
AcDbEntity
  8
AM_5
 62
     2
370
    -2
100
AcDbBlockReference
  2
_Open30
 10
3150.921370749212
 20
969.8396193772579
 30
0.0
 41
10.0
 42
10.0
 43
10.0
 50
270.0
  0
MTEXT
  5
2B3
330
2AD
100
AcDbEntity
  8
AM_5
 62
     0
100
AcDbMText
 10
3137.171370749213
 20
1569.839619377273
 30
0.0
 40
17.5
 41
0.0
 71
     5
 72
     1
  1
\A1;240
  7
スタイル１
 11
0.0000000000000001
 21
1.0
 31
0.0
 73
     1
 44
1.0
  0
POINT
  5
2B4
330
2AD
100
AcDbEntity
  8
DEFPOINTS
 62
     0
100
AcDbPoint
 10
3396.491620348855
 20
2169.839619377288
 30
0.0
  0
POINT
  5
2B5
330
2AD
100
AcDbEntity
  8
DEFPOINTS
 62
     0
100
AcDbPoint
 10
3396.491620348855
 20
969.8396193772579
 30
0.0
  0
POINT
  5
2B6
330
2AD
100
AcDbEntity
  8
DEFPOINTS
 62
     0
100
AcDbPoint
 10
3150.921370749212
 20
969.8396193772579
 30
0.0
  0
ENDBLK
  5
2B8
330
2AD
100
AcDbEntity
  8
0
100
AcDbBlockEnd
  0
BLOCK
  5
29E
330
298
100
AcDbEntity
  8
0
100
AcDbBlockBegin
  2
*D18
 70
     1
 10
0.0
 20
0.0
 30
0.0
  3
*D18
  1

  0
LINE
  5
299
330
298
100
AcDbEntity
  8
AM_5
 62
     2
370
    -2
100
AcDbLine
 10
2538.224691729777
 20
1385.342687524562
 30
0.0
 11
2388.718782229283
 21
1305.856742745029
 31
0.0
  0
MTEXT
  5
29A
330
298
100
AcDbEntity
  8
AM_5
 62
     0
100
AcDbMText
 10
2508.138267079327
 20
1384.919516130754
 30
0.0
 40
17.5
 41
0.0
 71
     5
 72
     1
  1
\A1;R550
  7
スタイル１
 11
0.8829665830479612
 21
0.4694358456920475
 31
0.0
 73
     1
 44
1.0
  0
INSERT
  5
29B
330
298
100
AcDbEntity
  8
AM_5
 62
     2
370
    -2
100
AcDbBlockReference
  2
_Open30
 10
2379.889116398804
 20
1301.162384288108
 30
0.0
 41
10.0
 42
10.0
 43
10.0
 50
207.9976822897043
  0
POINT
  5
29C
330
298
100
AcDbEntity
  8
DEFPOINTS
 62
     0
100
AcDbPoint
 10
2379.889116398804
 20
1301.162384288108
 30
0.0
  0
POINT
  5
29D
330
298
100
AcDbEntity
  8
DEFPOINTS
 62
     0
100
AcDbPoint
 10
2865.520737075182
 20
1559.352099418734
 30
0.0
  0
ENDBLK
  5
29F
330
298
100
AcDbEntity
  8
0
100
AcDbBlockEnd
  0
BLOCK
  5
2AA
330
2A4
100
AcDbEntity
  8
0
100
AcDbBlockBegin
  2
*D19
 70
     1
 10
0.0
 20
0.0
 30
0.0
  3
*D19
  1

  0
LINE
  5
2A5
330
2A4
100
AcDbEntity
  8
AM_5
 62
     2
370
    -2
100
AcDbLine
 10
2576.489339205211
 20
1329.077211797526
 30
0.0
 11
2391.55508140282
 21
1181.737802492518
 31
0.0
  0
MTEXT
  5
2A6
330
2A4
100
AcDbEntity
  8
AM_5
 62
     0
100
AcDbMText
 10
2547.127644407145
 20
1323.26477432497
 30
0.0
 40
17.5
 41
0.0
 71
     5
 72
     1
  1
\A1;R616
  7
スタイル１
 11
0.782121544013763
 21
0.6231259025185258
 31
0.0
 73
     1
 44
1.0
  0
INSERT
  5
2A7
330
2A4
100
AcDbEntity
  8
AM_5
 62
     2
370
    -2
100
AcDbBlockReference
  2
_Open30
 10
2383.733865962683
 20
1175.506543467332
 30
0.0
 41
10.0
 42
10.0
 43
10.0
 50
218.5447654995432
  0
POINT
  5
2A8
330
2A4
100
AcDbEntity
  8
DEFPOINTS
 62
     0
100
AcDbPoint
 10
2383.733865962683
 20
1175.506543467332
 30
0.0
  0
POINT
  5
2A9
330
2A4
100
AcDbEntity
  8
DEFPOINTS
 62
     0
100
AcDbPoint
 10
2865.520737075161
 20
1559.352099418745
 30
0.0
  0
ENDBLK
  5
2AB
330
2A4
100
AcDbEntity
  8
0
100
AcDbBlockEnd
  0
BLOCK
  5
213
330
20D
100
AcDbEntity
  8
0
100
AcDbBlockBegin
  2
*D20
 70
     1
 10
0.0
 20
0.0
 30
0.0
  3
*D20
  1

  0
LINE
  5
20E
330
20D
100
AcDbEntity
  8
AM_5
 62
     2
370
    -2
100
AcDbLine
 10
1082.200956069337
 20
2125.614437334429
 30
0.0
 11
1102.655704092777
 21
2175.631666696452
 31
0.0
  0
MTEXT
  5
20F
330
20D
100
AcDbEntity
  8
AM_5
 62
     0
100
AcDbMText
 10
1077.452868163987
 20
2150.329390709771
 30
0.0
 40
17.5
 41
0.0
 71
     5
 72
     1
  1
\A1;R60
  7
スタイル１
 11
0.3785243202688362
 21
0.9255913455542977
 31
0.0
 73
     1
 44
1.0
  0
INSERT
  5
210
330
20D
100
AcDbEntity
  8
AM_5
 62
     2
370
    -2
100
AcDbBlockReference
  2
_Open30
 10
1106.440947295465
 20
2184.887580151995
 30
0.0
 41
10.0
 42
10.0
 43
10.0
 50
67.75769442575018
  0
POINT
  5
211
330
20D
100
AcDbEntity
  8
DEFPOINTS
 62
     0
100
AcDbPoint
 10
1106.440947295465
 20
2184.887580151995
 30
0.0
  0
POINT
  5
212
330
20D
100
AcDbEntity
  8
DEFPOINTS
 62
     0
100
AcDbPoint
 10
1083.729488079336
 20
2129.352099418739
 30
0.0
  0
ENDBLK
  5
214
330
20D
100
AcDbEntity
  8
0
100
AcDbBlockEnd
  0
BLOCK
  5
185
330
17B
100
AcDbEntity
  8
0
100
AcDbBlockBegin
  2
*D21
 70
     1
 10
0.0
 20
0.0
 30
0.0
  3
*D21
  1

  0
LINE
  5
17C
330
17B
100
AcDbEntity
  8
AM_5
 62
     2
370
    -2
100
AcDbLine
 10
343.7294880793215
 20
1826.469436912121
 30
0.0
 11
343.7294880793215
 21
1836.406158959011
 31
0.0
  0
LINE
  5
17D
330
17B
100
AcDbEntity
  8
AM_5
 62
     2
370
    -2
100
AcDbLine
 10
463.7294880793215
 20
1826.469436912121
 30
0.0
 11
463.7294880793215
 21
1836.406158959011
 31
0.0
  0
LINE
  5
17E
330
17B
100
AcDbEntity
  8
AM_5
 62
     2
370
    -2
100
AcDbLine
 10
353.7294880793215
 20
1831.406158959011
 30
0.0
 11
453.7294880793215
 21
1831.406158959011
 31
0.0
  0
INSERT
  5
17F
330
17B
100
AcDbEntity
  8
AM_5
 62
     2
370
    -2
100
AcDbBlockReference
  2
_Open30
 10
343.7294880793215
 20
1831.406158959011
 30
0.0
 41
10.0
 42
10.0
 43
10.0
 50
180.0
  0
INSERT
  5
180
330
17B
100
AcDbEntity
  8
AM_5
 62
     2
370
    -2
100
AcDbBlockReference
  2
_Open30
 10
463.7294880793215
 20
1831.406158959011
 30
0.0
 41
10.0
 42
10.0
 43
10.0
  0
MTEXT
  5
181
330
17B
100
AcDbEntity
  8
AM_5
 62
     0
100
AcDbMText
 10
403.7294880793215
 20
1845.156158959011
 30
0.0
 40
17.5
 41
0.0
 71
     5
 72
     1
  1
\A1;120
  7
スタイル１
 73
     1
 44
1.0
  0
POINT
  5
182
330
17B
100
AcDbEntity
  8
DEFPOINTS
 62
     0
100
AcDbPoint
 10
343.7294880793215
 20
1821.469436912121
 30
0.0
  0
POINT
  5
183
330
17B
100
AcDbEntity
  8
DEFPOINTS
 62
     0
100
AcDbPoint
 10
463.7294880793215
 20
1821.469436912121
 30
0.0
  0
POINT
  5
184
330
17B
100
AcDbEntity
  8
DEFPOINTS
 62
     0
100
AcDbPoint
 10
463.7294880793215
 20
1831.406158959011
 30
0.0
  0
ENDBLK
  5
186
330
17B
100
AcDbEntity
  8
0
100
AcDbBlockEnd
  0
BLOCK
  5
191
330
188
100
AcDbEntity
  8
0
100
AcDbBlockBegin
  2
*D22
 70
     1
 10
0.0
 20
0.0
 30
0.0
  3
*D22
  1

  0
LINE
  5
189
330
188
100
AcDbEntity
  8
AM_5
 62
     2
370
    -2
100
AcDbLine
 10
463.7294880793215
 20
1826.469436912121
 30
0.0
 11
463.7294880793215
 21
1836.406158959011
 31
0.0
  0
LINE
  5
18A
330
188
100
AcDbEntity
  8
AM_5
 62
     2
370
    -2
100
AcDbLine
 10
473.7294880793215
 20
1831.406158959011
 30
0.0
 11
573.7294880793215
 21
1831.406158959011
 31
0.0
  0
INSERT
  5
18B
330
188
100
AcDbEntity
  8
AM_5
 62
     2
370
    -2
100
AcDbBlockReference
  2
_Open30
 10
463.7294880793215
 20
1831.406158959011
 30
0.0
 41
10.0
 42
10.0
 43
10.0
 50
180.0
  0
INSERT
  5
18C
330
188
100
AcDbEntity
  8
AM_5
 62
     2
370
    -2
100
AcDbBlockReference
  2
_Open30
 10
583.7294880793215
 20
1831.406158959011
 30
0.0
 41
10.0
 42
10.0
 43
10.0
  0
MTEXT
  5
18D
330
188
100
AcDbEntity
  8
AM_5
 62
     0
100
AcDbMText
 10
523.7294880793215
 20
1845.156158959011
 30
0.0
 40
17.5
 41
0.0
 71
     5
 72
     1
  1
\A1;120
  7
スタイル１
 73
     1
 44
1.0
  0
POINT
  5
18E
330
188
100
AcDbEntity
  8
DEFPOINTS
 62
     0
100
AcDbPoint
 10
463.7294880793215
 20
1821.469436912121
 30
0.0
  0
POINT
  5
18F
330
188
100
AcDbEntity
  8
DEFPOINTS
 62
     0
100
AcDbPoint
 10
583.7294880793215
 20
1831.406158959011
 30
0.0
  0
POINT
  5
190
330
188
100
AcDbEntity
  8
DEFPOINTS
 62
     0
100
AcDbPoint
 10
583.7294880793215
 20
1831.406158959011
 30
0.0
  0
ENDBLK
  5
192
330
188
100
AcDbEntity
  8
0
100
AcDbBlockEnd
  0
BLOCK
  5
162
330
15A
100
AcDbEntity
  8
0
100
AcDbBlockBegin
  2
*D23
 70
     1
 10
0.0
 20
0.0
 30
0.0
  3
*D23
  1

  0
LINE
  5
15B
330
15A
100
AcDbEntity
  8
AM_5
 62
     2
370
    -2
100
AcDbLine
 10
593.7294880793215
 20
1831.406158959011
 30
0.0
 11
793.7294880793288
 21
1831.406158959011
 31
0.0
  0
INSERT
  5
15C
330
15A
100
AcDbEntity
  8
AM_5
 62
     2
370
    -2
100
AcDbBlockReference
  2
_Open30
 10
583.7294880793215
 20
1831.406158959011
 30
0.0
 41
10.0
 42
10.0
 43
10.0
 50
180.0
  0
INSERT
  5
15D
330
15A
100
AcDbEntity
  8
AM_5
 62
     2
370
    -2
100
AcDbBlockReference
  2
_Open30
 10
803.7294880793288
 20
1831.406158959011
 30
0.0
 41
10.0
 42
10.0
 43
10.0
  0
MTEXT
  5
15E
330
15A
100
AcDbEntity
  8
AM_5
 62
     0
100
AcDbMText
 10
693.7294880793252
 20
1845.156158959011
 30
0.0
 40
17.5
 41
0.0
 71
     5
 72
     1
  1
\A1;220
  7
スタイル１
 73
     1
 44
1.0
  0
POINT
  5
15F
330
15A
100
AcDbEntity
  8
DEFPOINTS
 62
     0
100
AcDbPoint
 10
583.7294880793215
 20
1831.406158959011
 30
0.0
  0
POINT
  5
160
330
15A
100
AcDbEntity
  8
DEFPOINTS
 62
     0
100
AcDbPoint
 10
803.7294880793288
 20
1831.406158959011
 30
0.0
  0
POINT
  5
161
330
15A
100
AcDbEntity
  8
DEFPOINTS
 62
     0
100
AcDbPoint
 10
803.7294880793288
 20
1831.406158959011
 30
0.0
  0
ENDBLK
  5
163
330
15A
100
AcDbEntity
  8
0
100
AcDbBlockEnd
  0
BLOCK
  5
1FF
330
1F7
100
AcDbEntity
  8
0
100
AcDbBlockBegin
  2
*D24
 70
     1
 10
0.0
 20
0.0
 30
0.0
  3
*D24
  1

  0
LINE
  5
1F8
330
1F7
100
AcDbEntity
  8
AM_5
 62
     2
370
    -2
100
AcDbLine
 10
813.7294880793287
 20
1831.406158959011
 30
0.0
 11
1013.729488079336
 21
1831.406158959011
 31
0.0
  0
INSERT
  5
1F9
330
1F7
100
AcDbEntity
  8
AM_5
 62
     2
370
    -2
100
AcDbBlockReference
  2
_Open30
 10
803.7294880793288
 20
1831.406158959011
 30
0.0
 41
10.0
 42
10.0
 43
10.0
 50
180.0
  0
INSERT
  5
1FA
330
1F7
100
AcDbEntity
  8
AM_5
 62
     2
370
    -2
100
AcDbBlockReference
  2
_Open30
 10
1023.729488079336
 20
1831.406158959011
 30
0.0
 41
10.0
 42
10.0
 43
10.0
  0
MTEXT
  5
1FB
330
1F7
100
AcDbEntity
  8
AM_5
 62
     0
100
AcDbMText
 10
913.7294880793325
 20
1845.156158959011
 30
0.0
 40
17.5
 41
0.0
 71
     5
 72
     1
  1
\A1;220
  7
スタイル１
 73
     1
 44
1.0
  0
POINT
  5
1FC
330
1F7
100
AcDbEntity
  8
DEFPOINTS
 62
     0
100
AcDbPoint
 10
803.7294880793288
 20
1831.406158959011
 30
0.0
  0
POINT
  5
1FD
330
1F7
100
AcDbEntity
  8
DEFPOINTS
 62
     0
100
AcDbPoint
 10
1023.729488079336
 20
1831.406158959011
 30
0.0
  0
POINT
  5
1FE
330
1F7
100
AcDbEntity
  8
DEFPOINTS
 62
     0
100
AcDbPoint
 10
1023.729488079336
 20
1831.406158959011
 30
0.0
  0
ENDBLK
  5
200
330
1F7
100
AcDbEntity
  8
0
100
AcDbBlockEnd
  0
BLOCK
  5
1F4
330
1EC
100
AcDbEntity
  8
0
100
AcDbBlockBegin
  2
*D25
 70
     1
 10
0.0
 20
0.0
 30
0.0
  3
*D25
  1

  0
LINE
  5
1ED
330
1EC
100
AcDbEntity
  8
AM_5
 62
     2
370
    -2
100
AcDbLine
 10
1033.729488079336
 20
1831.406158959011
 30
0.0
 11
1133.729488079336
 21
1831.406158959011
 31
0.0
  0
INSERT
  5
1EE
330
1EC
100
AcDbEntity
  8
AM_5
 62
     2
370
    -2
100
AcDbBlockReference
  2
_Open30
 10
1023.729488079336
 20
1831.406158959011
 30
0.0
 41
10.0
 42
10.0
 43
10.0
 50
180.0
  0
INSERT
  5
1EF
330
1EC
100
AcDbEntity
  8
AM_5
 62
     2
370
    -2
100
AcDbBlockReference
  2
_Open30
 10
1143.729488079336
 20
1831.406158959011
 30
0.0
 41
10.0
 42
10.0
 43
10.0
  0
MTEXT
  5
1F0
330
1EC
100
AcDbEntity
  8
AM_5
 62
     0
100
AcDbMText
 10
1083.729488079336
 20
1845.156158959011
 30
0.0
 40
17.5
 41
0.0
 71
     5
 72
     1
  1
\A1;120
  7
スタイル１
 73
     1
 44
1.0
  0
POINT
  5
1F1
330
1EC
100
AcDbEntity
  8
DEFPOINTS
 62
     0
100
AcDbPoint
 10
1023.729488079336
 20
1831.406158959011
 30
0.0
  0
POINT
  5
1F2
330
1EC
100
AcDbEntity
  8
DEFPOINTS
 62
     0
100
AcDbPoint
 10
1143.729488079336
 20
1831.406158959011
 30
0.0
  0
POINT
  5
1F3
330
1EC
100
AcDbEntity
  8
DEFPOINTS
 62
     0
100
AcDbPoint
 10
1143.729488079336
 20
1831.406158959011
 30
0.0
  0
ENDBLK
  5
1F5
330
1EC
100
AcDbEntity
  8
0
100
AcDbBlockEnd
  0
BLOCK
  5
20A
330
202
100
AcDbEntity
  8
0
100
AcDbBlockBegin
  2
*D26
 70
     1
 10
0.0
 20
0.0
 30
0.0
  3
*D26
  1

  0
LINE
  5
203
330
202
100
AcDbEntity
  8
AM_5
 62
     2
370
    -2
100
AcDbLine
 10
1153.729488079336
 20
1831.406158959011
 30
0.0
 11
1253.729488079336
 21
1831.406158959011
 31
0.0
  0
INSERT
  5
204
330
202
100
AcDbEntity
  8
AM_5
 62
     2
370
    -2
100
AcDbBlockReference
  2
_Open30
 10
1143.729488079336
 20
1831.406158959011
 30
0.0
 41
10.0
 42
10.0
 43
10.0
 50
180.0
  0
INSERT
  5
205
330
202
100
AcDbEntity
  8
AM_5
 62
     2
370
    -2
100
AcDbBlockReference
  2
_Open30
 10
1263.729488079336
 20
1831.406158959011
 30
0.0
 41
10.0
 42
10.0
 43
10.0
  0
MTEXT
  5
206
330
202
100
AcDbEntity
  8
AM_5
 62
     0
100
AcDbMText
 10
1203.729488079336
 20
1845.156158959011
 30
0.0
 40
17.5
 41
0.0
 71
     5
 72
     1
  1
\A1;120
  7
スタイル１
 73
     1
 44
1.0
  0
POINT
  5
207
330
202
100
AcDbEntity
  8
DEFPOINTS
 62
     0
100
AcDbPoint
 10
1143.729488079336
 20
1831.406158959011
 30
0.0
  0
POINT
  5
208
330
202
100
AcDbEntity
  8
DEFPOINTS
 62
     0
100
AcDbPoint
 10
1263.729488079336
 20
1831.406158959011
 30
0.0
  0
POINT
  5
209
330
202
100
AcDbEntity
  8
DEFPOINTS
 62
     0
100
AcDbPoint
 10
1263.729488079336
 20
1831.406158959011
 30
0.0
  0
ENDBLK
  5
20B
330
202
100
AcDbEntity
  8
0
100
AcDbBlockEnd
  0
BLOCK
  5
22B
330
221
100
AcDbEntity
  8
0
100
AcDbBlockBegin
  2
*D27
 70
     1
 10
0.0
 20
0.0
 30
0.0
  3
*D27
  1

  0
LINE
  5
222
330
221
100
AcDbEntity
  8
AM_5
 62
     2
370
    -2
100
AcDbLine
 10
1923.576621769384
 20
2189.352099418737
 30
0.0
 11
1595.250020224162
 21
2189.352099418737
 31
0.0
  0
LINE
  5
223
330
221
100
AcDbEntity
  8
AM_5
 62
     2
370
    -2
100
AcDbLine
 10
1603.557727930571
 20
1559.352099418737
 30
0.0
 11
1595.250020224162
 21
1559.352099418737
 31
0.0
  0
LINE
  5
224
330
221
100
AcDbEntity
  8
AM_5
 62
     2
370
    -2
100
AcDbLine
 10
1600.250020224162
 20
2179.352099418737
 30
0.0
 11
1600.250020224162
 21
1569.352099418737
 31
0.0
  0
INSERT
  5
225
330
221
100
AcDbEntity
  8
AM_5
 62
     2
370
    -2
100
AcDbBlockReference
  2
_Open30
 10
1600.250020224162
 20
2189.352099418737
 30
0.0
 41
10.0
 42
10.0
 43
10.0
 50
90.0
  0
INSERT
  5
226
330
221
100
AcDbEntity
  8
AM_5
 62
     2
370
    -2
100
AcDbBlockReference
  2
_Open30
 10
1600.250020224162
 20
1559.352099418737
 30
0.0
 41
10.0
 42
10.0
 43
10.0
 50
270.0
  0
MTEXT
  5
227
330
221
100
AcDbEntity
  8
AM_5
 62
     0
100
AcDbMText
 10
1586.500020224162
 20
1874.352099418737
 30
0.0
 40
17.5
 41
0.0
 71
     5
 72
     1
  1
\A1;630
  7
スタイル１
 11
0.0000000000000001
 21
1.0
 31
0.0
 73
     1
 44
1.0
  0
POINT
  5
228
330
221
100
AcDbEntity
  8
DEFPOINTS
 62
     0
100
AcDbPoint
 10
1928.576621769384
 20
2189.352099418737
 30
0.0
  0
POINT
  5
229
330
221
100
AcDbEntity
  8
DEFPOINTS
 62
     0
100
AcDbPoint
 10
1608.55772793057
 20
1559.352099418737
 30
0.0
  0
POINT
  5
22A
330
221
100
AcDbEntity
  8
DEFPOINTS
 62
     0
100
AcDbPoint
 10
1600.250020224162
 20
1559.352099418737
 30
0.0
  0
ENDBLK
  5
22C
330
221
100
AcDbEntity
  8
0
100
AcDbBlockEnd
  0
BLOCK
  5
239
330
233
100
AcDbEntity
  8
0
100
AcDbBlockBegin
  2
*D28
 70
     1
 10
0.0
 20
0.0
 30
0.0
  3
*D28
  1

  0
LINE
  5
234
330
233
100
AcDbEntity
  8
AM_5
 62
     2
370
    -2
100
AcDbLine
 10
1126.637765513529
 20
2363.322259652993
 30
0.0
 11
1072.421780904419
 21
2326.34649597042
 31
0.0
  0
MTEXT
  5
235
330
233
100
AcDbEntity
  8
AM_5
 62
     0
100
AcDbMText
 10
1101.476169205432
 20
2362.805219682948
 30
0.0
 40
17.5
 41
0.0
 71
     5
 72
     1
  1
\A1;R60
  7
スタイル１
 11
0.8261541434983287
 21
0.5634441686454328
 31
0.0
 73
     1
 44
1.0
  0
INSERT
  5
236
330
233
100
AcDbEntity
  8
AM_5
 62
     2
370
    -2
100
AcDbBlockReference
  2
_Open30
 10
1064.160239469436
 20
2320.712054283966
 30
0.0
 41
10.0
 42
10.0
 43
10.0
 50
214.2943212126027
  0
POINT
  5
237
330
233
100
AcDbEntity
  8
DEFPOINTS
 62
     0
100
AcDbPoint
 10
1064.160239469436
 20
2320.712054283966
 30
0.0
  0
POINT
  5
238
330
233
100
AcDbEntity
  8
DEFPOINTS
 62
     0
100
AcDbPoint
 10
1113.729488079336
 20
2354.518704402692
 30
0.0
  0
ENDBLK
  5
23A
330
233
100
AcDbEntity
  8
0
100
AcDbBlockEnd
  0
BLOCK
  5
45
330
3F
100
AcDbEntity
  8
0
100
AcDbBlockBegin
  2
*D29
 70
     1
 10
0.0
 20
0.0
 30
0.0
  3
*D29
  1

  0
LINE
  5
40
330
3F
100
AcDbEntity
  8
AM_5
 62
     2
370
    -2
100
AcDbLine
 10
2047.456512130037
 20
2022.150875952954
 30
0.0
 11
1899.405824853963
 21
2105.906741137027
 31
0.0
  0
MTEXT
  5
41
330
3F
100
AcDbEntity
  8
AM_5
 62
     0
100
AcDbMText
 10
2025.983929285478
 20
2050.096247131732
 30
0.0
 40
17.5
 41
0.0
 71
     5
 72
     1
  1
\A1;R1120
  7
スタイル１
 11
0.8703737947938806
 21
-0.4923915691155768
 31
0.0
 73
     1
 44
1.0
  0
INSERT
  5
42
330
3F
100
AcDbEntity
  8
AM_5
 62
     2
370
    -2
100
AcDbBlockReference
  2
_Open30
 10
1890.702086906024
 20
2110.830656828182
 30
0.0
 41
10.0
 42
10.0
 43
10.0
 50
150.5021059545416
  0
POINT
  5
43
330
3F
100
AcDbEntity
  8
DEFPOINTS
 62
     0
100
AcDbPoint
 10
1890.702086906024
 20
2110.830656828182
 30
0.0
  0
POINT
  5
44
330
3F
100
AcDbEntity
  8
DEFPOINTS
 62
     0
100
AcDbPoint
 10
2865.520737075173
 20
1559.352099418736
 30
0.0
  0
ENDBLK
  5
46
330
3F
100
AcDbEntity
  8
0
100
AcDbBlockEnd
  0
BLOCK
  5
2E4
330
2DA
100
AcDbEntity
  8
0
100
AcDbBlockBegin
  2
*D30
 70
     1
 10
0.0
 20
0.0
 30
0.0
  3
*D30
  1

  0
LINE
  5
2DB
330
2DA
100
AcDbEntity
  8
AM_5
 62
     2
370
    -2
100
AcDbLine
 10
2085.52073707517
 20
743.977153544914
 30
0.0
 11
2085.52073707517
 21
192.9895132615492
 31
0.0
  0
LINE
  5
2DC
330
2DA
100
AcDbEntity
  8
AM_5
 62
     2
370
    -2
100
AcDbLine
 10
2865.52073707517
 20
229.3520994187374
 30
0.0
 11
2865.52073707517
 21
192.9895132615492
 31
0.0
  0
LINE
  5
2DD
330
2DA
100
AcDbEntity
  8
AM_5
 62
     2
370
    -2
100
AcDbLine
 10
2095.52073707517
 20
197.9895132615492
 30
0.0
 11
2855.52073707517
 21
197.9895132615492
 31
0.0
  0
INSERT
  5
2DE
330
2DA
100
AcDbEntity
  8
AM_5
 62
     2
370
    -2
100
AcDbBlockReference
  2
_Open30
 10
2085.52073707517
 20
197.9895132615492
 30
0.0
 41
10.0
 42
10.0
 43
10.0
 50
180.0
  0
INSERT
  5
2DF
330
2DA
100
AcDbEntity
  8
AM_5
 62
     2
370
    -2
100
AcDbBlockReference
  2
_Open30
 10
2865.52073707517
 20
197.9895132615492
 30
0.0
 41
10.0
 42
10.0
 43
10.0
  0
MTEXT
  5
2E0
330
2DA
100
AcDbEntity
  8
AM_5
 62
     0
100
AcDbMText
 10
2475.52073707517
 20
211.7395132615492
 30
0.0
 40
17.5
 41
0.0
 71
     5
 72
     1
  1
\A1;780
  7
スタイル１
 73
     1
 44
1.0
  0
POINT
  5
2E1
330
2DA
100
AcDbEntity
  8
DEFPOINTS
 62
     0
100
AcDbPoint
 10
2085.52073707517
 20
748.977153544914
 30
0.0
  0
POINT
  5
2E2
330
2DA
100
AcDbEntity
  8
DEFPOINTS
 62
     0
100
AcDbPoint
 10
2865.52073707517
 20
234.3520994187374
 30
0.0
  0
POINT
  5
2E3
330
2DA
100
AcDbEntity
  8
DEFPOINTS
 62
     0
100
AcDbPoint
 10
2865.52073707517
 20
197.9895132615492
 30
0.0
  0
ENDBLK
  5
2E5
330
2DA
100
AcDbEntity
  8
0
100
AcDbBlockEnd
  0
BLOCK
  5
1DE
330
1D3
100
AcDbEntity
  8
0
100
AcDbBlockBegin
  2
*D31
 70
     1
 10
0.0
 20
0.0
 30
0.0
  3
*D31
  1

  0
LINE
  5
1D4
330
1D3
100
AcDbEntity
  8
AM_5
 62
     2
370
    -2
100
AcDbLine
 10
1083.499488079336
 20
2398.962626899667
 30
0.0
 11
1226.902185779309
 21
2398.962626899667
 31
0.0
  0
ARC
  5
1D5
330
1D3
100
AcDbEntity
  8
AM_5
 62
     2
370
    -2
100
AcDbCircle
 10
916.7503562269196
 20
2398.962626899666
 30
0.0
 40
305.1518295523894
100
AcDbArc
 50
331.8776994940232
 51
358.1223005059769
  0
INSERT
  5
1D6
330
1D3
100
AcDbEntity
  8
AM_5
 62
     2
370
    -2
100
AcDbBlockReference
  2
_Open30
 10
1181.019592630587
 20
2246.386712123471
 30
0.0
 41
10.0
 42
10.0
 43
10.0
 50
240.9388497470116
  0
INSERT
  5
1D7
330
1D3
100
AcDbEntity
  8
AM_5
 62
     2
370
    -2
100
AcDbBlockReference
  2
_Open30
 10
1221.902185779309
 20
2398.962626899667
 30
0.0
 41
10.0
 42
10.0
 43
10.0
 50
89.06115025298852
  0
MTEXT
  5
1D8
330
1D3
100
AcDbEntity
  8
AM_5
 62
     0
100
AcDbMText
 10
1198.222909219458
 20
2323.54228363379
 30
0.0
 40
17.5
 41
0.0
 71
     5
 72
     1
  1
\A1;30°
  7
スタイル１
 11
0.2588190451025205
 21
0.9659258262890682
 31
0.0
 73
     1
 44
1.0
  0
POINT
  5
1D9
330
1D3
100
AcDbEntity
  8
DEFPOINTS
 62
     0
100
AcDbPoint
 10
1203.499278676619
 20
2294.594554420068
 30
0.0
  0
POINT
  5
1DA
330
1D3
100
AcDbEntity
  8
DEFPOINTS
 62
     0
100
AcDbPoint
 10
1078.499488079336
 20
2398.962626899667
 30
0.0
  0
POINT
  5
1DB
330
1D3
100
AcDbEntity
  8
DEFPOINTS
 62
     0
100
AcDbPoint
 10
1083.729488079336
 20
2302.557180175624
 30
0.0
  0
POINT
  5
1DC
330
1D3
100
AcDbEntity
  8
DEFPOINTS
 62
     0
100
AcDbPoint
 10
1233.729488079335
 20
2215.95463979718
 30
0.0
  0
POINT
  5
1DD
330
1D3
100
AcDbEntity
  8
DEFPOINTS
 62
     0
100
AcDbPoint
 10
1028.959488079335
 20
2398.962626899667
 30
0.0
  0
ENDBLK
  5
1DF
330
1D3
100
AcDbEntity
  8
0
100
AcDbBlockEnd
  0
BLOCK
  5
4FE
330
4ED
100
AcDbEntity
  8
0
100
AcDbBlockBegin
  2
B-ノゾキポイント側面
 70
     0
 10
0.0
 20
0.0
 30
0.0
  3
B-ノゾキポイント側面
  1

  0
LWPOLYLINE
  5
4EE
330
4ED
100
AcDbEntity
  8
AM_0
100
AcDbPolyline
 90
        4
 70
     1
 43
0.0
 10
-743.5317935751763
 20
-837.6517605444528
 10
-728.4563804265848
 20
-850.7945120980384
 10
-735.0277562033788
 20
-858.3322186723341
 10
-750.1031693519705
 20
-845.1894671187483
  0
LINE
  5
4EF
330
4ED
100
AcDbEntity
  8
AM_0
100
AcDbLine
 10
-743.4358421616224
 20
-851.0020457808055
 30
0.0
 11
-741.2511876223151
 21
-850.253301580682
 31
0.0
  0
LINE
  5
4F0
330
4ED
100
AcDbEntity
  8
AM_0
100
AcDbLine
 10
-741.6950833937266
 20
-852.5196400102766
 30
0.0
 11
-741.2511876223151
 21
-850.253301580682
 31
0.0
  0
LINE
  5
4F1
330
4ED
100
AcDbEntity
  8
AM_7
 48
0.4
100
AcDbLine
 10
-794.8511281492365
 20
-911.7351948424333
 30
0.0
 11
-725.041794039561
 21
-831.6602920307529
 31
0.0
  0
LINE
  5
4F2
330
4ED
100
AcDbEntity
  8
AM_0
100
AcDbLine
 10
-655.0768469281692
 20
920.7473366523103
 30
0.0
 11
-652.9775284622672
 21
919.7849462367003
 31
0.0
  0
LINE
  5
4F3
330
4ED
100
AcDbEntity
  8
AM_0
100
AcDbLine
 10
-653.1937331469424
 20
922.0842045666099
 30
0.0
 11
-652.9775284622672
 21
919.7849462367003
 31
0.0
  0
LWPOLYLINE
  5
4F4
330
4ED
100
AcDbEntity
  8
AM_0
100
AcDbPolyline
 90
        4
 70
     1
 43
0.0
 10
-656.5006040249162
 20
907.472840869223
 10
-640.1923602973173
 20
919.0504566220988
 10
-645.9811681737563
 20
927.2045784858983
 10
-662.2894119013552
 20
915.6269627330225
  0
LINE
  5
4F5
330
4ED
100
AcDbEntity
  8
AM_7
 48
0.4
100
AcDbLine
 10
-682.5346310915787
 20
961.4191171963575
 30
0.0
 11
-638.6984690337221
 21
899.6714456393291
 31
0.0
  0
LINE
  5
4F6
330
4ED
100
AcDbEntity
  8
AM_7
 48
0.3
100
AcDbLine
 10
-172.0034210912081
 20
1037.234133730296
 30
0.0
 11
-242.0034210912081
 21
1037.234133730296
 31
0.0
  0
LWPOLYLINE
  5
4F7
330
4ED
100
AcDbEntity
  8
AM_0
100
AcDbPolyline
 90
        4
 70
     1
 43
0.0
 10
-212.0034210912081
 20
1047.234133730849
 10
-212.0034210912081
 20
1027.234133730849
 10
-202.0034210912081
 20
1027.234133730849
 10
-202.0034210912081
 20
1047.234133730849
  0
LINE
  5
4F8
330
4ED
100
AcDbEntity
  8
AM_0
100
AcDbLine
 10
-202.0034210912081
 20
1038.388834269228
 30
0.0
 11
-204.0034210912081
 21
1037.234133730849
 31
0.0
  0
LINE
  5
4F9
330
4ED
100
AcDbEntity
  8
AM_0
100
AcDbLine
 10
-202.0034210912081
 20
1036.07943319247
 30
0.0
 11
-204.0034210912081
 21
1037.234133730849
 31
0.0
  0
LINE
  5
4FA
330
4ED
100
AcDbEntity
  8
AM_7
 48
0.3
100
AcDbLine
 10
-172.0034210912081
 20
727.2341337302964
 30
0.0
 11
-242.0034210912081
 21
727.2341337302964
 31
0.0
  0
LINE
  5
4FB
330
4ED
100
AcDbEntity
  8
AM_0
100
AcDbLine
 10
-202.0034210912081
 20
726.0794331924703
 30
0.0
 11
-204.0034210912081
 21
727.2341337308493
 31
0.0
  0
LINE
  5
4FC
330
4ED
100
AcDbEntity
  8
AM_0
100
AcDbLine
 10
-202.0034210912081
 20
728.3888342692285
 30
0.0
 11
-204.0034210912081
 21
727.2341337308493
 31
0.0
  0
LWPOLYLINE
  5
4FD
330
4ED
100
AcDbEntity
  8
AM_0
100
AcDbPolyline
 90
        4
 70
     1
 43
0.0
 10
-212.0034210912081
 20
737.234133730849
 10
-212.0034210912081
 20
717.2341337308489
 10
-202.0034210912081
 20
717.2341337308489
 10
-202.0034210912081
 20
737.234133730849
  0
ENDBLK
  5
4FF
330
4ED
100
AcDbEntity
  8
0
100
AcDbBlockEnd
  0
BLOCK
  5
543
330
537
100
AcDbEntity
  8
0
100
AcDbBlockBegin
  2
*D33
 70
     1
 10
0.0
 20
0.0
 30
0.0
  3
*D33
  1

  0
LINE
  5
58E
330
537
100
AcDbEntity
  8
AM_5
 62
     2
370
    -2
100
AcDbLine
 10
3396.491620348855
 20
2174.839619377288
 30
0.0
 11
3396.491620348855
 21
2248.696527331957
 31
0.0
  0
LINE
  5
58F
330
537
100
AcDbEntity
  8
AM_5
 62
     2
370
    -2
100
AcDbLine
 10
3444.191620348856
 20
2174.839619377288
 30
0.0
 11
3444.191620348856
 21
2248.696527331957
 31
0.0
  0
LINE
  5
590
330
537
100
AcDbEntity
  8
AM_5
 62
     2
370
    -2
100
AcDbLine
 10
3386.491620348855
 20
2243.696527331958
 30
0.0
 11
3376.491620348855
 21
2243.696527331958
 31
0.0
  0
LINE
  5
591
330
537
100
AcDbEntity
  8
AM_5
 62
     2
370
    -2
100
AcDbLine
 10
3454.191620348856
 20
2243.696527331958
 30
0.0
 11
3522.694158419922
 21
2243.696527331958
 31
0.0
  0
LINE
  5
592
330
537
100
AcDbEntity
  8
AM_5
 62
     2
370
    -2
100
AcDbLine
 10
3396.491620348855
 20
2243.696527331958
 30
0.0
 11
3444.191620348856
 21
2243.696527331958
 31
0.0
  0
INSERT
  5
593
330
537
100
AcDbEntity
  8
AM_5
 62
     2
370
    -2
100
AcDbBlockReference
  2
_Open30
 10
3396.491620348855
 20
2243.696527331958
 30
0.0
 41
10.0
 42
10.0
 43
10.0
  0
INSERT
  5
594
330
537
100
AcDbEntity
  8
AM_5
 62
     2
370
    -2
100
AcDbBlockReference
  2
_Open30
 10
3444.191620348856
 20
2243.696527331958
 30
0.0
 41
10.0
 42
10.0
 43
10.0
 50
180.0
  0
MTEXT
  5
595
330
537
100
AcDbEntity
  8
AM_5
 62
     0
100
AcDbMText
 10
3493.442889384388
 20
2272.029860665291
 30
0.0
 40
17.5
 41
0.0
 71
     5
 72
     1
  1
\A1;9.53\Pdiam.
  7
スタイル１
 73
     1
 44
1.0
  0
POINT
  5
596
330
537
100
AcDbEntity
  8
DEFPOINTS
 62
     0
100
AcDbPoint
 10
3396.491620348855
 20
2169.839619377288
 30
0.0
  0
POINT
  5
597
330
537
100
AcDbEntity
  8
DEFPOINTS
 62
     0
100
AcDbPoint
 10
3444.191620348856
 20
2169.839619377288
 30
0.0
  0
POINT
  5
598
330
537
100
AcDbEntity
  8
DEFPOINTS
 62
     0
100
AcDbPoint
 10
3444.191620348856
 20
2243.696527331958
 30
0.0
  0
ENDBLK
  5
544
330
537
100
AcDbEntity
  8
0
100
AcDbBlockEnd
  0
BLOCK
  5
570
330
566
100
AcDbEntity
  8
0
100
AcDbBlockBegin
  2
*D34
 70
     1
 10
0.0
 20
0.0
 30
0.0
  3
*D34
  1

  0
LINE
  5
567
330
566
100
AcDbEntity
  8
AM_5
 62
     2
370
    -2
100
AcDbLine
 10
3350.341620348855
 20
1163.337309648696
 30
0.0
 11
3350.341620348855
 21
889.3906134674463
 31
0.0
  0
LINE
  5
568
330
566
100
AcDbEntity
  8
AM_5
 62
     2
370
    -2
100
AcDbLine
 10
3490.341620348853
 20
1264.92773221714
 30
0.0
 11
3490.341620348853
 21
889.3906134674463
 31
0.0
  0
LINE
  5
569
330
566
100
AcDbEntity
  8
AM_5
 62
     2
370
    -2
100
AcDbLine
 10
3360.341620348855
 20
894.3906134674461
 30
0.0
 11
3480.341620348854
 21
894.3906134674461
 31
0.0
  0
INSERT
  5
56A
330
566
100
AcDbEntity
  8
AM_5
 62
     2
370
    -2
100
AcDbBlockReference
  2
_Open30
 10
3350.341620348855
 20
894.3906134674461
 30
0.0
 41
10.0
 42
10.0
 43
10.0
 50
180.0
  0
INSERT
  5
56B
330
566
100
AcDbEntity
  8
AM_5
 62
     2
370
    -2
100
AcDbBlockReference
  2
_Open30
 10
3490.341620348853
 20
894.3906134674461
 30
0.0
 41
10.0
 42
10.0
 43
10.0
  0
MTEXT
  5
56C
330
566
100
AcDbEntity
  8
AM_5
 62
     0
100
AcDbMText
 10
3420.341620348854
 20
908.185029711101
 30
0.0
 40
17.5
 41
0.0
 71
     5
 72
     1
  1
\A1;28 diam.
  7
スタイル１
 73
     1
 44
1.0
  0
POINT
  5
56D
330
566
100
AcDbEntity
  8
DEFPOINTS
 62
     0
100
AcDbPoint
 10
3350.341620348855
 20
1168.337309648696
 30
0.0
  0
POINT
  5
56E
330
566
100
AcDbEntity
  8
DEFPOINTS
 62
     0
100
AcDbPoint
 10
3490.341620348853
 20
1269.92773221714
 30
0.0
  0
POINT
  5
56F
330
566
100
AcDbEntity
  8
DEFPOINTS
 62
     0
100
AcDbPoint
 10
3490.341620348853
 20
894.3906134674461
 30
0.0
  0
ENDBLK
  5
571
330
566
100
AcDbEntity
  8
0
100
AcDbBlockEnd
  0
BLOCK
  5
57E
330
572
100
AcDbEntity
  8
0
100
AcDbBlockBegin
  2
*D35
 70
     1
 10
0.0
 20
0.0
 30
0.0
  3
*D35
  1

  0
LINE
  5
573
330
572
100
AcDbEntity
  8
AM_5
 62
     2
370
    -2
100
AcDbLine
 10
3388.991620348855
 20
1684.832729381043
 30
0.0
 11
3388.991620348855
 21
1887.836034587576
 31
0.0
  0
LINE
  5
574
330
572
100
AcDbEntity
  8
AM_5
 62
     2
370
    -2
100
AcDbLine
 10
3451.691620348855
 20
1684.832729381043
 30
0.0
 11
3451.691620348855
 21
1887.836034587576
 31
0.0
  0
LINE
  5
575
330
572
100
AcDbEntity
  8
AM_5
 62
     2
370
    -2
100
AcDbLine
 10
3461.691620348855
 20
1882.836034587576
 30
0.0
 11
3471.691620348856
 21
1882.836034587576
 31
0.0
  0
LINE
  5
576
330
572
100
AcDbEntity
  8
AM_5
 62
     2
370
    -2
100
AcDbLine
 10
3378.991620348855
 20
1882.836034587576
 30
0.0
 11
3272.257017979988
 21
1882.836034587576
 31
0.0
  0
LINE
  5
577
330
572
100
AcDbEntity
  8
AM_5
 62
     2
370
    -2
100
AcDbLine
 10
3451.691620348855
 20
1882.836034587576
 30
0.0
 11
3388.991620348855
 21
1882.836034587576
 31
0.0
  0
INSERT
  5
578
330
572
100
AcDbEntity
  8
AM_5
 62
     2
370
    -2
100
AcDbBlockReference
  2
_Open30
 10
3451.691620348855
 20
1882.836034587576
 30
0.0
 41
10.0
 42
10.0
 43
10.0
 50
180.0
  0
INSERT
  5
579
330
572
100
AcDbEntity
  8
AM_5
 62
     2
370
    -2
100
AcDbBlockReference
  2
_Open30
 10
3388.991620348855
 20
1882.836034587576
 30
0.0
 41
10.0
 42
10.0
 43
10.0
  0
MTEXT
  5
57A
330
572
100
AcDbEntity
  8
AM_5
 62
     0
100
AcDbMText
 10
3301.508287015522
 20
1911.16936792091
 30
0.0
 40
17.5
 41
0.0
 71
     5
 72
     1
  1
\A1;12.5\Pdiam.
  7
スタイル１
 73
     1
 44
1.0
  0
POINT
  5
57B
330
572
100
AcDbEntity
  8
DEFPOINTS
 62
     0
100
AcDbPoint
 10
3388.991620348855
 20
1679.832729381043
 30
0.0
  0
POINT
  5
57C
330
572
100
AcDbEntity
  8
DEFPOINTS
 62
     0
100
AcDbPoint
 10
3451.691620348855
 20
1679.832729381043
 30
0.0
  0
POINT
  5
57D
330
572
100
AcDbEntity
  8
DEFPOINTS
 62
     0
100
AcDbPoint
 10
3451.691620348855
 20
1882.836034587576
 30
0.0
  0
ENDBLK
  5
57F
330
572
100
AcDbEntity
  8
0
100
AcDbBlockEnd
  0
BLOCK
  5
58C
330
580
100
AcDbEntity
  8
0
100
AcDbBlockBegin
  2
*D36
 70
     1
 10
0.0
 20
0.0
 30
0.0
  3
*D36
  1

  0
LINE
  5
581
330
580
100
AcDbEntity
  8
AM_5
 62
     2
370
    -2
100
AcDbLine
 10
3352.341620348855
 20
1674.832729381042
 30
0.0
 11
3352.341620348855
 21
1968.773218179862
 31
0.0
  0
LINE
  5
582
330
580
100
AcDbEntity
  8
AM_5
 62
     2
370
    -2
100
AcDbLine
 10
3488.341620348855
 20
1674.832729381042
 30
0.0
 11
3488.341620348855
 21
1968.773218179862
 31
0.0
  0
LINE
  5
583
330
580
100
AcDbEntity
  8
AM_5
 62
     2
370
    -2
100
AcDbLine
 10
3498.341620348855
 20
1963.773218179862
 30
0.0
 11
3508.341620348855
 21
1963.773218179862
 31
0.0
  0
LINE
  5
584
330
580
100
AcDbEntity
  8
AM_5
 62
     2
370
    -2
100
AcDbLine
 10
3342.341620348856
 20
1963.773218179862
 30
0.0
 11
3263.507017979989
 21
1963.773218179862
 31
0.0
  0
LINE
  5
585
330
580
100
AcDbEntity
  8
AM_5
 62
     2
370
    -2
100
AcDbLine
 10
3488.341620348855
 20
1963.773218179862
 30
0.0
 11
3352.341620348855
 21
1963.773218179862
 31
0.0
  0
INSERT
  5
586
330
580
100
AcDbEntity
  8
AM_5
 62
     2
370
    -2
100
AcDbBlockReference
  2
_Open30
 10
3488.341620348855
 20
1963.773218179862
 30
0.0
 41
10.0
 42
10.0
 43
10.0
 50
180.0
  0
INSERT
  5
587
330
580
100
AcDbEntity
  8
AM_5
 62
     2
370
    -2
100
AcDbBlockReference
  2
_Open30
 10
3352.341620348855
 20
1963.773218179862
 30
0.0
 41
10.0
 42
10.0
 43
10.0
  0
MTEXT
  5
588
330
580
100
AcDbEntity
  8
AM_5
 62
     0
100
AcDbMText
 10
3292.758287015522
 20
1992.106551513195
 30
0.0
 40
17.5
 41
0.0
 71
     5
 72
     1
  1
\A1;27.2\Pdiam.
  7
スタイル１
 73
     1
 44
1.0
  0
POINT
  5
589
330
580
100
AcDbEntity
  8
DEFPOINTS
 62
     0
100
AcDbPoint
 10
3352.341620348855
 20
1669.832729381043
 30
0.0
  0
POINT
  5
58A
330
580
100
AcDbEntity
  8
DEFPOINTS
 62
     0
100
AcDbPoint
 10
3488.341620348855
 20
1669.832729381043
 30
0.0
  0
POINT
  5
58B
330
580
100
AcDbEntity
  8
DEFPOINTS
 62
     0
100
AcDbPoint
 10
3488.341620348855
 20
1963.773218179862
 30
0.0
  0
ENDBLK
  5
58D
330
580
100
AcDbEntity
  8
0
100
AcDbBlockEnd
  0
ENDSEC
  0
SECTION
  2
ENTITIES
  0
LINE
  5
2D
330
2
100
AcDbEntity
  8
AM_5
 62
     2
100
AcDbLine
 10
1975.797527958471
 20
2547.386809831849
 30
0.0
 11
2045.885027958474
 21
2547.386809831849
 31
0.0
  0
DIMENSION
  5
2F
330
2
100
AcDbEntity
  8
AM_5
100
AcDbDimension
  2
*D4
 10
1961.896228038807
 20
2434.656181445454
 30
0.0
 11
1948.146228038807
 21
2554.656181445454
 31
0.0
 71
     5
 42
240.0
  3
スタイル2
100
AcDbAlignedDimension
 13
2110.750737075178
 23
2674.656181445454
 33
0.0
 14
2110.750737075178
 24
2434.656181445454
 34
0.0
 50
90.0
100
AcDbRotatedDimension
  0
DIMENSION
  5
3D
330
2
100
AcDbEntity
  8
AM_5
100
AcDbDimension
  2
*D29
 10
2865.520737075173
 20
1559.352099418736
 30
0.0
 11
2019.213545210139
 21
2038.128607453316
 31
0.0
 70
   132
 71
     5
 42
1120.000000000002
  3
スタイル2$4
100
AcDbRadialDimension
 15
1890.702086906024
 25
2110.830656828182
 35
0.0
 40
0.0
  0
DIMENSION
  5
47
330
2
100
AcDbEntity
  8
AM_5
100
AcDbDimension
  2
*D6
 10
2865.520737075183
 20
1559.352099418737
 30
0.0
 11
1953.306005342031
 21
1901.572638783333
 31
0.0
 70
   132
 71
     5
 42
1199.999999999998
  3
スタイル2$4
100
AcDbRadialDimension
 15
1741.98243032351
 25
1980.851415268219
 35
0.0
 40
0.0
  0
LINE
  5
50
330
2
100
AcDbEntity
  8
AM_7
100
AcDbLine
 10
2965.520737075171
 20
1559.352099418737
 30
0.0
 11
75.62021667603585
 21
1559.352099418737
 31
0.0
  0
MTEXT
  5
53
102
{ACAD_REACTORS
330
54
102
}
330
2
100
AcDbEntity
  8
AM_5
100
AcDbMText
 10
2095.862743390656
 20
1334.365645319866
 30
0.0
 40
17.5
 41
0.0
 71
     9
 72
     1
  1
Outer Vessel Inner Wall
  7
スタイル１
 73
     1
 44
1.0
  0
LEADER
  5
54
330
2
100
AcDbEntity
  8
AM_5
100
AcDbLeader
  3
スタイル2
 73
     0
 75
     1
 40
20.60913705583756
 41
89.27664974619288
 76
     3
 10
2322.725678498867
 20
1465.89837860896
 30
0.0
 10
2110.862743390657
 20
1329.365645319866
 30
0.0
 10
2100.862743390656
 20
1329.365645319866
 30
0.0
340
53
1001
ACAD
1000
DSTYLE
1002
{
1070
   147
1040
5.0
1070
    77
1070
     1
1002
}
  0
LINE
  5
55
330
2
100
AcDbEntity
  8
細線
100
AcDbLine
 10
2765.520737075181
 20
309.3520994187006
 30
0.0
 11
123.7294880793287
 21
309.3520994187006
 31
0.0
  0
ARC
  5
57
330
2
100
AcDbEntity
  8
内槽外板
100
AcDbCircle
 10
2865.52073707517
 20
1559.352099418736
 30
0.0
 40
1113.0
100
AcDbArc
 50
101.3478775983592
 51
258.6521224016407
  0
ARC
  5
58
330
2
100
AcDbEntity
  8
内槽外板
100
AcDbCircle
 10
2865.52073707517
 20
1559.352099418736
 30
0.0
 40
1120.0
100
AcDbArc
 50
101.2760202220604
 51
258.7239797779395
  0
ARC
  5
59
330
2
100
AcDbEntity
  8
AM_1
100
AcDbCircle
 10
2865.520737075171
 20
1559.352099418737
 30
0.0
 40
1129.539999999999
100
AcDbArc
 50
132.5769260561815
 51
226.0941725636145
  0
ARC
  5
5B
330
2
100
AcDbEntity
  8
AM_7
100
AcDbCircle
 10
2865.520737075171
 20
1559.352099418737
 30
0.0
 40
1124.77
100
AcDbArc
 50
132.5769260561815
 51
227.3676724683301
  0
ARC
  5
5C
330
2
100
AcDbEntity
  8
AM_1
100
AcDbCircle
 10
2865.520737075171
 20
1559.352099418737
 30
0.0
 40
1120.0
100
AcDbArc
 50
132.5769260561815
 51
226.0941725636145
  0
ARC
  5
5D
330
2
100
AcDbEntity
  8
外槽外板
100
AcDbCircle
 10
2865.52073707517
 20
1559.352099418741
 30
0.0
 40
1200.0
100
AcDbArc
 50
95.49928514234295
 51
233.0345495861077
  0
ARC
  5
5F
330
2
100
AcDbEntity
  8
外槽外板
100
AcDbCircle
 10
2865.52073707517
 20
1559.352099418741
 30
0.0
 40
1192.0
100
AcDbArc
 50
95.53630800522117
 51
232.7445913084724
  0
LINE
  5
60
330
2
100
AcDbEntity
  8
A1枠
100
AcDbLine
 10
4000.0
 20
2832.499999999999
 30
0.0
 11
50.00000000000022
 21
2832.499999999999
 31
0.0
  0
LINE
  5
62
330
2
100
AcDbEntity
  8
A1枠
100
AcDbLine
 10
50.00000000000022
 20
67.49999999999943
 30
0.0
 11
4000.0
 21
67.49999999999943
 31
0.0
  0
LWPOLYLINE
  5
63
330
2
100
AcDbEntity
  8
図面範囲
 62
     5
100
AcDbPolyline
 90
        4
 70
     1
 43
0.0
 10
-25.0
 20
2845.2
 10
4097.8
 20
2845.2
 10
4097.8
 20
-12.50000000000056
 10
-25.0
 20
-12.5
  0
LINE
  5
65
330
2
100
AcDbEntity
  8
内槽フランジ
100
AcDbLine
 10
1354.729488079327
 20
468.9206475924761
 30
0.0
 11
1354.729488079329
 21
1560.277400606242
 31
0.0
  0
LINE
  5
67
330
2
100
AcDbEntity
  8
内槽フランジ
100
AcDbLine
 10
1346.729488079327
 20
467.9719284396719
 30
0.0
 11
1346.729488079329
 21
1560.277400606242
 31
0.0
  0
LINE
  5
68
330
2
100
AcDbEntity
  8
内槽フランジ
100
AcDbLine
 10
1384.729488079327
 20
421.5014941106415
 30
0.0
 11
1384.729488079329
 21
1560.277400606242
 31
0.0
  0
LINE
  5
69
330
2
100
AcDbEntity
  8
内槽フランジ
100
AcDbLine
 10
252.7294880793288
 20
468.9206475924765
 30
0.0
 11
252.7294880793288
 21
1560.277400606243
 31
0.0
  0
LINE
  5
6A
330
2
100
AcDbEntity
  8
内槽フランジ
100
AcDbLine
 10
260.7294880793288
 20
467.9719284396724
 30
0.0
 11
260.7294880793288
 21
1560.277400606243
 31
0.0
  0
LINE
  5
6B
330
2
100
AcDbEntity
  8
内槽フランジ
100
AcDbLine
 10
222.7294880793297
 20
421.5014941106419
 30
0.0
 11
222.7294880793288
 21
1560.277400606242
 31
0.0
  0
LINE
  5
6C
330
2
100
AcDbEntity
  8
内槽外板
100
AcDbLine
 10
260.7294880793288
 20
467.9719284396717
 30
0.0
 11
260.7294880793288
 21
1559.352099418737
 31
0.0
  0
LINE
  5
6D
330
2
100
AcDbEntity
  8
内槽外板
100
AcDbLine
 10
1346.729488079328
 20
1559.352099418736
 30
0.0
 11
1346.729488079328
 21
467.9719284396712
 31
0.0
  0
LINE
  5
6E
330
2
100
AcDbEntity
  8
AM_11
100
AcDbLine
 10
1438.729488079328
 20
1559.352099418737
 30
0.0
 11
1438.729488079328
 21
364.875226473931
 31
0.0
  0
LINE
  5
71
330
2
100
AcDbEntity
  8
AM_11
100
AcDbLine
 10
1483.729488079329
 20
1559.352099418737
 30
0.0
 11
1483.729488079329
 21
364.875226473931
 31
0.0
  0
LINE
  5
72
330
2
100
AcDbEntity
  8
AM_11
100
AcDbLine
 10
168.7294880793288
 20
1559.352099418737
 30
0.0
 11
168.7294880793288
 21
364.875226473931
 31
0.0
  0
LINE
  5
73
330
2
100
AcDbEntity
  8
AM_11
100
AcDbLine
 10
123.7294880793287
 20
1559.352099418737
 30
0.0
 11
123.7294880793287
 21
364.875226473931
 31
0.0
  0
LINE
  5
74
330
2
100
AcDbEntity
  8
AM_7
100
AcDbLine
 10
1023.729488079335
 20
808.977153544915
 30
0.0
 11
1023.729488079335
 21
1559.352099418737
 31
0.0
  0
LINE
  5
75
330
2
100
AcDbEntity
  8
AM_1
100
AcDbLine
 10
1028.499488079335
 20
808.977153544915
 30
0.0
 11
1028.499488079335
 21
1559.352099418737
 31
0.0
  0
LINE
  5
76
330
2
100
AcDbEntity
  8
AM_1
100
AcDbLine
 10
1018.959488079335
 20
808.977153544915
 30
0.0
 11
1018.959488079336
 21
1559.352099418737
 31
0.0
  0
LINE
  5
77
330
2
100
AcDbEntity
  8
AM_7
100
AcDbLine
 10
1143.729488079335
 20
808.977153544915
 30
0.0
 11
1143.729488079336
 21
1559.352099418737
 31
0.0
  0
LINE
  5
78
330
2
100
AcDbEntity
  8
AM_7
100
AcDbLine
 10
1263.729488079335
 20
808.977153544915
 30
0.0
 11
1263.729488079336
 21
1559.352099418737
 31
0.0
  0
LINE
  5
79
330
2
100
AcDbEntity
  8
AM_1
100
AcDbLine
 10
1138.959488079335
 20
808.977153544915
 30
0.0
 11
1138.959488079336
 21
1559.352099418737
 31
0.0
  0
LINE
  5
7A
330
2
100
AcDbEntity
  8
AM_1
100
AcDbLine
 10
1268.499488079335
 20
808.977153544915
 30
0.0
 11
1268.499488079336
 21
1559.352099418737
 31
0.0
  0
LINE
  5
7B
330
2
100
AcDbEntity
  8
AM_1
100
AcDbLine
 10
1148.499488079335
 20
808.977153544915
 30
0.0
 11
1148.499488079335
 21
1559.352099418737
 31
0.0
  0
LINE
  5
7C
330
2
100
AcDbEntity
  8
AM_1
100
AcDbLine
 10
1258.959488079335
 20
808.977153544915
 30
0.0
 11
1258.959488079336
 21
1559.352099418737
 31
0.0
  0
LINE
  5
7D
330
2
100
AcDbEntity
  8
AM_7
100
AcDbLine
 10
463.7294880793219
 20
808.977153544915
 30
0.0
 11
463.7294880793215
 21
1559.352099418737
 31
0.0
  0
LINE
  5
7E
330
2
100
AcDbEntity
  8
AM_7
100
AcDbLine
 10
343.7294880793215
 20
808.977153544915
 30
0.0
 11
343.7294880793215
 21
1559.352099418737
 31
0.0
  0
LINE
  5
7F
330
2
100
AcDbEntity
  8
AM_1
100
AcDbLine
 10
468.4994880793219
 20
808.977153544915
 30
0.0
 11
468.4994880793214
 21
1559.352099418737
 31
0.0
  0
LINE
  5
80
330
2
100
AcDbEntity
  8
AM_1
100
AcDbLine
 10
338.9594880793219
 20
808.977153544915
 30
0.0
 11
338.9594880793215
 21
1559.352099418737
 31
0.0
  0
LINE
  5
81
330
2
100
AcDbEntity
  8
AM_1
100
AcDbLine
 10
458.9594880793215
 20
808.977153544915
 30
0.0
 11
458.9594880793215
 21
1559.352099418737
 31
0.0
  0
LINE
  5
82
330
2
100
AcDbEntity
  8
AM_1
100
AcDbLine
 10
348.4994880793219
 20
808.977153544915
 30
0.0
 11
348.4994880793215
 21
1559.352099418737
 31
0.0
  0
LINE
  5
83
330
2
100
AcDbEntity
  8
AM_1
100
AcDbLine
 10
588.4994880793219
 20
808.977153544915
 30
0.0
 11
588.4994880793219
 21
1559.352099418737
 31
0.0
  0
LINE
  5
84
330
2
100
AcDbEntity
  8
AM_1
100
AcDbLine
 10
578.9594880793219
 20
808.977153544915
 30
0.0
 11
578.9594880793219
 21
1559.352099418737
 31
0.0
  0
LINE
  5
85
330
2
100
AcDbEntity
  8
AM_7
100
AcDbLine
 10
583.7294880793219
 20
808.977153544915
 30
0.0
 11
583.7294880793215
 21
1559.352099418737
 31
0.0
  0
LINE
  5
86
330
2
100
AcDbEntity
  8
AM_7
100
AcDbLine
 10
803.7294880793288
 20
2801.369549885299
 30
0.0
 11
803.7294880793288
 21
234.3520994187378
 31
0.0
  0
LINE
  5
87
330
2
100
AcDbEntity
  8
A1枠
100
AcDbLine
 10
50.00000000000022
 20
2832.499999999999
 30
0.0
 11
50.00000000000022
 21
67.49999999999943
 31
0.0
  0
LINE
  5
88
330
2
100
AcDbEntity
  8
AM_1
100
AcDbLine
 10
643.7294880793215
 20
744.2071535449151
 30
0.0
 11
803.7294880793288
 21
744.2071535449151
 31
0.0
  0
LINE
  5
89
330
2
100
AcDbEntity
  8
AM_1
100
AcDbLine
 10
643.7294880793215
 20
753.7471535449149
 30
0.0
 11
803.7294880793288
 21
753.7471535449149
 31
0.0
  0
LINE
  5
8A
330
2
100
AcDbEntity
  8
AM_7
100
AcDbLine
 10
643.7294880793215
 20
748.977153544915
 30
0.0
 11
803.7294880793288
 21
748.977153544915
 31
0.0
  0
LINE
  5
8B
330
2
100
AcDbEntity
  8
AM_11
100
AcDbLine
 10
643.7294880793288
 20
359.352099418737
 30
0.0
 11
963.7294880793287
 21
359.352099418737
 31
0.0
  0
LINE
  5
8C
330
2
100
AcDbEntity
  8
内槽外板
100
AcDbLine
 10
1343.26538646419
 20
460.9719284396708
 30
0.0
 11
264.1935896944651
 21
460.9719284396716
 31
0.0
  0
LINE
  5
8D
330
2
100
AcDbEntity
  8
AM_11
100
AcDbLine
 10
586.3294880793273
 20
372.3520994187369
 30
0.0
 11
586.3294880793273
 21
541.1360123331046
 31
0.0
  0
LINE
  5
8E
330
2
100
AcDbEntity
  8
AM_11
100
AcDbLine
 10
421.1294880793266
 20
541.1360123331046
 30
0.0
 11
421.1294880793266
 21
372.3520994187369
 31
0.0
  0
ELLIPSE
  5
8F
330
2
100
AcDbEntity
  8
AM_11
100
AcDbEllipse
 10
503.7294880793288
 20
541.1360123331046
 30
0.0
 11
-130.0
 21
0.0
 31
0.0
210
0.0
220
0.0
230
1.0
 40
0.6357413915749161
 41
2.259302824942039
 42
6.283185307179586
  0
ELLIPSE
  5
90
330
2
100
AcDbEntity
  8
AM_11
100
AcDbEllipse
 10
503.7294880793288
 20
541.1360123331046
 30
0.0
 11
-130.0
 21
0.0
 31
0.0
210
0.0
220
0.0
230
1.0
 40
0.5877634579246144
 41
3.141592653589793
 42
7.165475135827303
  0
LINE
  5
91
330
2
100
AcDbEntity
  8
AM_7
100
AcDbLine
 10
503.7294880793288
 20
291.9669116964569
 30
0.0
 11
503.7294880793288
 21
762.2211114145547
 31
0.0
  0
MTEXT
  5
92
330
2
100
AcDbEntity
  8
A1枠
  6
Continuous
 62
     9
100
AcDbMText
 10
137.8339842012445
 20
264.2075662785417
 30
0.0
 40
11.0
 41
0.0
 71
     5
 72
     5
  1
2002,8,22
  7
TITLE
 73
     1
 44
1.0
  0
MTEXT
  5
94
330
2
100
AcDbEntity
  8
A1枠
  6
Continuous
 62
     9
100
AcDbMText
 10
137.8339842012445
 20
229.2075662785417
 30
0.0
 40
11.0
 41
0.0
 71
     5
 72
     5
  1
2002,6,28
  7
TITLE
 73
     1
 44
1.0
  0
MTEXT
  5
95
330
2
100
AcDbEntity
  8
A1枠
  6
Continuous
 62
     9
100
AcDbMText
 10
137.8339842012445
 20
159.2075662785417
 30
0.0
 40
11.0
 41
0.0
 71
     5
 72
     5
  1
2002,5,24
  7
TITLE
 73
     1
 44
1.0
  0
MTEXT
  5
96
330
2
100
AcDbEntity
  8
A1枠
  6
Continuous
 62
     9
100
AcDbMText
 10
137.8339842012445
 20
194.2075662785417
 30
0.0
 40
11.0
 41
0.0
 71
     5
 72
     5
  1
2002,6,11
  7
TITLE
 73
     1
 44
1.0
  0
LINE
  5
97
330
2
100
AcDbEntity
  8
A1枠
 62
     9
100
AcDbLine
 10
50.00000000017997
 20
282.5000000000052
 30
0.0
 11
650.0000000001798
 21
282.5000000000001
 31
0.0
  0
LINE
  5
98
330
2
100
AcDbEntity
  8
A1枠
 62
     9
100
AcDbLine
 10
50.00000000017997
 20
247.5000000000052
 30
0.0
 11
650.0000000001798
 21
247.5000000000001
 31
0.0
  0
LINE
  5
99
330
2
100
AcDbEntity
  8
A1枠
 62
     9
100
AcDbLine
 10
50.00000000017997
 20
212.5000000000052
 30
0.0
 11
650.0000000001798
 21
212.5000000000001
 31
0.0
  0
LINE
  5
9A
330
2
100
AcDbEntity
  8
A1枠
 62
     9
100
AcDbLine
 10
50.00000000017997
 20
177.5000000000052
 30
0.0
 11
650.0000000001798
 21
177.5000000000001
 31
0.0
  0
LINE
  5
9B
330
2
100
AcDbEntity
  8
A1枠
 62
     9
100
AcDbLine
 10
50.00000000017991
 20
142.5000000000052
 30
0.0
 11
650.0000000001798
 21
142.5000000000001
 31
0.0
  0
LINE
  5
9C
330
2
100
AcDbEntity
  8
A1枠
 62
     9
100
AcDbLine
 10
650.0000000001798
 20
107.5000000000001
 30
0.0
 11
50.00000000017991
 21
107.5000000000001
 31
0.0
  0
LINE
  5
9D
330
2
100
AcDbEntity
  8
A1枠
 62
     9
100
AcDbLine
 10
100.0000000001799
 20
282.5000000000049
 30
0.0
 11
100.0000000001799
 21
67.50000000000523
 31
0.0
  0
MTEXT
  5
9E
330
2
100
AcDbEntity
  8
A1枠
  6
Continuous
 62
     9
100
AcDbMText
 10
75.56395295396018
 20
191.9127050532706
 30
0.0
 40
12.5
 41
0.0
 71
     5
 72
     5
  1
3
  7
TITLE
 73
     1
 44
1.0
  0
REGION
  5
9F
330
2
100
AcDbEntity
  8
A1枠
 62
     9
100
AcDbModelerGeometry
 70
     1
  1
koo mn n o          
  1
h J1410(1 nl ^ \VL kqoqm QK mk R01 R>- nh nfenfenk mool 
  1
rn fqfffffffffffffffj:rooh n:rono 
  1
=0;& {rn {n {rn {rn |
  1
3*2/ {rn {rn {m {o |
  1
,7:33 {rn {rn {rn {l {rn {n |
  1
9><: {rn {rn {k {m {rn {j -:):-,:; ;0*=3: 0*+ |
  1
300/ {rn {rn {i {l |
  1
/3>1:r,*-9><: {rn hjqooooooooonhil nfoqiiiiiiiiiihngi o o o rn rj o o 90-(>-;@) V V V V |
  1
<0:;8: {rn {h {g {rn {f 90-(>-; {k {rn |
  1
<0:;8: {rn {g {i {rn {no 90-(>-; {k {rn |
  1
<0:;8: {rn {i {h {rn {nn 90-(>-; {k {rn |
  1
:;8: {rn {nm {nl {i {nk 90-(>-; |
  1
:;8: {rn {nl {nj {h {ni 90-(>-; |
  1
:;8: {rn {nj {nm {g {nh 90-(>-; |
  1
):-+:' {rn {f {ng |
  1
):-+:' {rn {f {nf |
  1
,+->687+r<*-): {rn jfqfgggfloonmjkifj ngmqooooooooooojnm o j o o V V |
  1
):-+:' {rn {no {mo |
  1
,+->687+r<*-): {rn foqonnnoifffnnmkjh ngmqooooooooooojnm o rmqjooooooooooonjn kqllonmhongfmmnojh o V V |
  1
,+->687+r<*-): {rn hjqooooooooonhil mogqooooooooooojlk o rmqkfffffffffffgiig rkqllonmhongfmmmh o V V |
  1
/061+ {rn jfqfgggfloonmjkifj ngmqooooooooooojnm o |
  1
/061+ {rn foqonnnoifffnnmkjh ngmqooooooooooojnm o |
  1
/061+ {rn hjqooooooooonhil mogqooooooooooojlk o |
  0
REGION
  5
A0
330
2
100
AcDbEntity
  8
A1枠
 62
     9
100
AcDbModelerGeometry
 70
     1
  1
koo mn n o          
  1
h J1410(1 nl ^ \VL kqoqm QK mk R01 R>- nh nfenfenk mool 
  1
rn fqfffffffffffffffj:rooh n:rono 
  1
=0;& {rn {n {rn {rn |
  1
3*2/ {rn {rn {m {o |
  1
,7:33 {rn {rn {rn {l {rn {n |
  1
9><: {rn {rn {k {m {rn {j -:):-,:; ;0*=3: 0*+ |
  1
300/ {rn {rn {i {l |
  1
/3>1:r,*-9><: {rn hjqooooooooonhil nmoqiiiiiiiiiihngi o o o rn rj o o 90-(>-;@) V V V V |
  1
<0:;8: {rn {h {g {rn {f 90-(>-; {k {rn |
  1
<0:;8: {rn {g {i {rn {no 90-(>-; {k {rn |
  1
<0:;8: {rn {i {h {rn {nn 90-(>-; {k {rn |
  1
:;8: {rn {nm {nl {i {nk 90-(>-; |
  1
:;8: {rn {nl {nj {h {ni 90-(>-; |
  1
:;8: {rn {nj {nm {g {nh 90-(>-; |
  1
):-+:' {rn {f {ng |
  1
):-+:' {rn {f {nf |
  1
,+->687+r<*-): {rn jfqfgggfloonmjkifj nnmqooooooooooojnm o j o o V V |
  1
):-+:' {rn {no {mo |
  1
,+->687+r<*-): {rn foqonnnoifffnnmkjh nnmqooooooooooojnm o rmqjooooooooooonjn kqllonmhongfmmnojh o V V |
  1
,+->687+r<*-): {rn hjqooooooooonhil nlgqooooooooooojlk o rmqkfffffffffffgiig rkqllonmhongfmmmh o V V |
  1
/061+ {rn jfqfgggfloonmjkifj nnmqooooooooooojnm o |
  1
/061+ {rn foqonnnoifffnnmkjh nnmqooooooooooojnm o |
  1
/061+ {rn hjqooooooooonhil nlgqooooooooooojlk o |
  0
MTEXT
  5
A1
330
2
100
AcDbEntity
  8
A1枠
  6
Continuous
 62
     9
100
AcDbMText
 10
59.11439412892818
 20
95.69678215433397
 30
0.0
 40
12.5
 41
0.0
 71
     1
 72
     5
  1
Mark
  7
TITLE
 73
     1
 44
1.0
  0
MTEXT
  5
A2
330
2
100
AcDbEntity
  8
A1枠
  6
Continuous
 62
     9
100
AcDbMText
 10
75.56395295396018
 20
121.9127050532706
 30
0.0
 40
12.5
 41
0.0
 71
     5
 72
     5
  1
1
  7
TITLE
 73
     1
 44
1.0
  0
REGION
  5
A3
330
2
100
AcDbEntity
  8
A1枠
 62
     9
100
AcDbModelerGeometry
 70
     1
  1
koo mn n o          
  1
h J1410(1 nl ^ \VL kqoqm QK mk R01 R>- nh nfenfenk mool 
  1
rn fqfffffffffffffffj:rooh n:rono 
  1
=0;& {rn {n {rn {rn |
  1
3*2/ {rn {rn {m {o |
  1
,7:33 {rn {rn {rn {l {rn {n |
  1
9><: {rn {rn {k {m {rn {j -:):-,:; ;0*=3: 0*+ |
  1
300/ {rn {rn {i {l |
  1
/3>1:r,*-9><: {rn hjqooooooooonhil njjqiiiiiiiiiihngi o o o rn rj o o 90-(>-;@) V V V V |
  1
<0:;8: {rn {h {g {rn {f 90-(>-; {k {rn |
  1
<0:;8: {rn {g {i {rn {no 90-(>-; {k {rn |
  1
<0:;8: {rn {i {h {rn {nn 90-(>-; {k {rn |
  1
:;8: {rn {nm {nl {i {nk 90-(>-; |
  1
:;8: {rn {nl {nj {h {ni 90-(>-; |
  1
:;8: {rn {nj {nm {g {nh 90-(>-; |
  1
):-+:' {rn {f {ng |
  1
):-+:' {rn {f {nf |
  1
,+->687+r<*-): {rn jfqfgggfloonmjkifj nkhqooooooooooojnm o j o o V V |
  1
):-+:' {rn {no {mo |
  1
,+->687+r<*-): {rn foqonnnoifffnnmkjh nkhqooooooooooojnm o rmqjooooooooooonjn kqllonmhongfmmnojh o V V |
  1
,+->687+r<*-): {rn hjqooooooooonhil nhlqooooooooooojlk o rmqkfffffffffffgiig rkqllonmhongfmmmh o V V |
  1
/061+ {rn jfqfgggfloonmjkifj nkhqooooooooooojnm o |
  1
/061+ {rn foqonnnoifffnnmkjh nkhqooooooooooojnm o |
  1
/061+ {rn hjqooooooooonhil nhlqooooooooooojlk o |
  0
MTEXT
  5
A4
330
2
100
AcDbEntity
  8
A1枠
  6
Continuous
 62
     9
100
AcDbMText
 10
75.56395295396018
 20
156.9127050532706
 30
0.0
 40
12.5
 41
0.0
 71
     5
 72
     5
  1
2
  7
TITLE
 73
     1
 44
1.0
  0
REGION
  5
A5
330
2
100
AcDbEntity
  8
A1枠
 62
     9
100
AcDbModelerGeometry
 70
     1
  1
koo mn n o          
  1
h J1410(1 nl ^ \VL kqoqm QK mk R01 R>- nh nfenfenk mool 
  1
rn fqfffffffffffffffj:rooh n:rono 
  1
=0;& {rn {n {rn {rn |
  1
3*2/ {rn {rn {m {o |
  1
,7:33 {rn {rn {rn {l {rn {n |
  1
9><: {rn {rn {k {m {rn {j -:):-,:; ;0*=3: 0*+ |
  1
300/ {rn {rn {i {l |
  1
/3>1:r,*-9><: {rn hjqooooooooonhil mmjqiiiiiiiiiihngf o o o rn rj o o 90-(>-;@) V V V V |
  1
<0:;8: {rn {h {g {rn {f 90-(>-; {k {rn |
  1
<0:;8: {rn {g {i {rn {no 90-(>-; {k {rn |
  1
<0:;8: {rn {i {h {rn {nn 90-(>-; {k {rn |
  1
:;8: {rn {nm {nl {i {nk 90-(>-; |
  1
:;8: {rn {nl {nj {h {ni 90-(>-; |
  1
:;8: {rn {nj {nm {g {nh 90-(>-; |
  1
):-+:' {rn {f {ng |
  1
):-+:' {rn {f {nf |
  1
,+->687+r<*-): {rn jfqfgggfloonmjkifj mnhqooooooooooojnk o j o o V V |
  1
):-+:' {rn {no {mo |
  1
,+->687+r<*-): {rn foqonnnoifffnnmkjh mnhqooooooooooojnk o rmqjooooooooooonjn kqllonmhongfmmnojh o V V |
  1
,+->687+r<*-): {rn hjqooooooooonhil mklqooooooooooojlh o rmqkfffffffffffgiig rkqllonmhongfmmmh o V V |
  1
/061+ {rn jfqfgggfloonmjkifj mnhqooooooooooojnk o |
  1
/061+ {rn foqonnnoifffnnmkjh mnhqooooooooooojnk o |
  1
/061+ {rn hjqooooooooonhil mklqooooooooooojlh o |
  0
MTEXT
  5
A6
330
2
100
AcDbEntity
  8
A1枠
  6
Continuous
 62
     9
100
AcDbMText
 10
75.56395295396018
 20
226.9127050532707
 30
0.0
 40
12.5
 41
0.0
 71
     5
 72
     5
  1
4
  7
TITLE
 73
     1
 44
1.0
  0
REGION
  5
A7
330
2
100
AcDbEntity
  8
A1枠
 62
     9
100
AcDbModelerGeometry
 70
     1
  1
koo mn n o          
  1
h J1410(1 nl ^ \VL kqoqm QK mk R01 R>- nh nfenfenk mool 
  1
rn fqfffffffffffffffj:rooh n:rono 
  1
=0;& {rn {n {rn {rn |
  1
3*2/ {rn {rn {m {o |
  1
,7:33 {rn {rn {rn {l {rn {n |
  1
9><: {rn {rn {k {m {rn {j -:):-,:; ;0*=3: 0*+ |
  1
300/ {rn {rn {i {l |
  1
/3>1:r,*-9><: {rn hjqooooooooonhil mioqiiiiiiiiiihnfm o o o rn rj o o 90-(>-;@) V V V V |
  1
<0:;8: {rn {h {g {rn {f 90-(>-; {k {rn |
  1
<0:;8: {rn {g {i {rn {no 90-(>-; {k {rn |
  1
<0:;8: {rn {i {h {rn {nn 90-(>-; {k {rn |
  1
:;8: {rn {nm {nl {i {nk 90-(>-; |
  1
:;8: {rn {nl {nj {h {ni 90-(>-; |
  1
:;8: {rn {nj {nm {g {nh 90-(>-; |
  1
):-+:' {rn {f {ng |
  1
):-+:' {rn {f {nf |
  1
,+->687+r<*-): {rn jfqfgggfloonmjkifj mjmqooooooooooojnh o j o o V V |
  1
):-+:' {rn {no {mo |
  1
,+->687+r<*-): {rn foqonnnoifffnnmkjh mjmqooooooooooojnh o rmqjooooooooooonjn kqllonmhongfmmnojh o V V |
  1
,+->687+r<*-): {rn hjqooooooooonhil mhgqooooooooooojk o rmqkfffffffffffgiig rkqllonmhongfmmmh o V V |
  1
/061+ {rn jfqfgggfloonmjkifj mjmqooooooooooojnh o |
  1
/061+ {rn foqonnnoifffnnmkjh mjmqooooooooooojnh o |
  1
/061+ {rn hjqooooooooonhil mhgqooooooooooojk o |
  0
MTEXT
  5
A8
330
2
100
AcDbEntity
  8
A1枠
  6
Continuous
 62
     9
100
AcDbMText
 10
75.56395295396018
 20
261.9127050532707
 30
0.0
 40
12.5
 41
0.0
 71
     5
 72
     5
  1
5
  7
TITLE
 73
     1
 44
1.0
  0
LINE
  5
A9
330
2
100
AcDbEntity
  8
A1枠
 62
     9
100
AcDbLine
 10
650.0000000001799
 20
282.5000000000001
 30
0.0
 11
650.0000000001798
 21
67.50000000000523
 31
0.0
  0
LINE
  5
AA
330
2
100
AcDbEntity
  8
A1枠
 62
     9
100
AcDbLine
 10
500.0000000001797
 20
282.5000000000014
 30
0.0
 11
500.0000000001798
 21
67.50000000000182
 31
0.0
  0
LINE
  5
AB
330
2
100
AcDbEntity
  8
A1枠
 62
     9
100
AcDbLine
 10
575.0000000001798
 20
282.5000000000008
 30
0.0
 11
575.0000000001798
 21
67.50000000000125
 31
0.0
  0
LINE
  5
AC
330
2
100
AcDbEntity
  8
A1枠
 62
     9
100
AcDbLine
 10
175.0000000001798
 20
282.5000000000042
 30
0.0
 11
175.0000000001798
 21
67.50000000000523
 31
0.0
  0
LINE
  5
AD
330
2
100
AcDbEntity
  8
AM_11
100
AcDbLine
 10
643.7294880793288
 20
328.3520994187369
 30
0.0
 11
363.7294880793287
 21
328.3520994187369
 31
0.0
  0
LINE
  5
AE
330
2
100
AcDbEntity
  8
AM_11
100
AcDbLine
 10
363.7294880793287
 20
350.352099418737
 30
0.0
 11
643.7294880793288
 21
350.352099418736
 31
0.0
  0
LINE
  5
AF
330
2
100
AcDbEntity
  8
AM_11
100
AcDbLine
 10
643.7294880793288
 20
372.3520994187369
 30
0.0
 11
363.7294880793287
 21
372.3520994187369
 31
0.0
  0
MTEXT
  5
B0
330
2
100
AcDbEntity
  8
A1枠
  6
Continuous
 62
     9
100
AcDbMText
 10
256.9594022589969
 20
95.69678215433226
 30
0.0
 40
12.5
 41
0.0
 71
     1
 72
     5
  1
Revision
  7
TITLE
 73
     1
 44
1.0
  0
LINE
  5
B1
330
2
100
AcDbEntity
  8
AM_7
100
AcDbLine
 10
383.7294880793288
 20
392.352099418737
 30
0.0
 11
383.7294880793288
 21
288.3520994187369
 31
0.0
  0
MTEXT
  5
B2
330
2
100
AcDbEntity
  8
A1枠
  6
Continuous
 62
     9
100
AcDbMText
 10
341.5205497837504
 20
265.9426999802836
 30
0.0
 40
12.5
 41
0.0
 71
     5
 72
     5
  1
Modificatio of Cooling Coil
  7
TITLE
 73
     1
 44
1.0
  0
MTEXT
  5
B3
330
2
100
AcDbEntity
  8
A1枠
  6
Continuous
 62
     9
100
AcDbMText
 10
341.5205497837504
 20
230.9426999802836
 30
0.0
 40
12.5
 41
0.0
 71
     5
 72
     5
  1
Modification of Cooling Coil
  7
TITLE
 73
     1
 44
1.0
  0
MTEXT
  5
B4
330
2
100
AcDbEntity
  8
A1枠
  6
Continuous
 62
     9
100
AcDbMText
 10
137.8339842012445
 20
124.2075662785417
 30
0.0
 40
11.0
 41
0.0
 71
     5
 72
     5
  1
2002,5,8
  7
TITLE
 73
     1
 44
1.0
  0
MTEXT
  5
B5
330
2
100
AcDbEntity
  8
A1枠
  6
Continuous
 62
     9
100
AcDbMText
 10
117.0034526259567
 20
95.6967821543334
 30
0.0
 40
12.5
 41
0.0
 71
     1
 72
     5
  1
Date
  7
TITLE
 73
     1
 44
1.0
  0
MTEXT
  5
B6
330
2
100
AcDbEntity
  8
A1枠
  6
Continuous
 62
     9
100
AcDbMText
 10
341.5205497837504
 20
195.9426999802836
 30
0.0
 40
12.5
 41
0.0
 71
     5
 72
     5
  1
Modification of Support Plate
  7
TITLE
 73
     1
 44
1.0
  0
MTEXT
  5
B7
330
2
100
AcDbEntity
  8
A1枠
  6
Continuous
 62
     9
100
AcDbMText
 10
341.5205497837504
 20
160.9426999802836
 30
0.0
 40
12.5
 41
0.0
 71
     5
 72
     5
  1
Suport Plate added
  7
TITLE
 73
     1
 44
1.0
  0
MTEXT
  5
B8
330
2
100
AcDbEntity
  8
A1枠
  6
Continuous
 62
     9
100
AcDbMText
 10
341.5205497837504
 20
125.9426999802836
 30
0.0
 40
12.5
 41
0.0
 71
     5
 72
     5
  1
Modiificaiton of Inner Wall
  7
TITLE
 73
     1
 44
1.0
  0
LINE
  5
B9
330
2
100
AcDbEntity
  8
AM_11
100
AcDbLine
 10
168.7294880793288
 20
364.875226473931
 30
0.0
 11
363.7294880793287
 21
364.875226473931
 31
0.0
  0
LINE
  5
BA
330
2
100
AcDbEntity
  8
AM_11
100
AcDbLine
 10
168.7294880793288
 20
364.875226473931
 30
0.0
 11
123.7294880793287
 21
364.875226473931
 31
0.0
  0
LINE
  5
BB
330
2
100
AcDbEntity
  8
内槽フランジ
100
AcDbLine
 10
260.7294880793288
 20
467.9719284396719
 30
0.0
 11
260.7294880793288
 21
466.9719284396719
 31
0.0
  0
LINE
  5
BC
330
2
100
AcDbEntity
  8
内槽外板
100
AcDbLine
 10
260.7294880793288
 20
466.9719284396717
 30
0.0
 11
260.7294880793288
 21
467.9719284396717
 31
0.0
  0
LINE
  5
BD
330
2
100
AcDbEntity
  8
内槽フランジ
100
AcDbLine
 10
252.7294880793297
 20
421.501494110641
 30
0.0
 11
252.7294880793288
 21
468.9206475924765
 31
0.0
  0
LINE
  5
BE
330
2
100
AcDbEntity
  8
内槽フランジ
100
AcDbLine
 10
222.7294880793297
 20
421.5014941106415
 30
0.0
 11
252.7294880793297
 21
421.5014941106415
 31
0.0
  0
LINE
  5
BF
330
2
100
AcDbEntity
  8
内槽フランジ
100
AcDbLine
 10
252.7294880793306
 20
460.9719284396719
 30
0.0
 11
257.2653864641915
 21
460.9719284396719
 31
0.0
  0
LINE
  5
C0
330
2
100
AcDbEntity
  8
内槽フランジ
100
AcDbLine
 10
260.7294880793288
 20
466.9719284396719
 30
0.0
 11
257.2653864641915
 21
460.9719284396719
 31
0.0
  0
LINE
  5
C1
330
2
100
AcDbEntity
  8
内槽外板
100
AcDbLine
 10
264.1935896944651
 20
460.9719284396716
 30
0.0
 11
260.7294880793288
 21
466.9719284396717
 31
0.0
  0
LINE
  5
C2
330
2
100
AcDbEntity
  8
AM_11
100
AcDbLine
 10
363.7294880793287
 20
372.3520994187369
 30
0.0
 11
363.7294880793287
 21
350.352099418737
 31
0.0
  0
LINE
  5
C3
330
2
100
AcDbEntity
  8
AM_11
100
AcDbLine
 10
366.7294880793288
 20
325.352099418737
 30
0.0
 11
400.7294880793287
 21
325.352099418737
 31
0.0
  0
LINE
  5
C4
330
2
100
AcDbEntity
  8
AM_11
100
AcDbLine
 10
400.7294880793287
 20
328.3520994187369
 30
0.0
 11
366.7294880793288
 21
328.3520994187374
 31
0.0
  0
LINE
  5
C5
330
2
100
AcDbEntity
  8
AM_11
100
AcDbLine
 10
368.141030811209
 20
312.3520994187369
 30
0.0
 11
399.3179453474485
 21
312.3520994187369
 31
0.0
  0
ARC
  5
C6
330
2
100
AcDbEntity
  8
AM_11
100
AcDbCircle
 10
383.7294880793288
 20
328.539599418737
 30
0.0
 40
16.18750000000003
100
AcDbArc
 50
241.2167972061574
 51
298.7832027938425
  0
LINE
  5
C7
330
2
100
AcDbEntity
  8
AM_11
100
AcDbLine
 10
373.6794880793286
 20
328.3520994187369
 30
0.0
 11
373.6794880793286
 21
325.352099418737
 31
0.0
  0
LINE
  5
C8
330
2
100
AcDbEntity
  8
AM_11
100
AcDbLine
 10
366.7294880793288
 20
328.3520994187374
 30
0.0
 11
366.7294880793288
 21
325.352099418737
 31
0.0
  0
LINE
  5
C9
330
2
100
AcDbEntity
  8
AM_11
100
AcDbLine
 10
363.7294880793287
 20
328.3520994187369
 30
0.0
 11
363.7294880793287
 21
350.352099418737
 31
0.0
  0
ARC
  5
CA
330
2
100
AcDbEntity
  8
AM_11
100
AcDbCircle
 10
372.0381451282387
 20
317.148974418737
 30
0.0
 40
4.796874999999844
100
AcDbArc
 50
215.6661890521519
 51
324.3338109478479
  0
LINE
  5
CB
330
2
100
AcDbEntity
  8
AM_11
100
AcDbLine
 10
368.141030811209
 20
312.3520994187369
 30
0.0
 11
368.141030811209
 21
325.352099418737
 31
0.0
  0
LINE
  5
CC
330
2
100
AcDbEntity
  8
AM_11
100
AcDbLine
 10
375.9352594452689
 20
312.3520994187369
 30
0.0
 11
375.9352594452689
 21
325.352099418737
 31
0.0
  0
LINE
  5
CD
330
2
100
AcDbEntity
  8
AM_11
100
AcDbLine
 10
393.779488079329
 20
328.3520994187369
 30
0.0
 11
393.779488079329
 21
325.352099418737
 31
0.0
  0
LINE
  5
CE
330
2
100
AcDbEntity
  8
AM_11
100
AcDbLine
 10
400.7294880793287
 20
328.3520994187369
 30
0.0
 11
400.7294880793287
 21
325.352099418737
 31
0.0
  0
ARC
  5
CF
330
2
100
AcDbEntity
  8
AM_11
100
AcDbCircle
 10
395.4208310304188
 20
317.148974418737
 30
0.0
 40
4.796874999999844
100
AcDbArc
 50
215.6661890521519
 51
324.3338109478434
  0
LINE
  5
D0
330
2
100
AcDbEntity
  8
AM_11
100
AcDbLine
 10
391.5237167133886
 20
312.3520994187369
 30
0.0
 11
391.5237167133886
 21
325.352099418737
 31
0.0
  0
LINE
  5
D1
330
2
100
AcDbEntity
  8
AM_11
100
AcDbLine
 10
399.3179453474485
 20
312.3520994187369
 30
0.0
 11
399.3179453474485
 21
325.352099418737
 31
0.0
  0
LINE
  5
D2
330
2
100
AcDbEntity
  8
AM_7
100
AcDbLine
 10
623.7294880793288
 20
392.352099418737
 30
0.0
 11
623.7294880793288
 21
288.3520994187369
 31
0.0
  0
MTEXT
  5
D3
330
2
100
AcDbEntity
  8
A1枠
  6
Continuous
 62
     9
100
AcDbMText
 10
536.5332648977544
 20
195.9426999802836
 30
0.0
 40
12.5
 41
0.0
 71
     5
 72
     5
  1
Urakawa
  7
TITLE
 73
     1
 44
1.0
  0
MTEXT
  5
D4
330
2
100
AcDbEntity
  8
A1枠
  6
Continuous
 62
     9
100
AcDbMText
 10
536.5332648977544
 20
125.9426999802836
 30
0.0
 40
12.5
 41
0.0
 71
     5
 72
     5
  1
Urakawa
  7
TITLE
 73
     1
 44
1.0
  0
MTEXT
  5
D5
330
2
100
AcDbEntity
  8
A1枠
  6
Continuous
 62
     9
100
AcDbMText
 10
501.5822165885236
 20
103.8235047645005
 30
0.0
 40
12.5
 41
0.0
 71
     1
 72
     5
  1
Revised\Pby
  7
TITLE
 73
     1
 44
1.0
  0
MTEXT
  5
D6
330
2
100
AcDbEntity
  8
A1枠
  6
Continuous
 62
     9
100
AcDbMText
 10
536.5332648977544
 20
160.9426999802836
 30
0.0
 40
12.5
 41
0.0
 71
     5
 72
     5
  1
Urakawa
  7
TITLE
 73
     1
 44
1.0
  0
MTEXT
  5
D7
330
2
100
AcDbEntity
  8
A1枠
  6
Continuous
 62
     9
100
AcDbMText
 10
536.5332648977544
 20
230.9426999802836
 30
0.0
 40
12.5
 41
0.0
 71
     5
 72
     5
  1
Urakawa
  7
TITLE
 73
     1
 44
1.0
  0
MTEXT
  5
D8
330
2
100
AcDbEntity
  8
A1枠
  6
Continuous
 62
     9
100
AcDbMText
 10
536.5332648977544
 20
265.9426999802836
 30
0.0
 40
12.5
 41
0.0
 71
     5
 72
     5
  1
Urakawa
  7
TITLE
 73
     1
 44
1.0
  0
MTEXT
  5
D9
330
2
100
AcDbEntity
  8
A1枠
  6
Continuous
 62
     9
100
AcDbMText
 10
611.5332648977544
 20
195.9426999802838
 30
0.0
 40
12.5
 41
0.0
 71
     5
 72
     5
  1
Kamioka
  7
TITLE
 73
     1
 44
1.0
  0
MTEXT
  5
DA
330
2
100
AcDbEntity
  8
A1枠
  6
Continuous
 62
     9
100
AcDbMText
 10
611.5332648977544
 20
125.9426999802838
 30
0.0
 40
12.5
 41
0.0
 71
     5
 72
     5
  1
Kamioka
  7
TITLE
 73
     1
 44
1.0
  0
MTEXT
  5
DB
330
2
100
AcDbEntity
  8
A1枠
  6
Continuous
 62
     9
100
AcDbMText
 10
575.6883080292571
 20
105.317323294791
 30
0.0
 40
12.5
 41
0.0
 71
     1
 72
     5
  1
Approved\Pby
  7
TITLE
 73
     1
 44
1.0
  0
MTEXT
  5
DC
330
2
100
AcDbEntity
  8
A1枠
  6
Continuous
 62
     9
100
AcDbMText
 10
611.5332648977544
 20
160.9426999802838
 30
0.0
 40
12.5
 41
0.0
 71
     5
 72
     5
  1
Kamioka
  7
TITLE
 73
     1
 44
1.0
  0
MTEXT
  5
DD
330
2
100
AcDbEntity
  8
A1枠
  6
Continuous
 62
     9
100
AcDbMText
 10
611.5332648977544
 20
230.9426999802838
 30
0.0
 40
12.5
 41
0.0
 71
     5
 72
     5
  1
Kamioka
  7
TITLE
 73
     1
 44
1.0
  0
MTEXT
  5
DE
330
2
100
AcDbEntity
  8
A1枠
  6
Continuous
 62
     9
100
AcDbMText
 10
611.5332648977544
 20
265.9426999802838
 30
0.0
 40
12.5
 41
0.0
 71
     5
 72
     5
  1
Kamioka
  7
TITLE
 73
     1
 44
1.0
  0
LINE
  5
DF
330
2
100
AcDbEntity
  8
AM_11
100
AcDbLine
 10
643.7294880793288
 20
350.352099418737
 30
0.0
 11
643.7294880793288
 21
372.3520994187369
 31
0.0
  0
LINE
  5
E0
330
2
100
AcDbEntity
  8
AM_11
100
AcDbLine
 10
640.7294880793288
 20
328.3520994187369
 30
0.0
 11
606.7294880793288
 21
328.3520994187369
 31
0.0
  0
LINE
  5
E1
330
2
100
AcDbEntity
  8
AM_11
100
AcDbLine
 10
606.7294880793288
 20
325.352099418737
 30
0.0
 11
640.7294880793288
 21
325.352099418737
 31
0.0
  0
ARC
  5
E2
330
2
100
AcDbEntity
  8
AM_11
100
AcDbCircle
 10
623.7294880793288
 20
328.539599418737
 30
0.0
 40
16.18750000000003
100
AcDbArc
 50
241.2167972061574
 51
298.7832027938425
  0
LINE
  5
E3
330
2
100
AcDbEntity
  8
AM_11
100
AcDbLine
 10
608.141030811209
 20
312.3520994187369
 30
0.0
 11
639.3179453474486
 21
312.3520994187369
 31
0.0
  0
LINE
  5
E4
330
2
100
AcDbEntity
  8
AM_11
100
AcDbLine
 10
613.6794880793286
 20
328.3520994187369
 30
0.0
 11
613.6794880793286
 21
325.352099418737
 31
0.0
  0
LINE
  5
E5
330
2
100
AcDbEntity
  8
AM_11
100
AcDbLine
 10
606.7294880793288
 20
328.3520994187369
 30
0.0
 11
606.7294880793288
 21
325.352099418737
 31
0.0
  0
ARC
  5
E6
330
2
100
AcDbEntity
  8
AM_11
100
AcDbCircle
 10
612.0381451282387
 20
317.148974418737
 30
0.0
 40
4.796874999999844
100
AcDbArc
 50
215.6661890521519
 51
324.3338109478479
  0
LINE
  5
E7
330
2
100
AcDbEntity
  8
AM_11
100
AcDbLine
 10
615.9352594452689
 20
312.3520994187369
 30
0.0
 11
615.9352594452689
 21
325.352099418737
 31
0.0
  0
LINE
  5
E8
330
2
100
AcDbEntity
  8
AM_11
100
AcDbLine
 10
608.141030811209
 20
312.3520994187369
 30
0.0
 11
608.141030811209
 21
325.352099418737
 31
0.0
  0
LINE
  5
E9
330
2
100
AcDbEntity
  8
AM_11
100
AcDbLine
 10
633.7794880793289
 20
328.3520994187369
 30
0.0
 11
633.7794880793289
 21
325.352099418737
 31
0.0
  0
LINE
  5
EA
330
2
100
AcDbEntity
  8
AM_11
100
AcDbLine
 10
640.7294880793288
 20
328.3520994187369
 30
0.0
 11
640.7294880793288
 21
325.352099418737
 31
0.0
  0
LINE
  5
EB
330
2
100
AcDbEntity
  8
AM_11
100
AcDbLine
 10
643.7294880793288
 20
350.352099418737
 30
0.0
 11
643.7294880793288
 21
328.3520994187369
 31
0.0
  0
ARC
  5
EC
330
2
100
AcDbEntity
  8
AM_11
100
AcDbCircle
 10
635.4208310304188
 20
317.1489744187365
 30
0.0
 40
4.796874999999844
100
AcDbArc
 50
215.6661890521519
 51
324.3338109478434
  0
LINE
  5
ED
330
2
100
AcDbEntity
  8
AM_11
100
AcDbLine
 10
631.5237167133886
 20
312.3520994187369
 30
0.0
 11
631.5237167133886
 21
325.352099418737
 31
0.0
  0
LINE
  5
EE
330
2
100
AcDbEntity
  8
AM_11
100
AcDbLine
 10
639.3179453474486
 20
312.3520994187369
 30
0.0
 11
639.3179453474486
 21
325.352099418737
 31
0.0
  0
LINE
  5
EF
330
2
100
AcDbEntity
  8
AM_7
100
AcDbLine
 10
662.8670560457521
 20
647.2665771128922
 30
0.0
 11
344.5919201207925
 21
647.2665771128922
 31
0.0
  0
ELLIPSE
  5
F0
330
2
100
AcDbEntity
  8
細線
100
AcDbEllipse
 10
503.7294880832724
 20
647.2665771128789
 30
0.0
 11
-105.0
 21
0.0
 31
0.0
210
0.0
220
0.0
230
1.0
 40
0.6186146123969117
 41
3.141592653589793
 42
6.283185307179586
  0
ELLIPSE
  5
F1
330
2
100
AcDbEntity
  8
細線
100
AcDbEllipse
 10
503.7294880832724
 20
647.2665771128789
 30
0.0
 11
-105.0
 21
0.0
 31
0.0
210
0.0
220
0.0
230
1.0
 40
0.568190148825134
 41
2.407172254635087
 42
7.017605706134288
  0
ARC
  5
F2
330
2
100
AcDbEntity
  8
AM_7
100
AcDbCircle
 10
403.7294880793215
 20
808.977153544915
 30
0.0
 40
60.00000000000006
100
AcDbArc
 50
180.0
 51
0.0000000000000325
  0
ARC
  5
F3
330
2
100
AcDbEntity
  8
AM_1
100
AcDbCircle
 10
403.7294880793215
 20
808.977153544915
 30
0.0
 40
64.76999999999998
100
AcDbArc
 50
180.0
 51
0.0000000000000325
  0
ARC
  5
F4
330
2
100
AcDbEntity
  8
AM_1
100
AcDbCircle
 10
403.7294880793215
 20
808.977153544915
 30
0.0
 40
55.2299999999999
100
AcDbArc
 50
180.0
 51
0.0000000000000325
  0
LINE
  5
F5
330
2
100
AcDbEntity
  8
AM_7
100
AcDbLine
 10
662.8670560457521
 20
541.1360123331046
 30
0.0
 11
344.5919201207925
 21
541.1360123331046
 31
0.0
  0
ELLIPSE
  5
F6
330
2
100
AcDbEntity
  8
AM_11
100
AcDbEllipse
 10
503.7294880832724
 20
541.1360123331046
 30
0.0
 11
-82.60000000394621
 21
0.0
 31
0.0
210
0.0
220
0.0
230
1.0
 40
0.6987357351869798
 41
3.141592653589793
 42
6.283185307179586
  0
ARC
  5
F7
330
2
100
AcDbEntity
  8
AM_7
100
AcDbCircle
 10
643.7294880793215
 20
808.977153544915
 30
0.0
 40
60.00000000000006
100
AcDbArc
 50
180.0
 51
270.0
  0
ARC
  5
F8
330
2
100
AcDbEntity
  8
AM_1
100
AcDbCircle
 10
643.7294880793215
 20
808.977153544915
 30
0.0
 40
64.76999999999998
100
AcDbArc
 50
180.0
 51
269.9999999115396
  0
ARC
  5
F9
330
2
100
AcDbEntity
  8
AM_1
100
AcDbCircle
 10
643.7294880793215
 20
808.977153544915
 30
0.0
 40
55.2299999999999
100
AcDbArc
 50
180.0
 51
269.9999998962597
  0
LINE
  5
FA
330
2
100
AcDbEntity
  8
細線
100
AcDbLine
 10
561.2294880832723
 20
647.2665771128789
 30
0.0
 11
561.2294880832723
 21
615.2585240700722
 31
0.0
  0
LINE
  5
FB
330
2
100
AcDbEntity
  8
細線
100
AcDbLine
 10
446.2294880832724
 20
647.2665771128789
 30
0.0
 11
446.2294880832724
 21
615.2585240700722
 31
0.0
  0
ELLIPSE
  5
FC
330
2
100
AcDbEntity
  8
細線
100
AcDbEllipse
 10
503.7294880832724
 20
647.2665771128789
 30
0.0
 11
-57.5
 21
0.0
 31
0.0
210
0.0
220
0.0
230
1.0
 40
0.6057837500530062
 41
3.141592653589793
 42
6.283185307179586
  0
LINE
  5
FD
330
2
100
AcDbEntity
  8
AM_11
100
AcDbLine
 10
1186.329488075383
 20
372.3520994187369
 30
0.0
 11
1186.329488075383
 21
541.1360123331046
 31
0.0
  0
LINE
  5
FE
330
2
100
AcDbEntity
  8
AM_11
100
AcDbLine
 10
1021.129488075383
 20
541.1360123331046
 30
0.0
 11
1021.129488075383
 21
372.3520994187369
 31
0.0
  0
ELLIPSE
  5
FF
330
2
100
AcDbEntity
  8
AM_11
100
AcDbEllipse
 10
1103.729488075385
 20
541.1360123331046
 30
0.0
 11
-130.0
 21
0.0
 31
0.0
210
0.0
220
0.0
230
1.0
 40
0.6357413915749161
 41
2.259302824942039
 42
6.283185307179586
  0
ELLIPSE
  5
100
330
2
100
AcDbEntity
  8
AM_11
100
AcDbEllipse
 10
1103.729488075385
 20
541.1360123331046
 30
0.0
 11
-130.0
 21
0.0
 31
0.0
210
0.0
220
0.0
230
1.0
 40
0.5877634579246144
 41
3.141592653589793
 42
7.165475135827303
  0
LINE
  5
101
330
2
100
AcDbEntity
  8
AM_7
100
AcDbLine
 10
1103.729488075385
 20
291.9669116964569
 30
0.0
 11
1103.729488075385
 21
762.2211114145547
 31
0.0
  0
LINE
  5
102
330
2
100
AcDbEntity
  8
AM_11
100
AcDbLine
 10
1243.729488079329
 20
364.875226473931
 30
0.0
 11
1438.729488079328
 21
364.875226473931
 31
0.0
  0
LINE
  5
103
330
2
100
AcDbEntity
  8
AM_11
100
AcDbLine
 10
963.7294880793287
 20
350.352099418737
 30
0.0
 11
1243.729488079329
 21
350.352099418736
 31
0.0
  0
LINE
  5
104
330
2
100
AcDbEntity
  8
AM_11
100
AcDbLine
 10
1243.729488079329
 20
328.3520994187369
 30
0.0
 11
963.7294880793287
 21
328.3520994187369
 31
0.0
  0
LINE
  5
105
330
2
100
AcDbEntity
  8
AM_11
100
AcDbLine
 10
1243.729488079329
 20
372.3520994187369
 30
0.0
 11
963.7294880793287
 21
372.3520994187369
 31
0.0
  0
LINE
  5
106
330
2
100
AcDbEntity
  8
AM_11
100
AcDbLine
 10
983.7294880793288
 20
392.352099418737
 30
0.0
 11
983.7294880793288
 21
288.3520994187369
 31
0.0
  0
LINE
  5
107
330
2
100
AcDbEntity
  8
AM_11
100
AcDbLine
 10
1000.729488079328
 20
328.3520994187369
 30
0.0
 11
966.7294880793289
 21
328.3520994187369
 31
0.0
  0
LINE
  5
108
330
2
100
AcDbEntity
  8
AM_11
100
AcDbLine
 10
966.7294880793289
 20
325.352099418737
 30
0.0
 11
1000.729488079328
 21
325.352099418737
 31
0.0
  0
LINE
  5
109
330
2
100
AcDbEntity
  8
AM_11
100
AcDbLine
 10
968.141030811209
 20
312.3520994187369
 30
0.0
 11
999.3179453474485
 21
312.3520994187369
 31
0.0
  0
ARC
  5
10A
330
2
100
AcDbEntity
  8
AM_11
100
AcDbCircle
 10
983.7294880793288
 20
328.539599418737
 30
0.0
 40
16.18750000000003
100
AcDbArc
 50
241.2167972061574
 51
298.7832027938425
  0
LINE
  5
10B
330
2
100
AcDbEntity
  8
AM_11
100
AcDbLine
 10
963.7294880793287
 20
372.3520994187369
 30
0.0
 11
963.7294880793287
 21
350.352099418737
 31
0.0
  0
LINE
  5
10C
330
2
100
AcDbEntity
  8
AM_11
100
AcDbLine
 10
966.7294880793289
 20
328.3520994187369
 30
0.0
 11
966.7294880793289
 21
325.352099418737
 31
0.0
  0
LINE
  5
10D
330
2
100
AcDbEntity
  8
AM_11
100
AcDbLine
 10
973.6794880793286
 20
328.3520994187369
 30
0.0
 11
973.6794880793286
 21
325.352099418737
 31
0.0
  0
LINE
  5
10E
330
2
100
AcDbEntity
  8
AM_11
100
AcDbLine
 10
963.7294880793287
 20
328.3520994187369
 30
0.0
 11
963.7294880793287
 21
350.352099418737
 31
0.0
  0
ARC
  5
10F
330
2
100
AcDbEntity
  8
AM_11
100
AcDbCircle
 10
972.0381451282387
 20
317.148974418737
 30
0.0
 40
4.796874999999844
100
AcDbArc
 50
215.6661890521519
 51
324.3338109478479
  0
LINE
  5
110
330
2
100
AcDbEntity
  8
AM_11
100
AcDbLine
 10
975.9352594452689
 20
312.3520994187369
 30
0.0
 11
975.9352594452689
 21
325.352099418737
 31
0.0
  0
LINE
  5
111
330
2
100
AcDbEntity
  8
AM_11
100
AcDbLine
 10
968.141030811209
 20
312.3520994187369
 30
0.0
 11
968.141030811209
 21
325.352099418737
 31
0.0
  0
LINE
  5
112
330
2
100
AcDbEntity
  8
AM_11
100
AcDbLine
 10
1000.729488079328
 20
328.3520994187369
 30
0.0
 11
1000.729488079328
 21
325.352099418737
 31
0.0
  0
LINE
  5
113
330
2
100
AcDbEntity
  8
AM_11
100
AcDbLine
 10
993.7794880793289
 20
328.3520994187369
 30
0.0
 11
993.7794880793289
 21
325.352099418737
 31
0.0
  0
ARC
  5
114
330
2
100
AcDbEntity
  8
AM_11
100
AcDbCircle
 10
995.4208310304188
 20
317.1489744187365
 30
0.0
 40
4.796874999999844
100
AcDbArc
 50
215.6661890521519
 51
324.3338109478434
  0
LINE
  5
115
330
2
100
AcDbEntity
  8
AM_11
100
AcDbLine
 10
991.5237167133886
 20
312.3520994187369
 30
0.0
 11
991.5237167133886
 21
325.352099418737
 31
0.0
  0
LINE
  5
116
330
2
100
AcDbEntity
  8
AM_11
100
AcDbLine
 10
999.3179453474485
 20
312.3520994187369
 30
0.0
 11
999.3179453474485
 21
325.352099418737
 31
0.0
  0
LINE
  5
117
330
2
100
AcDbEntity
  8
AM_11
100
AcDbLine
 10
1020.729488079328
 20
372.3520994187369
 30
0.0
 11
1021.12948807933
 21
372.3520994187369
 31
0.0
  0
LINE
  5
118
330
2
100
AcDbEntity
  8
AM_11
100
AcDbLine
 10
1223.729488079328
 20
392.352099418737
 30
0.0
 11
1223.729488079328
 21
288.3520994187369
 31
0.0
  0
LINE
  5
119
330
2
100
AcDbEntity
  8
AM_11
100
AcDbLine
 10
1240.729488079328
 20
328.3520994187369
 30
0.0
 11
1206.729488079328
 21
328.3520994187369
 31
0.0
  0
LINE
  5
11A
330
2
100
AcDbEntity
  8
AM_11
100
AcDbLine
 10
1206.729488079328
 20
325.352099418737
 30
0.0
 11
1240.729488079328
 21
325.352099418737
 31
0.0
  0
ARC
  5
11B
330
2
100
AcDbEntity
  8
AM_11
100
AcDbCircle
 10
1223.729488079328
 20
328.539599418737
 30
0.0
 40
16.18750000000003
100
AcDbArc
 50
241.2167972061574
 51
298.7832027938425
  0
LINE
  5
11C
330
2
100
AcDbEntity
  8
AM_11
100
AcDbLine
 10
1208.141030811209
 20
312.3520994187369
 30
0.0
 11
1239.317945347448
 21
312.3520994187369
 31
0.0
  0
LINE
  5
11D
330
2
100
AcDbEntity
  8
AM_11
100
AcDbLine
 10
1206.729488079328
 20
328.3520994187369
 30
0.0
 11
1206.729488079328
 21
325.352099418737
 31
0.0
  0
LINE
  5
11E
330
2
100
AcDbEntity
  8
AM_11
100
AcDbLine
 10
1213.679488079328
 20
328.3520994187369
 30
0.0
 11
1213.679488079328
 21
325.352099418737
 31
0.0
  0
ARC
  5
11F
330
2
100
AcDbEntity
  8
AM_11
100
AcDbCircle
 10
1212.038145128238
 20
317.148974418737
 30
0.0
 40
4.796874999999844
100
AcDbArc
 50
215.6661890521519
 51
324.3338109478479
  0
LINE
  5
120
330
2
100
AcDbEntity
  8
AM_11
100
AcDbLine
 10
1215.935259445269
 20
312.3520994187369
 30
0.0
 11
1215.935259445269
 21
325.352099418737
 31
0.0
  0
LINE
  5
121
330
2
100
AcDbEntity
  8
AM_11
100
AcDbLine
 10
1208.141030811209
 20
312.3520994187369
 30
0.0
 11
1208.141030811209
 21
325.352099418737
 31
0.0
  0
LINE
  5
122
330
2
100
AcDbEntity
  8
AM_11
100
AcDbLine
 10
1243.729488079329
 20
350.352099418737
 30
0.0
 11
1243.729488079329
 21
372.3520994187369
 31
0.0
  0
LINE
  5
123
330
2
100
AcDbEntity
  8
AM_11
100
AcDbLine
 10
1240.729488079328
 20
328.3520994187369
 30
0.0
 11
1240.729488079328
 21
325.352099418737
 31
0.0
  0
LINE
  5
124
330
2
100
AcDbEntity
  8
AM_11
100
AcDbLine
 10
1243.729488079329
 20
350.352099418737
 30
0.0
 11
1243.729488079329
 21
328.3520994187369
 31
0.0
  0
LINE
  5
125
330
2
100
AcDbEntity
  8
AM_11
100
AcDbLine
 10
1233.779488079329
 20
328.3520994187369
 30
0.0
 11
1233.779488079329
 21
325.352099418737
 31
0.0
  0
ARC
  5
126
330
2
100
AcDbEntity
  8
AM_11
100
AcDbCircle
 10
1235.420831030419
 20
317.1489744187365
 30
0.0
 40
4.796874999999844
100
AcDbArc
 50
215.6661890521519
 51
324.3338109478434
  0
LINE
  5
127
330
2
100
AcDbEntity
  8
AM_11
100
AcDbLine
 10
1231.523716713388
 20
312.3520994187369
 30
0.0
 11
1231.523716713388
 21
325.352099418737
 31
0.0
  0
LINE
  5
128
330
2
100
AcDbEntity
  8
AM_11
100
AcDbLine
 10
1239.317945347448
 20
312.3520994187369
 30
0.0
 11
1239.317945347448
 21
325.352099418737
 31
0.0
  0
LINE
  5
129
330
2
100
AcDbEntity
  8
内槽フランジ
100
AcDbLine
 10
1346.729488079327
 20
467.9719284396715
 30
0.0
 11
1346.729488079327
 21
466.9719284396714
 31
0.0
  0
LINE
  5
12A
330
2
100
AcDbEntity
  8
内槽外板
100
AcDbLine
 10
1346.729488079328
 20
466.9719284396713
 30
0.0
 11
1346.729488079328
 21
467.9719284396712
 31
0.0
  0
LINE
  5
12B
330
2
100
AcDbEntity
  8
内槽外板
100
AcDbLine
 10
1346.729488079328
 20
467.9719284396712
 30
0.0
 11
1346.729488079328
 21
466.9719284396713
 31
0.0
  0
LINE
  5
12C
330
2
100
AcDbEntity
  8
内槽フランジ
100
AcDbLine
 10
1354.729488079327
 20
421.5014941106406
 30
0.0
 11
1354.729488079327
 21
468.9206475924761
 31
0.0
  0
LINE
  5
12D
330
2
100
AcDbEntity
  8
内槽フランジ
100
AcDbLine
 10
1354.729488079326
 20
460.9719284396715
 30
0.0
 11
1350.193589694465
 21
460.9719284396715
 31
0.0
  0
LINE
  5
12E
330
2
100
AcDbEntity
  8
内槽フランジ
100
AcDbLine
 10
1346.729488079327
 20
466.9719284396714
 30
0.0
 11
1350.193589694465
 21
460.9719284396715
 31
0.0
  0
LINE
  5
12F
330
2
100
AcDbEntity
  8
内槽外板
100
AcDbLine
 10
1343.26538646419
 20
460.9719284396712
 30
0.0
 11
1346.729488079328
 21
466.9719284396713
 31
0.0
  0
LINE
  5
130
330
2
100
AcDbEntity
  8
内槽フランジ
100
AcDbLine
 10
1384.729488079327
 20
421.501494110641
 30
0.0
 11
1354.729488079327
 21
421.501494110641
 31
0.0
  0
LINE
  5
131
330
2
100
AcDbEntity
  8
AM_11
100
AcDbLine
 10
1438.729488079328
 20
364.875226473931
 30
0.0
 11
1483.729488079329
 21
364.875226473931
 31
0.0
  0
ELLIPSE
  5
132
330
2
100
AcDbEntity
  8
細線
100
AcDbEllipse
 10
1103.729488075385
 20
647.2665771128789
 30
0.0
 11
-57.5
 21
0.0
 31
0.0
210
0.0
220
0.0
230
1.0
 40
0.6057837500530062
 41
3.141592653589793
 42
6.283185307179586
  0
LINE
  5
133
330
2
100
AcDbEntity
  8
AM_7
100
AcDbLine
 10
1262.867056041808
 20
647.2665771128922
 30
0.0
 11
944.5919201168489
 21
647.2665771128922
 31
0.0
  0
ELLIPSE
  5
134
330
2
100
AcDbEntity
  8
細線
100
AcDbEllipse
 10
1103.729488075385
 20
647.2665771128789
 30
0.0
 11
-105.0
 21
0.0
 31
0.0
210
0.0
220
0.0
230
1.0
 40
0.6186146123969117
 41
3.141592653589793
 42
6.283185307179586
  0
ELLIPSE
  5
135
330
2
100
AcDbEntity
  8
細線
100
AcDbEllipse
 10
1103.729488075385
 20
647.2665771128789
 30
0.0
 11
-105.0
 21
0.0
 31
0.0
210
0.0
220
0.0
230
1.0
 40
0.568190148825134
 41
2.407172254635087
 42
7.017605706134288
  0
LINE
  5
136
330
2
100
AcDbEntity
  8
AM_7
100
AcDbLine
 10
1262.867056041808
 20
541.1360123331046
 30
0.0
 11
944.5919201168489
 21
541.1360123331046
 31
0.0
  0
ELLIPSE
  5
137
330
2
100
AcDbEntity
  8
AM_11
100
AcDbEllipse
 10
1103.729488079328
 20
541.1360123331046
 30
0.0
 11
-82.60000000394621
 21
0.0
 31
0.0
210
0.0
220
0.0
230
1.0
 40
0.6987357351869798
 41
3.141592653589793
 42
6.283185307179586
  0
ARC
  5
138
330
2
100
AcDbEntity
  8
AM_7
100
AcDbCircle
 10
963.7294880793358
 20
808.977153544915
 30
0.0
 40
60.00000000000006
100
AcDbArc
 50
270.0
 51
359.9999999999999
  0
ARC
  5
139
330
2
100
AcDbEntity
  8
AM_1
100
AcDbCircle
 10
963.7294880793358
 20
808.977153544915
 30
0.0
 40
64.76999999999998
100
AcDbArc
 50
270.0000000884603
 51
359.9999999999999
  0
ARC
  5
13A
330
2
100
AcDbEntity
  8
AM_1
100
AcDbCircle
 10
963.7294880793358
 20
808.977153544915
 30
0.0
 40
55.2299999999999
100
AcDbArc
 50
270.0000001037402
 51
359.9999999999999
  0
LINE
  5
13B
330
2
100
AcDbEntity
  8
AM_1
100
AcDbLine
 10
963.7294880793358
 20
744.2071535449151
 30
0.0
 11
803.7294880793288
 21
744.2071535449151
 31
0.0
  0
LINE
  5
13C
330
2
100
AcDbEntity
  8
細線
100
AcDbLine
 10
1046.229488075385
 20
647.2665771128789
 30
0.0
 11
1046.229488075385
 21
615.2585240700722
 31
0.0
  0
LINE
  5
13D
330
2
100
AcDbEntity
  8
AM_1
100
AcDbLine
 10
963.7294880793358
 20
753.7471535449149
 30
0.0
 11
803.7294880793288
 21
753.7471535449149
 31
0.0
  0
LINE
  5
13E
330
2
100
AcDbEntity
  8
AM_7
100
AcDbLine
 10
963.7294880793358
 20
748.977153544915
 30
0.0
 11
803.7294880793288
 21
748.977153544915
 31
0.0
  0
ARC
  5
13F
330
2
100
AcDbEntity
  8
AM_1
100
AcDbCircle
 10
1203.729488079336
 20
808.977153544915
 30
0.0
 40
64.76999999999998
100
AcDbArc
 50
179.9999999999999
 51
359.9999999999999
  0
LINE
  5
140
330
2
100
AcDbEntity
  8
細線
100
AcDbLine
 10
1161.229488075385
 20
647.2665771128789
 30
0.0
 11
1161.229488075385
 21
615.2585240700722
 31
0.0
  0
ARC
  5
141
330
2
100
AcDbEntity
  8
AM_7
100
AcDbCircle
 10
1203.729488079336
 20
808.977153544915
 30
0.0
 40
60.00000000000006
100
AcDbArc
 50
179.9999999999999
 51
359.9999999999999
  0
ARC
  5
142
330
2
100
AcDbEntity
  8
AM_1
100
AcDbCircle
 10
1203.729488079336
 20
808.977153544915
 30
0.0
 40
55.2299999999999
100
AcDbArc
 50
179.9999999999999
 51
359.9999999999999
  0
LINE
  5
143
330
2
100
AcDbEntity
  8
AM_5
 62
     2
100
AcDbLine
 10
1626.064179500784
 20
2605.60757777221
 30
0.000000000000003
 11
1626.064179500784
 21
2655.60757777221
 31
-0.000000000000003
  0
LINE
  5
144
330
2
100
AcDbEntity
  8
AM_5
 62
     2
100
AcDbLine
 10
2017.091277958474
 20
2547.386809831849
 30
0.0
 11
2017.091277958474
 21
2522.38680983185
 31
0.000000000000003
  0
LINE
  5
145
330
2
100
AcDbEntity
  8
AM_5
 62
     2
100
AcDbLine
 10
2004.591277958474
 20
2547.386809831849
 30
0.0
 11
2004.591277958474
 21
2522.38680983185
 31
0.000000000000003
  0
LINE
  5
146
330
2
100
AcDbEntity
  8
AM_5
 62
     2
100
AcDbLine
 10
1158.81892957724
 20
2520.134574149901
 30
0.0
 11
1158.81892957724
 21
2495.134574149902
 31
0.000000000000003
  0
LINE
  5
147
330
2
100
AcDbEntity
  8
AM_5
 62
     2
100
AcDbLine
 10
1171.318929577241
 20
2520.134574149901
 30
0.0
 11
1171.318929577241
 21
2495.134574149902
 31
0.000000000000003
  0
LINE
  5
148
330
2
100
AcDbEntity
  8
AM_5
 62
     2
100
AcDbLine
 10
1514.140598875377
 20
2228.883994991886
 30
0.000000000000006
 11
1514.140598875377
 21
2278.883994991886
 31
0.0
  0
LINE
  5
149
330
2
100
AcDbEntity
  8
AM_5
 62
     2
100
AcDbLine
 10
1656.184348875377
 20
2253.883994991886
 30
0.000000000000003
 11
1673.862018405041
 21
2271.561664521549
 31
0.0
  0
LINE
  5
14A
330
2
100
AcDbEntity
  8
AM_5
 62
     2
100
AcDbLine
 10
1656.184348875377
 20
2253.883994991886
 30
0.000000000000003
 11
1673.862018405041
 21
2236.206325462222
 31
0.0
  0
LINE
  5
14B
330
2
100
AcDbEntity
  8
内槽外板
100
AcDbLine
 10
1048.959488079335
 20
2657.732270397803
 30
0.0
 11
558.4994880793328
 21
2657.732270397803
 31
0.0
  0
DIMENSION
  5
14C
330
2
100
AcDbEntity
  8
AM_5
100
AcDbDimension
  2
*D2
 10
803.7294880793288
 20
2779.311574239208
 30
0.0
 11
678.7294880793306
 21
2793.061574239208
 31
0.0
 71
     5
 42
249.9999999999963
  3
スタイル2
100
AcDbAlignedDimension
 13
553.7294880793324
 23
2775.031922731157
 33
0.0
 14
803.7294880793288
 24
2775.031922731157
 34
0.0
100
AcDbRotatedDimension
  0
DIMENSION
  5
159
330
2
100
AcDbEntity
  8
AM_5
100
AcDbDimension
  2
*D23
 10
803.7294880793288
 20
1831.406158959011
 30
0.0
 11
693.7294880793252
 21
1845.156158959011
 31
0.0
 71
     5
 42
220.0000000000073
  3
スタイル2
100
AcDbAlignedDimension
 13
583.7294880793215
 23
1831.406158959011
 33
0.0
 14
803.7294880793288
 24
1831.406158959011
 34
0.0
100
AcDbRotatedDimension
1001
ACAD
1000
DSTYLE
1002
{
1070
   279
1070
     1
1002
}
  0
LINE
  5
164
330
2
100
AcDbEntity
  8
AM_11
100
AcDbLine
 10
173.7294880793287
 20
2745.828972363543
 30
0.0
 11
1433.729488079328
 21
2745.828972363543
 31
0.0
  0
LINE
  5
165
330
2
100
AcDbEntity
  8
AM_11
100
AcDbLine
 10
168.7294880793288
 20
2753.828972363542
 30
0.0
 11
1438.729488079328
 21
2753.828972363542
 31
0.0
  0
LINE
  5
166
330
2
100
AcDbEntity
  8
AM_7
100
AcDbLine
 10
523.7294880793215
 20
2327.916164024247
 30
0.0
 11
373.7294880793215
 21
2241.313623645803
 31
0.0
  0
LINE
  5
167
330
2
100
AcDbEntity
  8
AM_1
100
AcDbLine
 10
521.3444880793222
 20
2332.047105200298
 30
0.0
 11
371.3444880793212
 21
2245.444564821855
 31
0.0
  0
LINE
  5
168
330
2
100
AcDbEntity
  8
AM_1
100
AcDbLine
 10
526.1144880793217
 20
2323.785222848195
 30
0.0
 11
376.1144880793217
 21
2237.182682469751
 31
0.0
  0
LINE
  5
169
330
2
100
AcDbEntity
  8
内槽フランジ
100
AcDbLine
 10
222.7294880793297
 20
2697.202704726833
 30
0.0
 11
222.7294880793288
 21
1558.426798231232
 31
0.0
  0
LINE
  5
16A
330
2
100
AcDbEntity
  8
内槽フランジ
100
AcDbLine
 10
260.7294880793288
 20
2650.732270397802
 30
0.0
 11
260.7294880793288
 21
1558.426798231232
 31
0.0
  0
LINE
  5
16B
330
2
100
AcDbEntity
  8
内槽フランジ
100
AcDbLine
 10
252.7294880793288
 20
2649.783551244998
 30
0.0
 11
252.7294880793288
 21
1558.426798231232
 31
0.0
  0
LINE
  5
16C
330
2
100
AcDbEntity
  8
内槽外板
100
AcDbLine
 10
260.7294880793288
 20
2650.732270397802
 30
0.0
 11
260.7294880793288
 21
1559.352099418736
 31
0.0
  0
LINE
  5
16D
330
2
100
AcDbEntity
  8
AM_11
100
AcDbLine
 10
168.7294880793288
 20
1559.352099418737
 30
0.0
 11
168.7294880793288
 21
2753.828972363542
 31
0.0
  0
LINE
  5
16E
330
2
100
AcDbEntity
  8
AM_11
100
AcDbLine
 10
123.7294880793287
 20
1559.352099418737
 30
0.0
 11
123.7294880793287
 21
2753.828972363542
 31
0.0
  0
MTEXT
  5
16F
330
2
100
AcDbEntity
  8
AM_5
100
AcDbMText
 10
60.26021178526116
 20
1569.756696366362
 30
0.0
 40
31.5
 41
0.0
 71
     5
 72
     5
  1
ｃ
  7
スタイル１
 73
     1
 44
1.0
  0
MTEXT
  5
170
330
2
100
AcDbEntity
  8
AM_5
100
AcDbMText
 10
73.21853005642515
 20
1561.583942706946
 30
0.0
 40
31.5
 41
0.0
 71
     5
 72
     5
  1
L
  7
スタイル１
 73
     1
 44
1.0
  0
LINE
  5
171
330
2
100
AcDbEntity
  8
AM_1
100
AcDbLine
 10
348.4994880793219
 20
2189.352099418737
 30
0.0
 11
348.4994880793215
 21
1559.352099418737
 31
0.0
  0
LINE
  5
172
330
2
100
AcDbEntity
  8
AM_7
100
AcDbLine
 10
343.7294880793215
 20
2189.352099418737
 30
0.0
 11
343.7294880793215
 21
1559.352099418737
 31
0.0
  0
LINE
  5
173
330
2
100
AcDbEntity
  8
AM_1
100
AcDbLine
 10
338.9594880793211
 20
2189.352099418737
 30
0.0
 11
338.9594880793215
 21
1559.352099418737
 31
0.0
  0
LINE
  5
174
330
2
100
AcDbEntity
  8
AM_7
100
AcDbLine
 10
583.7294880793215
 20
2129.352099418736
 30
0.0
 11
583.7294880793215
 21
1559.352099418737
 31
0.0
  0
LINE
  5
175
330
2
100
AcDbEntity
  8
AM_7
100
AcDbLine
 10
463.7294880793215
 20
2129.352099418736
 30
0.0
 11
463.7294880793215
 21
1559.352099418737
 31
0.0
  0
LINE
  5
176
330
2
100
AcDbEntity
  8
AM_1
100
AcDbLine
 10
588.4994880793215
 20
2129.352099418736
 30
0.0
 11
588.4994880793215
 21
1559.352099418737
 31
0.0
  0
LINE
  5
177
330
2
100
AcDbEntity
  8
AM_1
100
AcDbLine
 10
458.9594880793215
 20
2129.352099418736
 30
0.0
 11
458.9594880793215
 21
1559.352099418737
 31
0.0
  0
LINE
  5
178
330
2
100
AcDbEntity
  8
AM_1
100
AcDbLine
 10
578.959488079321
 20
2129.352099418736
 30
0.0
 11
578.9594880793215
 21
1559.352099418737
 31
0.0
  0
LINE
  5
179
330
2
100
AcDbEntity
  8
AM_1
100
AcDbLine
 10
468.4994880793214
 20
2129.352099418736
 30
0.0
 11
468.4994880793214
 21
1559.352099418737
 31
0.0
  0
DIMENSION
  5
17A
330
2
100
AcDbEntity
  8
AM_5
100
AcDbDimension
  2
*D21
 10
463.7294880793215
 20
1831.406158959011
 30
0.0
 11
403.7294880793215
 21
1845.156158959011
 31
0.0
 71
     5
 42
120.0
  3
スタイル2
100
AcDbAlignedDimension
 13
343.7294880793215
 23
1821.469436912121
 33
0.0
 14
463.7294880793215
 24
1821.469436912121
 34
0.0
100
AcDbRotatedDimension
  0
DIMENSION
  5
187
330
2
100
AcDbEntity
  8
AM_5
100
AcDbDimension
  2
*D22
 10
583.7294880793215
 20
1831.406158959011
 30
0.0
 11
523.7294880793215
 21
1845.156158959011
 31
0.0
 71
     5
 42
120.0
  3
スタイル2
100
AcDbAlignedDimension
 13
463.7294880793215
 23
1821.469436912121
 33
0.0
 14
583.7294880793215
 24
1831.406158959011
 34
0.0
100
AcDbRotatedDimension
1001
ACAD
1000
DSTYLE
1002
{
1070
   279
1070
     1
1002
}
  0
ARC
  5
193
330
2
100
AcDbEntity
  8
AM_7
100
AcDbCircle
 10
403.7294880793215
 20
2189.352099418737
 30
0.0
 40
60.0
100
AcDbArc
 50
119.9999999999999
 51
180.0
  0
ARC
  5
194
330
2
100
AcDbEntity
  8
AM_1
100
AcDbCircle
 10
403.7294880793215
 20
2189.352099418736
 30
0.0
 40
55.22999999999999
100
AcDbArc
 50
120.0
 51
180.0
  0
ARC
  5
195
330
2
100
AcDbEntity
  8
AM_1
100
AcDbCircle
 10
403.729488079321
 20
2189.352099418737
 30
0.0
 40
64.77
100
AcDbArc
 50
120.0000000000001
 51
180.0
  0
ARC
  5
196
330
2
100
AcDbEntity
  8
AM_1
100
AcDbCircle
 10
523.7294880793215
 20
2129.352099418736
 30
0.0
 40
64.76999999999998
100
AcDbArc
 50
0.000000000000007
 51
180.0
  0
ARC
  5
197
330
2
100
AcDbEntity
  8
AM_1
100
AcDbCircle
 10
523.7294880793215
 20
2129.352099418736
 30
0.0
 40
55.2299999999999
100
AcDbArc
 50
0.000000000000007
 51
180.0
  0
ARC
  5
198
330
2
100
AcDbEntity
  8
AM_7
100
AcDbCircle
 10
523.7294880793215
 20
2129.352099418736
 30
0.0
 40
60.00000000000006
100
AcDbArc
 50
0.000000000000007
 51
180.0
  0
LINE
  5
199
330
2
100
AcDbEntity
  8
AM_7
100
AcDbLine
 10
553.7294880793324
 20
2499.118931352756
 30
0.0
 11
553.7294880793324
 21
2801.369549885299
 31
0.0
  0
LINE
  5
19A
330
2
100
AcDbEntity
  8
内槽外板
100
AcDbLine
 10
548.959488079332
 20
2657.732270397803
 30
0.0
 11
264.1935896944669
 21
2657.732270397803
 31
0.0
  0
LINE
  5
19B
330
2
100
AcDbEntity
  8
AM_11
100
AcDbLine
 10
168.7294880793288
 20
2753.828972363542
 30
0.0
 11
123.7294880793287
 21
2753.828972363542
 31
0.0
  0
LINE
  5
19C
330
2
100
AcDbEntity
  8
AM_11
100
AcDbLine
 10
168.7294880793288
 20
2745.828972363543
 30
0.0
 11
168.7294880793288
 21
2745.828972363543
 31
0.0
  0
LINE
  5
19D
330
2
100
AcDbEntity
  8
AM_11
100
AcDbLine
 10
173.7294880793287
 20
2745.828972363543
 30
0.0
 11
168.7294880793288
 21
2745.828972363543
 31
0.0
  0
LINE
  5
19E
330
2
100
AcDbEntity
  8
内槽フランジ
100
AcDbLine
 10
222.7294880793297
 20
2697.202704726833
 30
0.0
 11
252.7294880793297
 21
2697.202704726833
 31
0.0
  0
LINE
  5
19F
330
2
100
AcDbEntity
  8
内槽フランジ
100
AcDbLine
 10
252.7294880793306
 20
2657.732270397803
 30
0.0
 11
257.2653864641915
 21
2657.732270397803
 31
0.0
  0
LINE
  5
1A0
330
2
100
AcDbEntity
  8
内槽フランジ
100
AcDbLine
 10
260.7294880793288
 20
2650.732270397803
 30
0.0
 11
260.7294880793288
 21
2651.732270397803
 31
0.0
  0
LINE
  5
1A1
330
2
100
AcDbEntity
  8
内槽外板
100
AcDbLine
 10
260.7294880793288
 20
2651.732270397802
 30
0.0
 11
260.7294880793288
 21
2650.732270397802
 31
0.0
  0
LINE
  5
1A2
330
2
100
AcDbEntity
  8
内槽フランジ
100
AcDbLine
 10
260.7294880793288
 20
2651.732270397803
 30
0.0
 11
257.2653864641915
 21
2657.732270397803
 31
0.0
  0
LINE
  5
1A3
330
2
100
AcDbEntity
  8
内槽フランジ
100
AcDbLine
 10
252.7294880793297
 20
2697.202704726834
 30
0.0
 11
252.7294880793288
 21
2649.783551244998
 31
0.0
  0
LINE
  5
1A4
330
2
100
AcDbEntity
  8
内槽外板
100
AcDbLine
 10
264.1935896944669
 20
2657.732270397803
 30
0.0
 11
260.7294880793288
 21
2651.732270397802
 31
0.0
  0
LINE
  5
1A5
330
2
100
AcDbEntity
  8
AM_0
100
AcDbLine
 10
540.1294880793338
 20
2564.654803446203
 30
0.0
 11
540.1294880793338
 21
2496.101799178494
 31
0.0
  0
LINE
  5
1A7
330
2
100
AcDbEntity
  8
AM_0
100
AcDbLine
 10
567.3294880793309
 20
2564.654803446203
 30
0.0
 11
567.3294880793309
 21
2496.101799178494
 31
0.0
  0
MTEXT
  5
1A8
330
2
100
AcDbEntity
  8
AM_6
100
AcDbMText
 10
592.6587886926704
 20
2529.700135722936
 30
0.0
 40
17.5
 41
0.0
 71
     8
 72
     5
  1
N8
  7
スタイル１
 73
     1
 44
1.0
  0
LINE
  5
1AA
330
2
100
AcDbEntity
  8
AM_1
100
AcDbLine
 10
548.9594880793211
 20
2434.656181445454
 30
0.0
 11
548.9594880793215
 21
2379.877688251314
 31
0.0
  0
LINE
  5
1AB
330
2
100
AcDbEntity
  8
AM_1
100
AcDbLine
 10
558.4994880793215
 20
2434.656181445454
 30
0.0
 11
558.4994880793215
 21
2379.877688251313
 31
0.0
  0
LINE
  5
1AC
330
2
100
AcDbEntity
  8
AM_7
100
AcDbLine
 10
553.7294880793215
 20
2524.118931352757
 30
0.0
 11
553.7294880793215
 21
2379.877688251313
 31
0.0
  0
ARC
  5
1AD
330
2
100
AcDbEntity
  8
AM_7
100
AcDbCircle
 10
493.7294880793215
 20
2379.877688251313
 30
0.0
 40
60.0
100
AcDbArc
 50
299.9999999999999
 51
359.9999999999999
  0
ARC
  5
1AE
330
2
100
AcDbEntity
  8
AM_1
100
AcDbCircle
 10
493.7294880793215
 20
2379.877688251313
 30
0.0
 40
64.77
100
AcDbArc
 50
300.0000000000001
 51
0.000000000000007
  0
ARC
  5
1AF
330
2
100
AcDbEntity
  8
AM_1
100
AcDbCircle
 10
493.7294880793224
 20
2379.877688251313
 30
0.0
 40
55.22999999999999
100
AcDbArc
 50
300.0
 51
0.0000000000006177
  0
LINE
  5
1B0
330
2
100
AcDbEntity
  8
AM_7
100
AcDbLine
 10
528.959488079321
 20
2398.962626899667
 30
0.0
 11
578.4994880793215
 21
2398.962626899667
 31
0.0
  0
ARC
  5
1B1
330
2
100
AcDbEntity
  8
細線
100
AcDbCircle
 10
553.7294880793215
 20
2398.962626899667
 30
0.0
 40
4.770000000000095
100
AcDbArc
 50
0.000000000000007
 51
180.0
  0
LINE
  5
1B2
330
2
100
AcDbEntity
  8
AM_0
100
AcDbLine
 10
548.9594880793324
 20
2485.049155695786
 30
0.0
 11
548.9594880793324
 21
2434.656181445454
 31
0.0
  0
LINE
  5
1B3
330
2
100
AcDbEntity
  8
AM_0
100
AcDbLine
 10
558.4994880793324
 20
2485.049155695786
 30
0.0
 11
558.4994880793328
 21
2434.656181445454
 31
0.0
  0
LINE
  5
1B4
330
2
100
AcDbEntity
  8
AM_0
100
AcDbLine
 10
558.4994880793324
 20
2434.656181445454
 30
0.0
 11
548.9594880793324
 21
2434.656181445454
 31
0.0
  0
ELLIPSE
  5
1B5
330
2
100
AcDbEntity
  8
AM_0
100
AcDbEllipse
 10
553.7294880793324
 20
2496.101799178494
 30
0.0
 11
13.59999999999854
 21
0.0
 31
0.0
210
0.0
220
0.0
230
1.0
 40
0.8126943737285781
 41
3.141592653589793
 42
6.283185307179586
  0
LINE
  5
1B6
330
2
100
AcDbEntity
  8
AM_0
100
AcDbLine
 10
558.4994880793328
 20
2674.656181445454
 30
0.0
 11
558.4994880793328
 21
2576.654803446203
 31
0.0
  0
LINE
  5
1B7
330
2
100
AcDbEntity
  8
AM_0
100
AcDbLine
 10
548.959488079332
 20
2674.656181445454
 30
0.0
 11
548.959488079332
 21
2576.654803446203
 31
0.0
  0
LINE
  5
1B8
330
2
100
AcDbEntity
  8
AM_0
100
AcDbLine
 10
540.1294880793338
 20
2574.654803446205
 30
0.0
 11
547.4594880793319
 21
2574.654803446205
 31
0.0
  0
LINE
  5
1B9
330
2
100
AcDbEntity
  8
AM_0
100
AcDbLine
 10
540.1294880793338
 20
2574.654803446205
 30
0.0
 11
540.1294880793338
 21
2564.654803446203
 31
0.0
  0
LINE
  5
1BA
330
2
100
AcDbEntity
  8
AM_0
100
AcDbLine
 10
567.3294880793309
 20
2574.654803446205
 30
0.0
 11
567.3294880793309
 21
2564.654803446203
 31
0.0
  0
LINE
  5
1BB
330
2
100
AcDbEntity
  8
AM_0
100
AcDbLine
 10
547.4594880793319
 20
2576.654803446203
 30
0.0
 11
559.9994880793328
 21
2576.654803446203
 31
0.0
  0
LINE
  5
1BC
330
2
100
AcDbEntity
  8
AM_0
100
AcDbLine
 10
547.4594880793319
 20
2574.654803446205
 30
0.0
 11
547.4594880793319
 21
2576.654803446203
 31
0.0
  0
LINE
  5
1BD
330
2
100
AcDbEntity
  8
AM_0
100
AcDbLine
 10
567.3294880793309
 20
2574.654803446205
 30
0.0
 11
559.9994880793328
 21
2574.654803446205
 31
0.0
  0
LINE
  5
1BE
330
2
100
AcDbEntity
  8
AM_0
100
AcDbLine
 10
559.9994880793328
 20
2574.654803446205
 30
0.0
 11
559.9994880793328
 21
2576.654803446203
 31
0.0
  0
LINE
  5
1BF
330
2
100
AcDbEntity
  8
AM_0
100
AcDbLine
 10
548.959488079332
 20
2674.656181445454
 30
0.0
 11
558.4994880793328
 21
2674.656181445454
 31
0.0
  0
HATCH
  5
1C0
330
2
100
AcDbEntity
  8
AM_5
100
AcDbHatch
 10
0.0
 20
0.0
 30
0.0
210
0.0
220
0.0
230
1.0
  2
SOLID
 70
     1
 71
     1
 91
        1
 92
        1
 93
        3
 72
     1
 10
548.553107177282
 20
2720.851404401655
 11
558.9058689813827
 21
2720.851404401655
 72
     1
 10
558.9058689813827
 20
2720.851404401655
 11
553.7294880793324
 21
2740.169920927437
 72
     1
 10
553.7294880793324
 20
2740.169920927437
 11
548.553107177282
 21
2720.851404401655
 97
        3
330
1C3
330
1C2
330
1C1
 75
     0
 76
     1
 98
        1
 10
23.10927140329295
 20
120.1000092060608
  0
LINE
  5
1C1
102
{ACAD_REACTORS
330
1C0
102
}
330
2
100
AcDbEntity
  8
AM_5
100
AcDbLine
 10
553.7294880793324
 20
2740.169920927437
 30
0.0
 11
548.553107177282
 21
2720.851404401655
 31
0.0
  0
LINE
  5
1C2
102
{ACAD_REACTORS
330
1C0
102
}
330
2
100
AcDbEntity
  8
AM_5
100
AcDbLine
 10
553.7294880793324
 20
2740.169920927437
 30
0.0
 11
558.9058689813827
 21
2720.851404401655
 31
0.0
  0
LINE
  5
1C3
102
{ACAD_REACTORS
330
1C0
102
}
330
2
100
AcDbEntity
  8
AM_5
100
AcDbLine
 10
548.553107177282
 20
2720.851404401655
 30
0.0
 11
558.9058689813827
 21
2720.851404401655
 31
0.0
  0
MTEXT
  5
1C4
330
2
100
AcDbEntity
  8
AM_6
100
AcDbMText
 10
553.8584197642067
 20
2807.603762084011
 30
0.0
 40
17.5
 41
0.0
 71
     8
 72
     5
  1
N8
  7
スタイル１
 73
     1
 44
1.0
  0
LINE
  5
1C5
330
2
100
AcDbEntity
  8
内槽フランジ
100
AcDbLine
 10
1384.729488079329
 20
2697.202704726833
 30
0.0
 11
1384.729488079329
 21
1558.426798231231
 31
0.0
  0
LINE
  5
1C6
330
2
100
AcDbEntity
  8
内槽フランジ
100
AcDbLine
 10
1346.72948807933
 20
2650.732270397802
 30
0.0
 11
1346.729488079329
 21
1558.426798231231
 31
0.0
  0
LINE
  5
1C7
330
2
100
AcDbEntity
  8
内槽フランジ
100
AcDbLine
 10
1354.72948807933
 20
2649.783551244997
 30
0.0
 11
1354.729488079329
 21
1558.426798231231
 31
0.0
  0
LINE
  5
1C8
330
2
100
AcDbEntity
  8
内槽外板
100
AcDbLine
 10
1346.729488079328
 20
1559.352099418736
 30
0.0
 11
1346.729488079328
 21
2650.732270397802
 31
0.0
  0
LINE
  5
1C9
330
2
100
AcDbEntity
  8
AM_11
100
AcDbLine
 10
1483.729488079329
 20
1559.352099418737
 30
0.0
 11
1483.729488079329
 21
2753.828972363542
 31
0.0
  0
LINE
  5
1CA
330
2
100
AcDbEntity
  8
AM_11
100
AcDbLine
 10
1438.729488079328
 20
1559.352099418737
 30
0.0
 11
1438.729488079328
 21
2753.828972363542
 31
0.0
  0
LEADER
  5
1CB
330
2
100
AcDbEntity
  8
AM_5
100
AcDbLeader
  3
スタイル2
 73
     0
 75
     1
 40
20.60913705583756
 41
89.27664974619288
 76
     3
 10
1867.089701709575
 20
2225.03630955051
 30
0.0
 10
1718.950303917011
 20
2451.208141566855
 30
0.0
 10
1708.95030391701
 20
2451.208141566855
 30
0.0
340
1CC
1001
ACAD
1000
DSTYLE
1002
{
1070
   147
1040
5.0
1070
    77
1070
     1
1002
}
  0
MTEXT
  5
1CC
102
{ACAD_REACTORS
330
1CB
102
}
330
2
100
AcDbEntity
  8
AM_5
100
AcDbMText
 10
1703.95030391701
 20
2456.208141566855
 30
0.0
 40
17.5
 41
0.0
 71
     9
 72
     1
  1
Outer Vessel\POuter Wall
  7
スタイル１
 73
     1
 44
1.0
  0
LEADER
  5
1CD
330
2
100
AcDbEntity
  8
AM_5
100
AcDbLeader
  3
スタイル2
 76
     2
 10
1988.727071530697
 20
2251.597717592271
 30
0.0
 10
1768.107929500784
 20
2630.60757777221
 30
0.0
1001
ACAD
1000
DSTYLE
1002
{
1070
   147
1040
5.0
1070
    77
1070
     0
1002
}
  0
LEADER
  5
1CE
330
2
100
AcDbEntity
  8
AM_5
100
AcDbLeader
  3
スタイル2
 76
     2
 10
2017.84945233957
 20
2303.142602721621
 30
0.0
 10
1808.56254528854
 20
2714.799889368972
 30
0.0
1001
ACAD
1000
DSTYLE
1002
{
1070
   147
1040
5.0
1070
    77
1070
     0
1002
}
  0
ARC
  5
1CF
330
2
100
AcDbEntity
  8
AM_1
100
AcDbCircle
 10
1113.729488079336
 20
2354.51870440269
 30
0.0
 40
64.77
100
AcDbArc
 50
180.0
 51
239.9999999999997
  0
ARC
  5
1D0
330
2
100
AcDbEntity
  8
AM_7
100
AcDbCircle
 10
1113.729488079336
 20
2354.51870440269
 30
0.0
 40
60.0
100
AcDbArc
 50
180.0
 51
240.0000000000001
  0
ARC
  5
1D1
330
2
100
AcDbEntity
  8
AM_1
100
AcDbCircle
 10
1113.729488079336
 20
2354.51870440269
 30
0.0
 40
55.22999999999999
100
AcDbArc
 50
179.9999999999995
 51
240.0000000000002
  0
DIMENSION
  5
1D2
330
2
100
AcDbEntity
  8
AM_5
100
AcDbDimension
  2
*D31
 10
1028.959488079336
 20
2398.962626899667
 30
0.0
 11
1198.222909219457
 21
2323.54228363379
 31
0.0
 70
     2
 71
     5
 42
0.523598775598301
  3
スタイル2
100
AcDb2LineAngularDimension
 13
1083.729488079336
 23
2302.557180175624
 33
0.0
 14
1233.729488079336
 24
2215.954639797181
 34
0.0
 15
1078.499488079336
 25
2398.962626899667
 35
0.0
 16
1203.499278676619
 26
2294.594554420068
 36
0.0
  0
LINE
  5
1E0
330
2
100
AcDbEntity
  8
AM_5
 62
     2
100
AcDbLine
 10
1113.729488079336
 20
2189.352099418736
 30
0.0
 11
1595.250020224162
 21
2189.352099418737
 31
0.0
  0
LEADER
  5
1E1
330
2
100
AcDbEntity
  8
AM_5
100
AcDbLeader
  3
スタイル2
 76
     2
 10
1268.499488079336
 20
2073.084015306981
 30
0.0
 10
1504.096848875377
 20
2253.883994991886
 30
0.0
1001
ACAD
1000
DSTYLE
1002
{
1070
   147
1040
5.0
1070
    77
1070
     0
1002
}
  0
LINE
  5
1E2
330
2
100
AcDbEntity
  8
AM_7
100
AcDbLine
 10
1263.729488079336
 20
2163.993115570114
 30
0.0
 11
1263.729488079336
 21
1559.352099418737
 31
0.0
  0
LINE
  5
1E3
330
2
100
AcDbEntity
  8
AM_1
100
AcDbLine
 10
1268.499488079336
 20
2163.993115570114
 30
0.0
 11
1268.499488079336
 21
1559.352099418737
 31
0.0
  0
LINE
  5
1E4
330
2
100
AcDbEntity
  8
AM_1
100
AcDbLine
 10
1258.959488079335
 20
2163.993115570113
 30
0.0
 11
1258.959488079336
 21
1559.352099418737
 31
0.0
  0
LINE
  5
1E5
330
2
100
AcDbEntity
  8
AM_7
100
AcDbLine
 10
1143.729488079336
 20
2129.352099418736
 30
0.0
 11
1143.729488079336
 21
1559.352099418737
 31
0.0
  0
LINE
  5
1E6
330
2
100
AcDbEntity
  8
AM_1
100
AcDbLine
 10
1138.959488079336
 20
2129.352099418736
 30
0.0
 11
1138.959488079336
 21
1559.352099418737
 31
0.0
  0
LINE
  5
1E7
330
2
100
AcDbEntity
  8
AM_1
100
AcDbLine
 10
1148.499488079335
 20
2129.352099418736
 30
0.0
 11
1148.499488079335
 21
1559.352099418737
 31
0.0
  0
LINE
  5
1E8
330
2
100
AcDbEntity
  8
AM_1
100
AcDbLine
 10
1028.499488079336
 20
2129.352099418736
 30
0.0
 11
1028.499488079336
 21
1559.352099418737
 31
0.0
  0
LINE
  5
1E9
330
2
100
AcDbEntity
  8
AM_1
100
AcDbLine
 10
1018.959488079336
 20
2129.352099418736
 30
0.0
 11
1018.959488079336
 21
1559.352099418737
 31
0.0
  0
LINE
  5
1EA
330
2
100
AcDbEntity
  8
AM_7
100
AcDbLine
 10
1023.729488079336
 20
2129.352099418736
 30
0.0
 11
1023.729488079336
 21
1559.352099418737
 31
0.0
  0
DIMENSION
  5
1EB
330
2
100
AcDbEntity
  8
AM_5
100
AcDbDimension
  2
*D25
 10
1143.729488079336
 20
1831.406158959011
 30
0.0
 11
1083.729488079336
 21
1845.156158959011
 31
0.0
 71
     5
 42
120.0000000000001
  3
スタイル2
100
AcDbAlignedDimension
 13
1023.729488079336
 23
1831.406158959011
 33
0.0
 14
1143.729488079336
 24
1831.406158959011
 34
0.0
100
AcDbRotatedDimension
1001
ACAD
1000
DSTYLE
1002
{
1070
   279
1070
     1
1002
}
  0
DIMENSION
  5
1F6
330
2
100
AcDbEntity
  8
AM_5
100
AcDbDimension
  2
*D24
 10
1023.729488079336
 20
1831.406158959011
 30
0.0
 11
913.7294880793325
 21
1845.156158959011
 31
0.0
 71
     5
 42
220.0000000000071
  3
スタイル2
100
AcDbAlignedDimension
 13
803.7294880793288
 23
1831.406158959011
 33
0.0
 14
1023.729488079336
 24
1831.406158959011
 34
0.0
100
AcDbRotatedDimension
1001
ACAD
1000
DSTYLE
1002
{
1070
   279
1070
     1
1002
}
  0
DIMENSION
  5
201
330
2
100
AcDbEntity
  8
AM_5
100
AcDbDimension
  2
*D26
 10
1263.729488079336
 20
1831.406158959011
 30
0.0
 11
1203.729488079336
 21
1845.156158959011
 31
0.0
 71
     5
 42
120.0
  3
スタイル2
100
AcDbAlignedDimension
 13
1143.729488079336
 23
1831.406158959011
 33
0.0
 14
1263.729488079336
 24
1831.406158959011
 34
0.0
100
AcDbRotatedDimension
1001
ACAD
1000
DSTYLE
1002
{
1070
   279
1070
     1
1002
}
  0
DIMENSION
  5
20C
330
2
100
AcDbEntity
  8
AM_5
100
AcDbDimension
  2
*D20
 10
1083.729488079336
 20
2129.352099418739
 30
0.0
 11
1090.179749165359
 21
2145.124681306075
 31
0.0
 70
   132
 71
     5
 42
59.99999999999772
  3
スタイル2$4
100
AcDbRadialDimension
 15
1106.440947295465
 25
2184.887580151995
 35
0.0
 40
0.0
  0
ARC
  5
215
330
2
100
AcDbEntity
  8
AM_1
100
AcDbCircle
 10
1083.729488079336
 20
2129.352099418736
 30
0.0
 40
55.2299999999999
100
AcDbArc
 50
0.0
 51
180.0
  0
ARC
  5
216
330
2
100
AcDbEntity
  8
AM_1
100
AcDbCircle
 10
1083.729488079336
 20
2129.352099418736
 30
0.0
 40
64.76999999999998
100
AcDbArc
 50
0.0
 51
180.0
  0
ARC
  5
217
330
2
100
AcDbEntity
  8
AM_7
100
AcDbCircle
 10
1083.729488079336
 20
2129.352099418736
 30
0.0
 40
60.00000000000006
100
AcDbArc
 50
0.0
 51
180.0
  0
LINE
  5
218
330
2
100
AcDbEntity
  8
AM_7
100
AcDbLine
 10
1083.729488079336
 20
2302.557180175624
 30
0.0
 11
1233.729488079336
 21
2215.954639797181
 31
0.0
  0
LINE
  5
219
330
2
100
AcDbEntity
  8
AM_1
100
AcDbLine
 10
1081.344488079335
 20
2298.426238999573
 30
0.0
 11
1231.344488079335
 21
2211.823698621128
 31
0.0
  0
LINE
  5
21A
330
2
100
AcDbEntity
  8
AM_1
100
AcDbLine
 10
1086.114488079336
 20
2306.688121351676
 30
0.0
 11
1236.114488079336
 21
2220.085580973232
 31
0.0
  0
ARC
  5
21B
330
2
100
AcDbEntity
  8
AM_1
100
AcDbCircle
 10
1203.729488079335
 20
2163.993115570113
 30
0.0
 40
55.22999999999999
100
AcDbArc
 50
0.0
 51
59.99999999999988
  0
ARC
  5
21C
330
2
100
AcDbEntity
  8
AM_1
100
AcDbCircle
 10
1203.729488079336
 20
2163.993115570114
 30
0.0
 40
64.77
100
AcDbArc
 50
359.9999999999999
 51
60.00000000000021
  0
ARC
  5
21D
330
2
100
AcDbEntity
  8
AM_7
100
AcDbCircle
 10
1203.729488079336
 20
2163.993115570114
 30
0.0
 40
60.0
100
AcDbArc
 50
0.0
 51
60.0000000000001
  0
LINE
  5
21E
330
2
100
AcDbEntity
  8
内槽フランジ
100
AcDbLine
 10
1384.729488079329
 20
2129.618703736402
 30
0.0
 11
1384.729488079329
 21
2169.618703736401
 31
0.0
  0
LINE
  5
21F
330
2
100
AcDbEntity
  8
内槽フランジ
100
AcDbLine
 10
1354.729488079326
 20
2135.578872066008
 30
0.0
 11
1354.729488079326
 21
2107.578872066008
 31
0.0
  0
DIMENSION
  5
220
330
2
100
AcDbEntity
  8
AM_5
100
AcDbDimension
  2
*D27
 10
1600.250020224162
 20
1559.352099418737
 30
0.0
 11
1586.500020224162
 21
1874.352099418737
 31
0.0
 71
     5
 42
630.0
  3
スタイル2
100
AcDbAlignedDimension
 13
1928.576621769384
 23
2189.352099418737
 33
0.0
 14
1608.55772793057
 24
1559.352099418737
 34
0.0
 50
90.0
100
AcDbRotatedDimension
  0
LINE
  5
22D
330
2
100
AcDbEntity
  8
AM_7
100
AcDbLine
 10
1954.264024033322
 20
2175.478062949058
 30
0.0
 11
1913.224335338692
 21
2203.226135888415
 31
0.0
  0
ARC
  5
22E
330
2
100
AcDbEntity
  8
細線
100
AcDbCircle
 10
1933.744179686008
 20
2189.352099418736
 30
0.0
 40
4.770000000000095
100
AcDbArc
 50
326.0837736291198
 51
146.0837736291198
  0
LINE
  5
22F
330
2
100
AcDbEntity
  8
AM_7
100
AcDbLine
 10
1053.729488079336
 20
2499.118931352756
 30
0.0
 11
1053.729488079336
 21
2801.369549885299
 31
0.0
  0
LINE
  5
230
330
2
100
AcDbEntity
  8
内槽外板
100
AcDbLine
 10
1343.265386464192
 20
2657.732270397803
 30
0.0
 11
1058.499488079336
 21
2657.732270397803
 31
0.0
  0
LEADER
  5
231
330
2
100
AcDbEntity
  8
AM_5
100
AcDbLeader
  3
スタイル2
 76
     2
 10
1058.499488079336
 20
2434.656181445454
 30
0.0
 10
1130.025179577238
 20
2520.134574149901
 30
0.0
1001
ACAD
1000
DSTYLE
1002
{
1070
   147
1040
5.0
1070
    77
1070
     0
1002
}
  0
DIMENSION
  5
232
330
2
100
AcDbEntity
  8
AM_5
100
AcDbDimension
  2
*D28
 10
1113.729488079336
 20
2354.518704402692
 30
0.0
 11
1109.223526524306
 21
2351.445600209845
 31
0.0
 70
   132
 71
     5
 42
60.0
  3
スタイル2$4
100
AcDbRadialDimension
 15
1064.160239469436
 25
2320.712054283966
 35
0.0
 40
0.0
  0
LINE
  5
23B
330
2
100
AcDbEntity
  8
AM_7
100
AcDbLine
 10
1078.499488079336
 20
2398.962626899667
 30
0.0
 11
1028.959488079336
 21
2398.962626899667
 31
0.0
  0
LINE
  5
23C
330
2
100
AcDbEntity
  8
AM_0
100
AcDbLine
 10
1040.129488079337
 20
2564.654803446203
 30
0.0
 11
1040.129488079337
 21
2496.101799178494
 31
0.0
  0
LINE
  5
23D
330
2
100
AcDbEntity
  8
AM_0
100
AcDbLine
 10
1067.329488079334
 20
2564.654803446203
 30
0.0
 11
1067.329488079334
 21
2496.101799178494
 31
0.0
  0
MTEXT
  5
23E
330
2
100
AcDbEntity
  8
AM_6
100
AcDbMText
 10
1022.376379247024
 20
2529.700135722936
 30
0.0
 40
17.5
 41
0.0
 71
     8
 72
     5
  1
N7
  7
スタイル１
 73
     1
 44
1.0
  0
LINE
  5
23F
330
2
100
AcDbEntity
  8
AM_1
100
AcDbLine
 10
1058.499488079336
 20
2434.656181445454
 30
0.0
 11
1058.499488079335
 21
2354.518704402691
 31
0.0
  0
LINE
  5
240
330
2
100
AcDbEntity
  8
AM_1
100
AcDbLine
 10
1048.959488079336
 20
2434.656181445454
 30
0.0
 11
1048.959488079336
 21
2354.51870440269
 31
0.0
  0
LINE
  5
241
330
2
100
AcDbEntity
  8
AM_7
100
AcDbLine
 10
1053.729488079336
 20
2524.118931352757
 30
0.0
 11
1053.729488079336
 21
2354.51870440269
 31
0.0
  0
ARC
  5
242
330
2
100
AcDbEntity
  8
細線
100
AcDbCircle
 10
1053.729488079335
 20
2398.962626899667
 30
0.0
 40
4.770000000000095
100
AcDbArc
 50
0.0
 51
180.0
  0
LINE
  5
243
330
2
100
AcDbEntity
  8
AM_0
100
AcDbLine
 10
1058.499488079336
 20
2485.049155695786
 30
0.0
 11
1058.499488079336
 21
2434.656181445454
 31
0.0
  0
LINE
  5
244
330
2
100
AcDbEntity
  8
AM_0
100
AcDbLine
 10
1048.959488079336
 20
2485.049155695786
 30
0.0
 11
1048.959488079336
 21
2434.656181445454
 31
0.0
  0
LINE
  5
245
330
2
100
AcDbEntity
  8
AM_0
100
AcDbLine
 10
1058.499488079336
 20
2434.656181445454
 30
0.0
 11
1048.959488079336
 21
2434.656181445454
 31
0.0
  0
LINE
  5
246
330
2
100
AcDbEntity
  8
AM_1
100
AcDbLine
 10
1048.959488079336
 20
2434.656181445454
 30
0.0
 11
1048.959488079336
 21
2428.213250296066
 31
0.0
  0
LINE
  5
247
330
2
100
AcDbEntity
  8
AM_1
100
AcDbLine
 10
1058.499488079336
 20
2434.656181445454
 30
0.0
 11
1058.499488079336
 21
2428.213250296064
 31
0.0
  0
ELLIPSE
  5
248
330
2
100
AcDbEntity
  8
AM_0
100
AcDbEllipse
 10
1053.729488079336
 20
2496.101799178494
 30
0.0
 11
13.59999999999854
 21
0.0
 31
0.0
210
0.0
220
0.0
230
1.0
 40
0.8126943737285781
 41
3.141592653589793
 42
6.283185307179586
  0
LINE
  5
249
330
2
100
AcDbEntity
  8
AM_0
100
AcDbLine
 10
1058.499488079336
 20
2674.656181445454
 30
0.0
 11
1058.499488079336
 21
2576.654803446203
 31
0.0
  0
LINE
  5
24A
330
2
100
AcDbEntity
  8
AM_0
100
AcDbLine
 10
1048.959488079335
 20
2674.656181445454
 30
0.0
 11
1048.959488079335
 21
2576.654803446203
 31
0.0
  0
LINE
  5
24B
330
2
100
AcDbEntity
  8
AM_0
100
AcDbLine
 10
1047.459488079335
 20
2576.654803446203
 30
0.0
 11
1059.999488079336
 21
2576.654803446203
 31
0.0
  0
LINE
  5
24C
330
2
100
AcDbEntity
  8
AM_0
100
AcDbLine
 10
1040.129488079337
 20
2574.654803446205
 30
0.0
 11
1047.459488079335
 21
2574.654803446205
 31
0.0
  0
LINE
  5
24D
330
2
100
AcDbEntity
  8
AM_0
100
AcDbLine
 10
1040.129488079337
 20
2574.654803446205
 30
0.0
 11
1040.129488079337
 21
2564.654803446203
 31
0.0
  0
LINE
  5
24E
330
2
100
AcDbEntity
  8
AM_0
100
AcDbLine
 10
1047.459488079335
 20
2574.654803446205
 30
0.0
 11
1047.459488079335
 21
2576.654803446203
 31
0.0
  0
LINE
  5
24F
330
2
100
AcDbEntity
  8
AM_0
100
AcDbLine
 10
1067.329488079334
 20
2574.654803446205
 30
0.0
 11
1067.329488079334
 21
2564.654803446203
 31
0.0
  0
LINE
  5
250
330
2
100
AcDbEntity
  8
AM_0
100
AcDbLine
 10
1067.329488079334
 20
2574.654803446205
 30
0.0
 11
1059.999488079336
 21
2574.654803446205
 31
0.0
  0
LINE
  5
251
330
2
100
AcDbEntity
  8
AM_0
100
AcDbLine
 10
1059.999488079336
 20
2574.654803446205
 30
0.0
 11
1059.999488079336
 21
2576.654803446203
 31
0.0
  0
LINE
  5
252
330
2
100
AcDbEntity
  8
AM_0
100
AcDbLine
 10
1048.959488079335
 20
2674.656181445454
 30
0.0
 11
1058.499488079336
 21
2674.656181445454
 31
0.0
  0
HATCH
  5
253
330
2
100
AcDbEntity
  8
AM_5
100
AcDbHatch
 10
0.0
 20
0.0
 30
0.0
210
0.0
220
0.0
230
1.0
  2
SOLID
 70
     1
 71
     1
 91
        1
 92
        1
 93
        3
 72
     1
 10
1048.553107177285
 20
2740.169920927438
 11
1058.905868981386
 21
2740.169920927438
 72
     1
 10
1058.905868981386
 20
2740.169920927438
 11
1053.729488079336
 21
2720.851404401656
 72
     1
 10
1053.729488079336
 20
2720.851404401656
 11
1048.553107177285
 21
2740.169920927438
 97
        3
330
256
330
255
330
254
 75
     0
 76
     1
 98
        1
 10
23.10927140329295
 20
120.1000092060608
  0
LINE
  5
254
102
{ACAD_REACTORS
330
253
102
}
330
2
100
AcDbEntity
  8
AM_5
100
AcDbLine
 10
1053.729488079336
 20
2720.851404401656
 30
0.0
 11
1048.553107177285
 21
2740.169920927438
 31
0.0
  0
LINE
  5
255
102
{ACAD_REACTORS
330
253
102
}
330
2
100
AcDbEntity
  8
AM_5
100
AcDbLine
 10
1053.729488079336
 20
2720.851404401656
 30
0.0
 11
1058.905868981386
 21
2740.169920927438
 31
0.0
  0
LINE
  5
256
102
{ACAD_REACTORS
330
253
102
}
330
2
100
AcDbEntity
  8
AM_5
100
AcDbLine
 10
1048.553107177285
 20
2740.169920927438
 30
0.0
 11
1058.905868981386
 21
2740.169920927438
 31
0.0
  0
LINE
  5
257
330
2
100
AcDbEntity
  8
AM_5
 62
     2
100
AcDbLine
 10
1130.025179577238
 20
2520.134574149901
 30
0.0
 11
1200.11267957724
 21
2520.134574149901
 31
0.0
  0
CIRCLE
  5
258
330
2
100
AcDbEntity
  8
AM_5
 62
     2
100
AcDbCircle
 10
1130.025179577238
 20
2520.134574149901
 30
0.0
 40
5.0
  0
LINE
  5
259
330
2
100
AcDbEntity
  8
内槽フランジ
100
AcDbLine
 10
1354.729488079328
 20
2657.732270397803
 30
0.0
 11
1350.193589694467
 21
2657.732270397803
 31
0.0
  0
LINE
  5
25A
330
2
100
AcDbEntity
  8
内槽フランジ
100
AcDbLine
 10
1346.72948807933
 20
2650.732270397802
 30
0.0
 11
1346.72948807933
 21
2651.732270397802
 31
0.0
  0
LINE
  5
25B
330
2
100
AcDbEntity
  8
内槽外板
100
AcDbLine
 10
1346.729488079328
 20
2651.732270397802
 30
0.0
 11
1346.729488079328
 21
2650.732270397802
 31
0.0
  0
LINE
  5
25C
330
2
100
AcDbEntity
  8
内槽外板
100
AcDbLine
 10
1346.729488079328
 20
2650.732270397802
 30
0.0
 11
1346.729488079328
 21
2651.732270397802
 31
0.0
  0
LINE
  5
25D
330
2
100
AcDbEntity
  8
内槽フランジ
100
AcDbLine
 10
1346.72948807933
 20
2651.732270397802
 30
0.0
 11
1350.193589694467
 21
2657.732270397803
 31
0.0
  0
LINE
  5
25E
330
2
100
AcDbEntity
  8
内槽外板
100
AcDbLine
 10
1343.265386464192
 20
2657.732270397803
 30
0.0
 11
1346.729488079328
 21
2651.732270397802
 31
0.0
  0
LINE
  5
25F
330
2
100
AcDbEntity
  8
内槽フランジ
100
AcDbLine
 10
1384.729488079329
 20
2697.202704726833
 30
0.0
 11
1354.729488079329
 21
2697.202704726833
 31
0.0
  0
LINE
  5
260
330
2
100
AcDbEntity
  8
内槽フランジ
100
AcDbLine
 10
1354.729488079329
 20
2697.202704726833
 30
0.0
 11
1354.72948807933
 21
2649.783551244997
 31
0.0
  0
DIMENSION
  5
261
330
2
100
AcDbEntity
  8
AM_5
100
AcDbDimension
  2
*D3
 10
1053.729488079336
 20
2779.311574239208
 30
0.0
 11
928.7294880793323
 21
2793.061574239208
 31
0.0
 71
     5
 42
250.0000000000072
  3
スタイル2
100
AcDbAlignedDimension
 13
803.7294880793288
 23
2775.031922731157
 33
0.0
 14
1053.729488079336
 24
2779.311574239208
 34
0.0
100
AcDbRotatedDimension
1001
ACAD
1000
DSTYLE
1002
{
1070
   279
1070
     1
1002
}
  0
MTEXT
  5
26D
330
2
100
AcDbEntity
  8
AM_6
100
AcDbMText
 10
1053.85841976421
 20
2807.603762084011
 30
0.0
 40
17.5
 41
0.0
 71
     8
 72
     5
  1
N7
  7
スタイル１
 73
     1
 44
1.0
  0
MTEXT
  5
26E
330
2
100
AcDbEntity
  8
AM_5
 62
     2
100
AcDbMText
 10
1791.236282731408
 20
2742.517615954113
 30
0.0
 40
35.0
 41
0.0
 71
     5
 72
     1
  1
1
  7
スタイル１
 73
     1
 44
1.0
  0
CIRCLE
  5
26F
330
2
100
AcDbEntity
  8
AM_5
 62
     2
100
AcDbCircle
 10
1794.966711982148
 20
2741.542239989379
 30
0.0
 40
30.0
  0
MTEXT
  5
270
330
2
100
AcDbEntity
  8
AM_5
100
AcDbMText
 10
1762.224279954164
 20
2605.038055203454
 30
0.0
 40
17.5
 41
0.0
 71
     9
 72
     1
  1
20-100
  7
スタイル１
 73
     1
 44
1.0
  0
LINE
  5
271
330
2
100
AcDbEntity
  8
AM_5
 62
     2
100
AcDbLine
 10
1616.020429500784
 20
2630.60757777221
 30
0.0
 11
1768.107929500784
 21
2630.60757777221
 31
0.0
  0
MTEXT
  5
272
330
2
100
AcDbEntity
  8
AM_5
100
AcDbMText
 10
1601.374377056226
 20
2621.624787564325
 30
0.0
 40
17.5
 41
0.0
 71
     9
 72
     1
  1
Weld\P20mm/100mm
  7
スタイル１
 73
     1
 44
1.0
  0
LINE
  5
273
330
2
100
AcDbEntity
  8
AM_11
100
AcDbLine
 10
1438.729488079328
 20
2753.828972363542
 30
0.0
 11
1483.729488079329
 21
2753.828972363542
 31
0.0
  0
LINE
  5
274
330
2
100
AcDbEntity
  8
AM_11
100
AcDbLine
 10
1438.729488079328
 20
2745.828972363543
 30
0.0
 11
1438.729488079328
 21
2745.828972363543
 31
0.0
  0
LINE
  5
275
330
2
100
AcDbEntity
  8
AM_11
100
AcDbLine
 10
1433.729488079328
 20
2745.828972363543
 30
0.0
 11
1438.729488079328
 21
2745.828972363543
 31
0.0
  0
LINE
  5
276
330
2
100
AcDbEntity
  8
AM_5
 62
     2
100
AcDbLine
 10
1616.020429500784
 20
2630.60757777221
 30
0.0
 11
1598.34275997112
 21
2648.285247301874
 31
-0.000000000000003
  0
ARC
  5
277
330
2
100
AcDbEntity
  8
AM_5
 62
     2
100
AcDbCircle
 10
1649.064179500784
 20
2630.60757777221
 30
0.0
 40
20.0
100
AcDbArc
 50
90.0
 51
270.0
  0
LINE
  5
278
330
2
100
AcDbEntity
  8
AM_5
 62
     2
100
AcDbLine
 10
1616.020429500784
 20
2630.60757777221
 30
0.0
 11
1598.34275997112
 21
2612.929908242547
 31
-0.000000000000003
  0
MTEXT
  5
279
330
2
100
AcDbEntity
  8
AM_5
100
AcDbMText
 10
1688.90314300348
 20
2225.551698068493
 30
0.000000000000003
 40
17.5
 41
0.0
 71
     7
 72
     1
  1
Weld\P20mm/100mm
  7
スタイル１
 73
     1
 44
1.0
  0
LINE
  5
27A
330
2
100
AcDbEntity
  8
AM_5
 62
     2
100
AcDbLine
 10
1504.096848875377
 20
2253.883994991886
 30
0.000000000000003
 11
1656.184348875377
 21
2253.883994991886
 31
0.000000000000003
  0
ARC
  5
27B
330
2
100
AcDbEntity
  8
AM_5
 62
     2
100
AcDbCircle
 10
1537.140598875377
 20
2253.883994991886
 30
0.000000000000003
 40
20.0
100
AcDbArc
 50
90.0
 51
270.0
  0
MTEXT
  5
27C
330
2
100
AcDbEntity
  8
AM_5
100
AcDbMText
 10
1650.300699328758
 20
2228.31447242313
 30
0.000000000000003
 40
17.5
 41
0.0
 71
     9
 72
     1
  1
20-100
  7
スタイル１
 73
     1
 44
1.0
  0
CIRCLE
  5
27D
330
2
100
AcDbEntity
  8
AM_5
 62
     2
100
AcDbCircle
 10
3540.775138563436
 20
1416.006639401202
 30
0.0
 40
5.0
  0
LINE
  5
27E
330
2
100
AcDbEntity
  8
A1枠
100
AcDbLine
 10
4000.0
 20
67.49999999999943
 30
0.0
 11
4000.0
 21
2832.499999999999
 31
0.0
  0
ARC
  5
27F
330
2
100
AcDbEntity
  8
外槽内板
100
AcDbCircle
 10
2865.52073707517
 20
1559.352099418741
 30
0.0
 40
550.4999999999999
100
AcDbArc
 50
120.2571881979852
 51
239.7428118020147
  0
ARC
  5
281
330
2
100
AcDbEntity
  8
外槽内板
100
AcDbCircle
 10
2865.52073707517
 20
1559.352099418741
 30
0.0
 40
550.0
100
AcDbArc
 50
120.2571881979852
 51
239.7428118020147
  0
DIMENSION
  5
282
330
2
100
AcDbEntity
  8
AM_5
100
AcDbDimension
  2
*D8
 10
3220.163931213432
 20
1669.832729381043
 30
0.0
 11
3206.413931213431
 21
1419.832729381043
 31
0.0
 71
     5
 42
99.99999999999984
  3
スタイル2
100
AcDbAlignedDimension
 13
3352.341620348855
 23
1169.832729381043
 33
0.0
 14
3352.341620348855
 24
1669.832729381043
 34
0.0
 50
90.0
100
AcDbRotatedDimension
1001
ACAD
1000
DSTYLE
1002
{
1070
   144
1040
0.2
1002
}
  0
LINE
  5
28F
330
2
100
AcDbEntity
  8
AM_0
100
AcDbLine
 10
3444.191620348855
 20
2169.839619377288
 30
0.0
 11
3444.191620348855
 21
969.249715217813
 31
0.0
  0
LINE
  5
290
330
2
100
AcDbEntity
  8
AM_0
100
AcDbLine
 10
3488.341620348855
 20
1619.832729381043
 30
0.0
 11
3488.341620348855
 21
1268.519674709822
 31
0.0
  0
LINE
  5
291
330
2
100
AcDbEntity
  8
AM_0
100
AcDbLine
 10
3396.491620348855
 20
2169.839619377288
 30
0.0
 11
3396.491620348855
 21
969.8396193772692
 31
0.0
  0
LINE
  5
292
330
2
100
AcDbEntity
  8
AM_0
100
AcDbLine
 10
3360.591620348856
 20
1619.832729381043
 30
0.0
 11
3360.591620348856
 21
1175.987545537506
 31
0.0
  0
LINE
  5
293
330
2
100
AcDbEntity
  8
AM_0
100
AcDbLine
 10
3352.341620348855
 20
1619.832729381043
 30
0.0
 11
3352.341620348855
 21
1169.832729381044
 31
0.0
  0
LINE
  5
294
330
2
100
AcDbEntity
  8
AM_0
100
AcDbLine
 10
3401.491620348855
 20
2169.839619377288
 30
0.0
 11
3401.491620348855
 21
969.777784559716
 31
0.0
  0
LINE
  5
295
330
2
100
AcDbEntity
  8
AM_0
100
AcDbLine
 10
3439.191620348855
 20
2169.839619377288
 30
0.0
 11
3439.191620348855
 21
969.3115500353661
 31
0.0
  0
LINE
  5
296
330
2
100
AcDbEntity
  8
AM_0
100
AcDbLine
 10
3480.091620348854
 20
1619.832729381043
 30
0.0
 11
3480.091620348856
 21
1262.698443856967
 31
0.0
  0
DIMENSION
  5
297
330
2
100
AcDbEntity
  8
AM_5
100
AcDbDimension
  2
*D18
 10
2865.520737075182
 20
1559.352099418734
 30
0.0
 11
2514.593009957593
 21
1372.778725613845
 31
0.0
 70
   132
 71
     5
 42
549.9999999999995
  3
スタイル2$4
100
AcDbRadialDimension
 15
2379.889116398804
 25
1301.162384288108
 35
0.0
 40
0.0
  0
ARC
  5
2A0
330
2
100
AcDbEntity
  8
内槽内板
100
AcDbCircle
 10
2865.52073707517
 20
1559.352099418736
 30
0.0
 40
616.0
100
AcDbArc
 50
110.8285868877391
 51
249.173723302028
  0
ARC
  5
2A2
330
2
100
AcDbEntity
  8
内槽内板
100
AcDbCircle
 10
2865.52073707517
 20
1559.352099418736
 30
0.0
 40
623.0
100
AcDbArc
 50
110.5838709934626
 51
249.4161290065373
  0
DIMENSION
  5
2A3
330
2
100
AcDbEntity
  8
AM_5
100
AcDbDimension
  2
*D19
 10
2865.520737075161
 20
1559.352099418745
 30
0.0
 11
2555.695625566774
 21
1312.510603094781
 31
0.0
 70
   132
 71
     5
 42
616.0000000000004
  3
スタイル2$4
100
AcDbRadialDimension
 15
2383.733865962683
 25
1175.506543467332
 35
0.0
 40
0.0
  0
DIMENSION
  5
2AC
330
2
100
AcDbEntity
  8
AM_5
100
AcDbDimension
  2
*D17
 10
3150.921370749212
 20
969.8396193772579
 30
0.0
 11
3137.171370749213
 21
1569.839619377273
 31
0.0
 71
     5
 42
240.000000000006
  3
スタイル2
100
AcDbAlignedDimension
 13
3396.491620348855
 23
2169.839619377288
 33
0.0
 14
3396.491620348855
 24
969.8396193772579
 34
0.0
 50
90.0
100
AcDbRotatedDimension
1001
ACAD
1000
DSTYLE
1002
{
1070
   144
1040
0.2
1002
}
  0
LINE
  5
2B9
330
2
100
AcDbEntity
  8
AM_7
100
AcDbLine
 10
2865.520737075171
 20
2798.63857886149
 30
0.0
 11
2865.52073707517
 21
234.3520994187374
 31
0.0
  0
LINE
  5
2BA
330
2
100
AcDbEntity
  8
AM_7
100
AcDbLine
 10
3420.341620348855
 20
2299.964593965619
 30
0.0
 11
3420.341620348855
 21
799.896478911302
 31
0.0
1001
GENIUS_GENOBJ-N-CEN_13
1002
{
1000
OWNER
1000
GEN
1002
}
1001
GENIUS_GENODEF_13
1002
{
1000
HIER
1070
     0
1002
}
1002
{
1000
MANEDIT
1070
     0
1002
}
1002
{
1000
NOSEL
1070
     0
1002
}
1002
{
1000
BEHIND
1070
     0
1002
}
1002
{
1000
OTHER
1070
     0
1002
}
1002
{
1000
REACTOR
1002
}
  0
LINE
  5
2BD
330
2
100
AcDbEntity
  8
AM_5
 62
     2
100
AcDbLine
 10
3585.068888563435
 20
1416.006639401202
 30
0.0
 11
3560.068888563435
 21
1391.006639401203
 31
0.000000000000003
  0
LINE
  5
2BE
330
2
100
AcDbEntity
  8
AM_5
 62
     2
100
AcDbLine
 10
3560.068888563435
 20
1391.006639401203
 30
0.000000000000003
 11
3560.068888563435
 21
1416.006639401202
 31
0.0
  0
ARC
  5
2BF
330
2
100
AcDbEntity
  8
細線
100
AcDbCircle
 10
6920.341620348856
 20
-3604.156797209897
 30
0.0
 40
6000.0
100
AcDbArc
 50
126.4888731691173
 51
127.6643355187601
  0
ARC
  5
2C0
330
2
100
AcDbEntity
  8
細線
100
AcDbCircle
 10
6920.341620348856
 20
-3604.156797209897
 30
0.0
 40
5960.0
100
AcDbArc
 50
126.2457622547304
 51
127.6586590374133
  0
MTEXT
  5
2C1
330
2
100
AcDbEntity
  8
A1枠
 62
     3
100
AcDbMText
 10
3328.500000000004
 20
215.0
 30
0.0
 40
12.5
 41
200.0
 71
     5
 72
     5
  1
Name
  7
表題
 73
     1
 44
1.0
  0
MTEXT
  5
2C2
330
2
100
AcDbEntity
  8
A1枠
 62
     3
100
AcDbMText
 10
3317.499999999999
 20
190.0
 30
0.0
 40
12.5
 41
155.0
 71
     5
 72
     5
  1
Judge
  7
表題
 73
     1
 44
1.0
  0
ATTDEF
  5
2C3
330
2
100
AcDbEntity
  8
A1枠
100
AcDbText
 10
3236.878163375928
 20
232.5
 30
0.0
 40
15.0
  1

  7
表題
 11
3236.878163375928
 21
240.0
 31
0.0
100
AcDbAttributeDefinition
  3
部品名称
  2
COOLING_COIL
 70
     0
 74
     2
  0
LWPOLYLINE
  5
2C4
330
2
100
AcDbEntity
  8
A1枠
100
AcDbPolyline
 90
        4
 70
     1
 43
0.0
 10
3228.499997188533
 20
227.4999999999999
 10
3428.499997188533
 20
227.4999999999999
 10
3428.499997188533
 20
252.4999999999999
 10
3228.499997188533
 20
252.4999999999999
  0
MTEXT
  5
2C5
330
2
100
AcDbEntity
  8
A1枠
 62
     3
100
AcDbMText
 10
3199.803112731961
 20
94.99999999999943
 30
0.0
 40
17.5
 41
0.0
 71
     4
 72
     5
  1
大陽東洋酸素株式会社
  7
大陽東洋酸素
 73
     1
 44
1.0
  0
LINE
  5
2C7
330
2
100
AcDbEntity
  8
AM_6
100
AcDbLine
 10
3206.439085939211
 20
713.8226012694863
 30
0.0
 11
3634.190508188132
 21
713.8226012694863
 31
0.0
  0
MTEXT
  5
2C8
330
2
100
AcDbEntity
  8
AM_6
100
AcDbMText
 10
3415.855618223857
 20
716.8496179051128
 30
0.0
 40
22.5
 41
0.0
 71
     8
 72
     5
  1
N-7,8 (LN{\H0.6x;2}Nozzle) S=1/1
  7
スタイル１
 73
     1
 44
1.0
  0
LINE
  5
2C9
330
2
100
AcDbEntity
  8
A1枠
100
AcDbLine
 10
3178.500000000003
 20
67.5
 30
0.0
 11
4000.0
 21
67.49999999999943
 31
0.0
  0
LINE
  5
2CA
330
2
100
AcDbEntity
  8
A1枠
100
AcDbLine
 10
3178.500000000003
 20
202.4999999999999
 30
0.0
 11
4000.0
 21
202.4999999999994
 31
0.0
  0
LINE
  5
2CB
330
2
100
AcDbEntity
  8
A1枠
100
AcDbLine
 10
4000.0
 20
177.4999999999994
 30
0.0
 11
3178.500000000003
 21
177.5
 31
0.0
  0
LINE
  5
2CC
330
2
100
AcDbEntity
  8
A1枠
100
AcDbLine
 10
3178.500000000003
 20
122.5
 30
0.0
 11
4000.0
 21
122.4999999999994
 31
0.0
  0
LINE
  5
2CD
330
2
100
AcDbEntity
  8
A1枠
100
AcDbLine
 10
3178.500000000003
 20
227.4999999999999
 30
0.0
 11
4000.0
 21
227.4999999999994
 31
0.0
  0
LINE
  5
2CE
330
2
100
AcDbEntity
  8
A1枠
100
AcDbLine
 10
3178.499997188533
 20
227.4999999999999
 30
0.0
 11
3998.499997188533
 21
227.4999999999999
 31
0.0
  0
LINE
  5
2CF
330
2
100
AcDbEntity
  8
細線
100
AcDbLine
 10
2263.020737075167
 20
600.6692790866077
 30
0.0
 11
2263.02073707517
 21
372.3520994187424
 31
0.0
  0
LINE
  5
2D0
330
2
100
AcDbEntity
  8
細線
100
AcDbLine
 10
2168.020737075168
 20
372.3520994187424
 30
0.0
 11
2168.020737075167
 21
600.6692790866077
 31
0.0
  0
LINE
  5
2D1
330
2
100
AcDbEntity
  8
細線
100
AcDbLine
 10
2143.92073707517
 20
372.3520994187423
 30
0.0
 11
2143.92073707517
 21
600.55418536177
 31
0.0
  0
LINE
  5
2D2
330
2
100
AcDbEntity
  8
細線
100
AcDbLine
 10
2132.920737075169
 20
598.8515840623117
 30
0.0
 11
2132.920737075169
 21
372.3520994187424
 31
0.0
  0
LINE
  5
2D3
330
2
100
AcDbEntity
  8
細線
100
AcDbLine
 10
2273.020737075169
 20
372.3520994187424
 30
0.0
 11
2273.020737075166
 21
600.6692790866077
 31
0.0
  0
LINE
  5
2D4
330
2
100
AcDbEntity
  8
細線
100
AcDbLine
 10
2158.02073707517
 20
600.6692790866077
 30
0.0
 11
2158.02073707517
 21
372.3520994187424
 31
0.0
  0
REGION
  5
2D5
330
2
100
AcDbEntity
  8
外槽側板
100
AcDbModelerGeometry
 70
     1
  1
koo ln n o          
  1
h J1410(1 nl ^ \VL kqoqm QK mk R01 R>- nh nfenfenk mool 
  1
rn fqfffffffffffffffj:rooh n:rono 
  1
=0;& {rn {n {rn {rn |
  1
3*2/ {rn {rn {m {o |
  1
,7:33 {rn {rn {rn {l {rn {n |
  1
9><: {rn {rn {k {m {rn {j 90-(>-; ;0*=3: 0*+ |
  1
300/ {rn {rn {i {l |
  1
/3>1:r,*-9><: {rn mhjlqhlmmhfnklhhhg ijoqjigiloinigolnj o o o n n nqijfhifhgikhkmmfn:ronl o -:):-,:@) V V V V |
  1
<0:;8: {rn {h {g {rn {f 90-(>-; {k {rn |
  1
<0:;8: {rn {no {i {rn {nn 90-(>-; {k {rn |
  1
<0:;8: {rn {i {nm {rn {nl 90-(>-; {k {rn |
  1
:;8: {rn {nk {nj {i {ni 90-(>-; |
  1
<0:;8: {rn {nm {h {rn {nh -:):-,:; {k {rn |
  1
:;8: {rn {nj {ng {h {nf 90-(>-; |
  1
<0:;8: {rn {g {no {rn {mo -:):-,:; {k {rn |
  1
:;8: {rn {mn {nk {g {mm 90-(>-; |
  1
):-+:' {rn {f {ml |
  1
):-+:' {rn {f {mk |
  1
,+->687+r<*-): {rn mhijqjmohlhohjliij lhmqfnmkihjhgfmlfj o rnqijfhifhgikhkmmfn:ronl n o V V |
  1
:;8: {rn {mj {ng {no {mi 90-(>-; |
  1
):-+:' {rn {nn {mh |
  1
:336/,:r<*-): {rn mgijqjmohlhohjnigm njjfqljmoffkngihll o o o rn jjo fqnmghllgmjiogmjfh:ronn o n V V |
  1
:;8: {rn {mn {mj {nm {mg 90-(>-; |
  1
):-+:' {rn {mo {mf |
  1
,+->687+r<*-): {rn mhjoqjmohlhohjlikh lhmqfnmkihjhgfmmnl o n nqijfhifhgikhkmmfn:ronl o V V |
  1
/061+ {rn mhijqjmohlhohjliij lhmqfnmkihjhgfmlfj o |
  1
/061+ {rn mhijqjmohlhohjmjfn nongqjnfkogoffojgm o |
  1
):-+:' {rn {nh {lo |
  1
,+->687+r<*-): {rn mhkjqjmohlhohjliij lhlqkohhkffijkknhg o rnqijfhifhgikhkmmfn:ronl n o V V |
  1
/061+ {rn mhkjqjmohlhohjmjfn nommqiomimlkojgiig o |
  1
:336/,:r<*-): {rn mgijqjmohlhohjnigm njjfqljmoffkngihll o o o rn nnfm nqfhgkkjjgjkhhmgn:rono o n V V |
  1
/061+ {rn mhjoqjmohlhohjlikh lhmqfnmkihjhgfmnmm o |
  1
/061+ {rn mhkjqjmohlhohjliij lhlqkohhkffijkknhg o |
  0
REGION
  5
2D7
330
2
100
AcDbEntity
  8
内槽側板
100
AcDbModelerGeometry
 70
     1
  1
koo li n o          
  1
h J1410(1 nl ^ \VL kqoqm QK mk R01 R>- nh nfenfenk mool 
  1
rn fqfffffffffffffffj:rooh n:rono 
  1
=0;& {rn {n {rn {rn |
  1
3*2/ {rn {rn {m {o |
  1
,7:33 {rn {rn {rn {l {rn {n |
  1
9><: {rn {rn {k {m {rn {j -:):-,:; ;0*=3: 0*+ |
  1
300/ {rn {rn {i {l |
  1
/3>1:r,*-9><: {rn miknqghjnfihinflgh hmkqommlkfnkooilk o o o rn rn iqogilgjiononhnmm:roni o -:):-,:@) V V V V |
  1
<0:;8: {rn {h {g {rn {f -:):-,:; {k {rn |
  1
<0:;8: {rn {no {i {rn {nn -:):-,:; {k {rn |
  1
<0:;8: {rn {i {nm {rn {nl 90-(>-; {k {rn |
  1
:;8: {rn {nk {nj {i {ni 90-(>-; |
  1
<0:;8: {rn {nh {h {rn {ng -:):-,:; {k {rn |
  1
:;8: {rn {nf {nk {h {mo 90-(>-; |
  1
<0:;8: {rn {g {nh {rn {mn 90-(>-; {k {rn |
  1
:;8: {rn {mm {nj {g {ml 90-(>-; |
  1
):-+:' {rn {f {mk |
  1
):-+:' {rn {f {mj |
  1
,+->687+r<*-): {rn mimfqjmnoogkhklnjl khnqiiokkgmnkohkmm o riqiloolhmlgmlkkjml:rooj oqffffffffhgomnlomm o V V |
  1
<0:;8: {rn {nm {no {rn {mi 90-(>-; {k {rn |
  1
:;8: {rn {mh {nf {no {mg 90-(>-; |
  1
):-+:' {rn {ng {mf |
  1
:336/,:r<*-): {rn mgijqjmohlhohjnh njjfqljmoffknghlin o o o rn nnnl riqhhknkhnhlflmojhl:ronl o n V V |
  1
:;8: {rn {lo {mm {nm {ln 90-(>-; |
  1
):-+:' {rn {nl {lm |
  1
:336/,:r<*-): {rn mgijqjmohlhohjnh njjfqljmoffknghlin o o o rn iml rlqhfngngmmfklliihm:ronl o n V V |
  1
/061+ {rn mimfqjmnoogkhklnjl khnqiiokkgmnkohkmm o |
  1
/061+ {rn mimfqkghnmooogohfl fgmqhfjgloniiljmjm o |
  1
:;8: {rn {mh {lo {nh {ll 90-(>-; |
  1
):-+:' {rn {mi {lk |
  1
,+->687+r<*-): {rn mijlqjmohlhohjnigm kigqnnoiokioijnfmj o rn iqjjhmjkjgmfjfgigh:ronk o V V |
  1
/061+ {rn mikiqjmohlhohjnigm kigqnnoiokioijnfmj o |
  1
):-+:' {rn {mn {lj |
  1
,+->687+r<*-): {rn mijlqkghjimmikflfm fhiqnmjlmihhnkijn o rn iqogilgjiononhnmm:roni o V V |
  1
/061+ {rn mikiqkghjimmikfknn fhiqnmjlmihhnkijn o |
  1
,+->687+r<*-): {rn mijlqjmohlhohjnigm kigqnnoiokioijnfmj o riqjlomgjngghgnmgm:rooj oqffffffffhgihhiggl o V V |
  1
/061+ {rn mijlqjmohlhohjnigm kigqnnoiokioijnfmj o |
  1
/061+ {rn mijlqkghjimmikflfm fhiqnmjlmihhnkijn o |
  0
DIMENSION
  5
2D9
330
2
100
AcDbEntity
  8
AM_5
100
AcDbDimension
  2
*D30
 10
2865.52073707517
 20
197.9895132615492
 30
0.0
 11
2475.52073707517
 21
211.7395132615492
 31
0.0
 71
     5
 42
780.0
  3
スタイル2
100
AcDbAlignedDimension
 13
2085.52073707517
 23
748.977153544914
 33
0.0
 14
2865.52073707517
 24
234.3520994187374
 34
0.0
100
AcDbRotatedDimension
  0
LINE
  5
2E6
330
2
100
AcDbEntity
  8
AM_7
100
AcDbLine
 10
2215.520737075169
 20
721.8503373302815
 30
0.0
 11
2215.520737075171
 21
345.3520994187361
 31
0.0
  0
ARC
  5
2E7
330
2
100
AcDbEntity
  8
外槽外板
100
AcDbCircle
 10
2865.520737075171
 20
1559.352099418742
 30
0.0
 40
1200.0
100
AcDbArc
 50
241.1838931671606
 51
264.500714857657
  0
ARC
  5
2E8
330
2
100
AcDbEntity
  8
外槽外板
100
AcDbCircle
 10
2865.52073707517
 20
1559.352099418741
 30
0.0
 40
1192.0
100
AcDbArc
 50
240.9721364818013
 51
264.4636919947788
  0
LINE
  5
2E9
330
2
100
AcDbEntity
  8
AM_7
100
AcDbLine
 10
2335.52073707517
 20
392.3520994187423
 30
0.0
 11
2335.52073707517
 21
288.3520994187423
 31
0.0
  0
LINE
  5
2EA
330
2
100
AcDbEntity
  8
AM_7
100
AcDbLine
 10
2095.52073707517
 20
392.3520994187423
 30
0.0
 11
2095.52073707517
 21
288.3520994187423
 31
0.0
  0
LINE
  5
2EB
330
2
100
AcDbEntity
  8
細線
100
AcDbLine
 10
2355.52073707517
 20
372.3520994187423
 30
0.0
 11
2075.52073707517
 21
372.3520994187423
 31
0.0
  0
LINE
  5
2EC
330
2
100
AcDbEntity
  8
細線
100
AcDbLine
 10
2075.52073707517
 20
350.3520994187423
 30
0.0
 11
2355.52073707517
 21
350.3520994187414
 31
0.0
  0
LINE
  5
2ED
330
2
100
AcDbEntity
  8
細線
100
AcDbLine
 10
2355.52073707517
 20
328.3520994187423
 30
0.0
 11
2075.52073707517
 21
328.3520994187423
 31
0.0
  0
LINE
  5
2EE
330
2
100
AcDbEntity
  8
細線
100
AcDbLine
 10
2075.52073707517
 20
372.3520994187423
 30
0.0
 11
2075.52073707517
 21
350.3520994187423
 31
0.0
  0
LINE
  5
2EF
330
2
100
AcDbEntity
  8
細線
100
AcDbLine
 10
2075.52073707517
 20
328.3520994187423
 30
0.0
 11
2075.52073707517
 21
350.3520994187423
 31
0.0
  0
LINE
  5
2F0
330
2
100
AcDbEntity
  8
細線
100
AcDbLine
 10
2112.52073707517
 20
328.3520994187423
 30
0.0
 11
2078.52073707517
 21
328.3520994187423
 31
0.0
  0
LINE
  5
2F1
330
2
100
AcDbEntity
  8
細線
100
AcDbLine
 10
2078.52073707517
 20
325.3520994187423
 30
0.0
 11
2112.52073707517
 21
325.3520994187423
 31
0.0
  0
LINE
  5
2F2
330
2
100
AcDbEntity
  8
細線
100
AcDbLine
 10
2078.52073707517
 20
328.3520994187423
 30
0.0
 11
2078.52073707517
 21
325.3520994187423
 31
0.0
  0
LINE
  5
2F3
330
2
100
AcDbEntity
  8
細線
100
AcDbLine
 10
2085.47073707517
 20
328.3520994187423
 30
0.0
 11
2085.47073707517
 21
325.3520994187423
 31
0.0
  0
LINE
  5
2F4
330
2
100
AcDbEntity
  8
細線
100
AcDbLine
 10
2112.52073707517
 20
328.3520994187423
 30
0.0
 11
2112.52073707517
 21
325.3520994187423
 31
0.0
  0
LINE
  5
2F5
330
2
100
AcDbEntity
  8
細線
100
AcDbLine
 10
2105.57073707517
 20
328.3520994187423
 30
0.0
 11
2105.57073707517
 21
325.3520994187423
 31
0.0
  0
LINE
  5
2F6
330
2
100
AcDbEntity
  8
細線
100
AcDbLine
 10
2079.93227980705
 20
312.3520994187423
 30
0.0
 11
2111.10919434329
 21
312.3520994187423
 31
0.0
  0
ARC
  5
2F7
330
2
100
AcDbEntity
  8
細線
100
AcDbCircle
 10
2083.82939412408
 20
317.1489744187423
 30
0.0
 40
4.796874999999844
100
AcDbArc
 50
215.6661890521519
 51
324.3338109478479
  0
ARC
  5
2F8
330
2
100
AcDbEntity
  8
細線
100
AcDbCircle
 10
2107.21208002626
 20
317.1489744187419
 30
0.0
 40
4.796874999999844
100
AcDbArc
 50
215.6661890521519
 51
324.3338109478434
  0
ARC
  5
2F9
330
2
100
AcDbEntity
  8
細線
100
AcDbCircle
 10
2095.52073707517
 20
328.5395994187423
 30
0.0
 40
16.18750000000003
100
AcDbArc
 50
241.2167972061574
 51
298.7832027938425
  0
LINE
  5
2FA
330
2
100
AcDbEntity
  8
細線
100
AcDbLine
 10
2079.93227980705
 20
312.3520994187423
 30
0.0
 11
2079.93227980705
 21
325.3520994187423
 31
0.0
  0
LINE
  5
2FB
330
2
100
AcDbEntity
  8
細線
100
AcDbLine
 10
2103.31496570923
 20
312.3520994187423
 30
0.0
 11
2103.31496570923
 21
325.3520994187423
 31
0.0
  0
LINE
  5
2FC
330
2
100
AcDbEntity
  8
細線
100
AcDbLine
 10
2111.10919434329
 20
312.3520994187423
 30
0.0
 11
2111.10919434329
 21
325.3520994187423
 31
0.0
  0
LINE
  5
2FD
330
2
100
AcDbEntity
  8
細線
100
AcDbLine
 10
2087.72650844111
 20
312.3520994187423
 30
0.0
 11
2087.72650844111
 21
325.3520994187423
 31
0.0
  0
LINE
  5
2FE
330
2
100
AcDbEntity
  8
細線
100
AcDbLine
 10
2287.120737075171
 20
507.9466400454416
 30
0.0
 11
2287.12073707517
 21
372.3520994187423
 31
0.0
  0
LINE
  5
2FF
330
2
100
AcDbEntity
  8
細線
100
AcDbLine
 10
2298.12073707517
 20
372.3520994187423
 30
0.0
 11
2298.12073707517
 21
492.8994563070189
 31
0.0
  0
LINE
  5
300
330
2
100
AcDbEntity
  8
細線
100
AcDbLine
 10
2355.52073707517
 20
350.3520994187423
 30
0.0
 11
2355.52073707517
 21
372.3520994187423
 31
0.0
  0
LINE
  5
301
330
2
100
AcDbEntity
  8
細線
100
AcDbLine
 10
2352.52073707517
 20
328.3520994187423
 30
0.0
 11
2352.52073707517
 21
325.3520994187423
 31
0.0
  0
LINE
  5
302
330
2
100
AcDbEntity
  8
細線
100
AcDbLine
 10
2355.52073707517
 20
350.3520994187423
 30
0.0
 11
2355.52073707517
 21
328.3520994187423
 31
0.0
  0
LINE
  5
303
330
2
100
AcDbEntity
  8
細線
100
AcDbLine
 10
2345.57073707517
 20
328.3520994187423
 30
0.0
 11
2345.57073707517
 21
325.3520994187423
 31
0.0
  0
LINE
  5
304
330
2
100
AcDbEntity
  8
細線
100
AcDbLine
 10
2325.47073707517
 20
328.3520994187423
 30
0.0
 11
2325.47073707517
 21
325.3520994187423
 31
0.0
  0
LINE
  5
305
330
2
100
AcDbEntity
  8
細線
100
AcDbLine
 10
2318.52073707517
 20
328.3520994187423
 30
0.0
 11
2318.52073707517
 21
325.3520994187423
 31
0.0
  0
LINE
  5
306
330
2
100
AcDbEntity
  8
細線
100
AcDbLine
 10
2352.52073707517
 20
328.3520994187423
 30
0.0
 11
2318.52073707517
 21
328.3520994187423
 31
0.0
  0
LINE
  5
307
330
2
100
AcDbEntity
  8
細線
100
AcDbLine
 10
2318.52073707517
 20
325.3520994187423
 30
0.0
 11
2352.52073707517
 21
325.3520994187423
 31
0.0
  0
ARC
  5
308
330
2
100
AcDbEntity
  8
細線
100
AcDbCircle
 10
2335.52073707517
 20
328.5395994187423
 30
0.0
 40
16.18750000000003
100
AcDbArc
 50
241.2167972061574
 51
298.7832027938425
  0
ARC
  5
309
330
2
100
AcDbEntity
  8
細線
100
AcDbCircle
 10
2323.82939412408
 20
317.1489744187423
 30
0.0
 40
4.796874999999844
100
AcDbArc
 50
215.6661890521519
 51
324.3338109478479
  0
ARC
  5
30A
330
2
100
AcDbEntity
  8
細線
100
AcDbCircle
 10
2347.21208002626
 20
317.1489744187419
 30
0.0
 40
4.796874999999844
100
AcDbArc
 50
215.6661890521519
 51
324.3338109478434
  0
LINE
  5
30B
330
2
100
AcDbEntity
  8
細線
100
AcDbLine
 10
2319.93227980705
 20
312.3520994187423
 30
0.0
 11
2351.10919434329
 21
312.3520994187423
 31
0.0
  0
LINE
  5
30C
330
2
100
AcDbEntity
  8
細線
100
AcDbLine
 10
2343.31496570923
 20
312.3520994187423
 30
0.0
 11
2343.31496570923
 21
325.3520994187423
 31
0.0
  0
LINE
  5
30D
330
2
100
AcDbEntity
  8
細線
100
AcDbLine
 10
2351.10919434329
 20
312.3520994187423
 30
0.0
 11
2351.10919434329
 21
325.3520994187423
 31
0.0
  0
LINE
  5
30E
330
2
100
AcDbEntity
  8
細線
100
AcDbLine
 10
2327.72650844111
 20
312.3520994187423
 30
0.0
 11
2327.72650844111
 21
325.3520994187423
 31
0.0
  0
LINE
  5
30F
330
2
100
AcDbEntity
  8
細線
100
AcDbLine
 10
2319.93227980705
 20
312.3520994187423
 30
0.0
 11
2319.93227980705
 21
325.3520994187423
 31
0.0
  0
ARC
  5
310
330
2
100
AcDbEntity
  8
細線
100
AcDbCircle
 10
2865.520737075199
 20
1559.352099418736
 30
0.0
 40
1208.0
100
AcDbArc
 50
241.985046409021
 51
243.6662529234178
  0
ARC
  5
311
330
2
100
AcDbEntity
  8
細線
100
AcDbCircle
 10
2865.520737075199
 20
1559.352099418736
 30
0.0
 40
1200.0
100
AcDbArc
 50
241.1838931671599
 51
243.6662529234178
  0
LINE
  5
312
330
2
100
AcDbEntity
  8
外槽外板
100
AcDbLine
 10
2287.12073707517
 20
517.0865670326797
 30
0.0
 11
2287.12073707517
 21
507.9466400454316
 31
0.0
  0
LINE
  5
313
330
2
100
AcDbEntity
  8
細線
100
AcDbLine
 10
2333.201766322484
 20
483.8817309860337
 30
0.0
 11
2329.652973184134
 21
476.7119285298162
 31
0.0
  0
REGION
  5
314
330
2
100
AcDbEntity
  8
AM_5
 62
     1
100
AcDbModelerGeometry
 70
     1
  1
koo mn n o          
  1
h J1410(1 nl ^ \VL kqoqm QK mk R01 R>- nh nfenfenk mool 
  1
rn fqfffffffffffffffj:rooh n:rono 
  1
=0;& {rn {n {rn {rn |
  1
3*2/ {rn {rn {m {o |
  1
,7:33 {rn {rn {rn {l {rn {n |
  1
9><: {rn {rn {k {m {rn {j -:):-,:; ;0*=3: 0*+ |
  1
300/ {rn {rn {i {l |
  1
/3>1:r,*-9><: {rn mklhqglogfjmgnhihf mmgqkhhjkjjgjlngif o o o rn rk o o 90-(>-;@) V V V V |
  1
<0:;8: {rn {h {g {rn {f 90-(>-; {k {rn |
  1
<0:;8: {rn {g {i {rn {no 90-(>-; {k {rn |
  1
<0:;8: {rn {i {h {rn {nn 90-(>-; {k {rn |
  1
:;8: {rn {nm {nl {i {nk 90-(>-; |
  1
:;8: {rn {nl {nj {h {ni 90-(>-; |
  1
:;8: {rn {nj {nm {g {nh 90-(>-; |
  1
):-+:' {rn {f {ng |
  1
):-+:' {rn {f {nf |
  1
,+->687+r<*-): {rn mkmjqgmmoofigmilog mmnqjkkmnmmjnfgjl o k o o V V |
  1
):-+:' {rn {no {mo |
  1
,+->687+r<*-): {rn mkkfqglfhgoggofnig mmnqjkkmnmmjnfgjl o rmqoooooooooooonmog lqkiknoninjnlhigkh o V V |
  1
,+->687+r<*-): {rn mklhqglogfjmgnhihf mkmqlkkmnmmjnfgjkg o rnqffffffffffffgflk rlqkiknoninjnlhgnin o V V |
  1
/061+ {rn mkmjqgmmoofigmilog mmnqjkkmnmmjnfgjl o |
  1
/061+ {rn mkkfqglfhgoggofnig mmnqjkkmnmmjnfgjl o |
  1
/061+ {rn mklhqglogfjmgnhihf mkmqlkkmnmmjnfgjkg o |
  0
MTEXT
  5
315
330
2
100
AcDbEntity
  8
AM_5
  6
Continuous
 62
     1
100
AcDbMText
 10
2438.282057645658
 20
229.4743762945936
 30
0.0
 40
10.0
 41
0.0
 71
     5
 72
     5
  1
5
  7
TITLE
 73
     1
 44
1.0
  0
LINE
  5
316
330
2
100
AcDbEntity
  8
内槽外板
100
AcDbLine
 10
2646.520737075117
 20
460.971928439681
 30
0.0
 11
2646.520737075117
 21
468.1106046065301
 31
0.0
  0
LINE
  5
317
330
2
100
AcDbEntity
  8
A1枠
100
AcDbLine
 10
3178.500000000003
 20
67.5
 30
0.0
 11
3178.500000000003
 21
202.4999999999999
 31
0.0
  0
LINE
  5
318
330
2
100
AcDbEntity
  8
外槽外板
100
AcDbLine
 10
2750.52073707517
 20
364.8752264739364
 30
0.0
 11
2750.52073707517
 21
372.9124675790094
 31
0.0
  0
MTEXT
  5
319
330
2
100
AcDbEntity
  8
A1枠
 62
     3
100
AcDbMText
 10
3211.000000000003
 20
190.0
 30
0.0
 40
7.5
 41
65.0
 71
     5
 72
     5
  1
Approved by
  7
表題
 73
     1
 44
1.0
  0
LINE
  5
31A
330
2
100
AcDbEntity
  8
A1枠
100
AcDbLine
 10
3240.0
 20
202.4999999999999
 30
0.0
 11
3240.0
 21
122.5
 31
0.0
  0
MTEXT
  5
31B
330
2
100
AcDbEntity
  8
A1枠
 62
     3
100
AcDbMText
 10
3207.631992147717
 20
149.8129978137105
 30
0.0
 40
10.0
 41
0.0
 71
     5
 72
     5
  1
Kamioka
  7
表題
 73
     1
 44
1.0
  0
ATTDEF
  5
31C
330
2
100
AcDbEntity
  8
A1枠
100
AcDbText
 10
3207.713480334601
 20
232.5
 30
0.0
 40
15.0
  1

  7
表題
 72
     2
 11
3218.499997188533
 21
240.0
 31
0.0
100
AcDbAttributeDefinition
  3
品番
  2
1
 70
     0
 74
     2
  0
LWPOLYLINE
  5
31D
330
2
100
AcDbEntity
  8
A1枠
100
AcDbPolyline
 90
        4
 70
     1
 43
0.0
 10
3178.499997188533
 20
227.4999999999999
 10
3228.499997188533
 20
227.4999999999999
 10
3228.499997188533
 20
252.4999999999999
 10
3178.499997188533
 20
252.4999999999999
  0
MTEXT
  5
31E
330
2
100
AcDbEntity
  8
A1枠
 62
     3
100
AcDbMText
 10
3203.500000000004
 20
215.0
 30
0.0
 40
12.5
 41
50.0
 71
     5
 72
     5
  1
No.
  7
表題
 73
     1
 44
1.0
  0
LINE
  5
31F
330
2
100
AcDbEntity
  8
A1枠
100
AcDbLine
 10
3178.500000000003
 20
227.4999999999999
 30
0.0
 11
3178.500000000003
 21
202.4999999999999
 31
0.0
  0
LINE
  5
320
330
2
100
AcDbEntity
  8
A1枠
100
AcDbLine
 10
3228.500000000003
 20
202.4999999999999
 30
0.0
 11
3228.500000000003
 21
227.4999999999999
 31
0.0
  0
ARC
  5
321
330
2
100
AcDbEntity
  8
細線
100
AcDbCircle
 10
2865.52073707517
 20
1559.352099418741
 30
0.0
 40
550.0
100
AcDbArc
 50
238.1800058563512
 51
257.3977351585466
  0
ARC
  5
322
330
2
100
AcDbEntity
  8
細線
100
AcDbCircle
 10
2865.52073707517
 20
1559.352099418741
 30
0.0
 40
570.0
100
AcDbArc
 50
238.1800058563512
 51
257.8468025309581
  0
MTEXT
  5
323
330
2
100
AcDbEntity
  8
AM_5
  6
Continuous
 62
     1
100
AcDbMText
 10
2055.973504830946
 20
749.2206267510383
 30
0.0
 40
10.0
 41
0.0
 71
     5
 72
     5
  1
5
  7
TITLE
 73
     1
 44
1.0
  0
REGION
  5
324
330
2
100
AcDbEntity
  8
AM_5
 62
     1
100
AcDbModelerGeometry
 70
     1
  1
koo mn n o          
  1
h J1410(1 nl ^ \VL kqoqm QK mk R01 R>- nh nfenfenk mool 
  1
rn fqfffffffffffffffj:rooh n:rono 
  1
=0;& {rn {n {rn {rn |
  1
3*2/ {rn {rn {m {o |
  1
,7:33 {rn {rn {rn {l {rn {n |
  1
9><: {rn {rn {k {m {rn {j -:):-,:; ;0*=3: 0*+ |
  1
300/ {rn {rn {i {l |
  1
/3>1:r,*-9><: {rn mojjqjmmlkmkihojih hkgqmmlhfioknhilln o o o rn rk o o 90-(>-;@) V V V V |
  1
<0:;8: {rn {h {g {rn {f 90-(>-; {k {rn |
  1
<0:;8: {rn {g {i {rn {no 90-(>-; {k {rn |
  1
<0:;8: {rn {i {h {rn {nn 90-(>-; {k {rn |
  1
:;8: {rn {nm {nl {i {nk 90-(>-; |
  1
:;8: {rn {nl {nj {h {ni 90-(>-; |
  1
:;8: {rn {nj {nm {g {nh 90-(>-; |
  1
):-+:' {rn {f {ng |
  1
):-+:' {rn {f {nf |
  1
,+->687+r<*-): {rn moklqjnlkjigihfnfi hknqmfokimhogkmffn o k o o V V |
  1
):-+:' {rn {no {mo |
  1
,+->687+r<*-): {rn moihqjlnmmgoiimoji hknqmfokimhogkmffn o rmqoooooooooooonmog lqkiknoninjnlhigkh o V V |
  1
,+->687+r<*-): {rn mojjqjmmlkmkihojih himqofokimhogklon o rnqffffffffffffgflk rlqkiknoninjnlhgnin o V V |
  1
/061+ {rn moklqjnlkjigihfnfi hknqmfokimhogkmffn o |
  1
/061+ {rn moihqjlnmmgoiimoji hknqmfokimhogkmffn o |
  1
/061+ {rn mojjqjmmlkmkihojih himqofokimhogklon o |
  0
ARC
  5
325
330
2
100
AcDbEntity
  8
AM_1
100
AcDbCircle
 10
2085.52073707517
 20
748.9771535449135
 30
0.0
 40
4.770000000000095
100
AcDbArc
 50
226.2416635932274
 51
46.24166359322742
  0
LINE
  5
326
330
2
100
AcDbEntity
  8
AM_7
100
AcDbLine
 10
2068.343358588902
 20
731.1308494922682
 30
0.0
 11
2102.698115561439
 21
766.8234575975597
 31
0.0
  0
REGION
  5
327
330
2
100
AcDbEntity
  8
細線
100
AcDbModelerGeometry
 70
     1
  1
koo in n o          
  1
h J1410(1 nl ^ \VL kqoqm QK mk R01 R>- nh nfenfenk mool 
  1
rn fqfffffffffffffffj:rooh n:rono 
  1
=0;& {rn {n {rn {rn |
  1
3*2/ {rn {rn {m {o |
  1
,7:33 {rn {rn {rn {l {rn {n |
  1
9><: {rn {rn {k {m {rn {j -:):-,:; ;0*=3: 0*+ |
  1
300/ {rn {rn {i {l |
  1
/3>1:r,*-9><: {rn mmnnqjjhjkijnghnhn imiqnlgoikfljjmhlg o o o rn rn o o 90-(>-;@) V V V V |
  1
<0:;8: {rn {h {g {rn {f 90-(>-; {k {rn |
  1
<0:;8: {rn {no {i {rn {nn 90-(>-; {k {rn |
  1
<0:;8: {rn {i {nm {rn {nl 90-(>-; {k {rn |
  1
:;8: {rn {nk {nj {i {ni 90-(>-; |
  1
<0:;8: {rn {nh {h {rn {ng 90-(>-; {k {rn |
  1
:;8: {rn {nj {nf {h {mo 90-(>-; |
  1
<0:;8: {rn {g {mn {rn {mm -:):-,:; {k {rn |
  1
:;8: {rn {ml {nk {g {mk 90-(>-; |
  1
):-+:' {rn {f {mj |
  1
):-+:' {rn {f {mi |
  1
,+->687+r<*-): {rn mnjgqomohlhohjnhng igmqoffnkmhkofmjg o rnqnnifojjfllonjgjk:ronk rn o V V |
  1
<0:;8: {rn {mh {no {rn {mg 90-(>-; {k {rn |
  1
:;8: {rn {nf {mf {no {lo 90-(>-; |
  1
):-+:' {rn {nn {ln |
  1
,+->687+r<*-): {rn mnjgqomohlhohjnh iooqiifmhfogiiohhl o n o o V V |
  1
<0:;8: {rn {nm {lm {rn {ll -:):-,:; {k {rn |
  1
:;8: {rn {ml {lk {nm {lj 90-(>-; |
  1
):-+:' {rn {mm {li |
  1
:336/,:r<*-): {rn mgijqjmohlhohjnffn njjfqljmoffknghlin o o o n nnmh o o n V V |
  1
/061+ {rn mnjgqomohlhohjnhng igmqoffnkmhkofmjg o |
  1
/061+ {rn mnjgqomohlhohjnh iooqiifmhfogiiohhl o |
  1
<0:;8: {rn {lh {nh {rn {lg 90-(>-; {k {rn |
  1
:;8: {rn {mf {lf {nh {ko 90-(>-; |
  1
):-+:' {rn {ng {kn |
  1
,+->687+r<*-): {rn mnigqomohlhohjnigm iooqiifmhfogiiohhl o lqlnjgiinoomnlgonn:ronk rn o V V |
  1
/061+ {rn mnigqomohlhohjnigm iooqiifmhfogiiohhl o |
  1
<0:;8: {rn {mn {km {rn {kl 90-(>-; {k {rn |
  1
:;8: {rn {lk {kk {mn {kj 90-(>-; |
  1
):-+:' {rn {ll {ki |
  1
,+->687+r<*-): {rn mnmgqmfikljgkhgigf hoiqfmijkmhlfjnhnm o oqijknkhjiofgmljflg oqhjiliifjljhjlllml o V V |
  1
/061+ {rn mnmgqmfikljgkhgigf hoiqfmijkmhlfjnhnm o |
  1
<0:;8: {rn {km {mh {rn {kh 90-(>-; {k {rn |
  1
:;8: {rn {lf {kg {mh {kf 90-(>-; |
  1
):-+:' {rn {mg {jo |
  1
,+->687+r<*-): {rn mnigqomohlhohjnigm jhiqiifmhfogiiohhl o n o o V V |
  1
/061+ {rn mnigqomohlhohjnigm jhiqiifmhfogiiohhl o |
  1
<0:;8: {rn {lm {lh {rn {jn 90-(>-; {k {rn |
  1
:;8: {rn {jm {kk {lm {jl 90-(>-; |
  1
):-+:' {rn {kl {jk |
  1
:336/,:r<*-): {rn mgijqjmohlhohjnh njjfqljmoffknghhh o o o n nnmo o o n V V |
  1
/061+ {rn mnlmqghjkighhkhjki hnmqmmnnnnknkjjlkl o |
  1
:;8: {rn {kg {jj {lh {ji 90-(>-; |
  1
):-+:' {rn {lg {jh |
  1
,+->687+r<*-): {rn mmilqomohlhohjnhjj jhiqiifmhfogiiohhl o rlqlilmljinjflnnkn:ronl n o V V |
  1
/061+ {rn mmilqomohlhohjnhjj jhiqiifmhfogiiohhl o |
  1
:;8: {rn {jj {jm {km {jg 90-(>-; |
  1
):-+:' {rn {jn {jf |
  1
,+->687+r<*-): {rn mlooqlgnlmnjonihlf jgkqmgfgmlfgfjnmjh o oqjonkjkihmmolhmhgi oqgijnglfnhgiogjnol o V V |
  1
/061+ {rn mlolqgfnjokmohnnog jfoqlkinnnknkjjjmj o |
  1
):-+:' {rn {kh {io |
  1
,+->687+r<*-): {rn mmilqomohlhohjnigm iooqiifmhfogiiohhl o n o o V V |
  1
/061+ {rn mmilqomohlhohjnigm iooqiifmhfogiiohhl o |
  1
:336/,:r<*-): {rn mgijqjmohlhohjnffn njjfqljmoffknghlin o o o n nnmh o o n V V |
  1
/061+ {rn mlooqlgnlmnjonihlf jgkqmgfgmlfgfjnmjh o |
  1
/061+ {rn mmhlqomohlhohjnigm iooqiifmhfogiiohhl o |
  0
ARC
  5
328
330
2
100
AcDbEntity
  8
細線
100
AcDbCircle
 10
2865.520737075199
 20
1559.352099418736
 30
0.0
 40
1208.0
100
AcDbArc
 50
231.2277560376645
 51
232.6662438044206
  0
ARC
  5
329
330
2
100
AcDbEntity
  8
細線
100
AcDbCircle
 10
2865.520737075199
 20
1559.352099418736
 30
0.0
 40
1200.0
100
AcDbArc
 50
231.2277560376645
 51
233.0345495861403
  0
LINE
  5
32A
330
2
100
AcDbEntity
  8
細線
100
AcDbLine
 10
2109.039487648913
 20
617.5452618631529
 30
0.0
 11
2114.049297247763
 21
623.7823932376937
 31
0.0
  0
LINE
  5
32B
330
2
100
AcDbEntity
  8
外槽外板
100
AcDbLine
 10
2143.920737075169
 20
610.5858268310198
 30
0.0
 11
2143.920737075169
 21
600.5541853617865
 31
0.0
  0
LEADER
  5
32C
330
2
100
AcDbEntity
  8
AM_5
100
AcDbLeader
  3
スタイル2
 73
     0
 75
     1
 40
20.60913705583756
 41
87.85532994923856
 76
     3
 10
2329.527037351997
 20
1241.034386014461
 30
0.0
 10
2221.993848347067
 20
1137.159079311621
 30
0.0
 10
2211.993848347066
 20
1137.159079311621
 30
0.0
340
32D
1001
ACAD
1000
DSTYLE
1002
{
1070
   147
1040
5.0
1070
    77
1070
     1
1002
}
  0
MTEXT
  5
32D
102
{ACAD_REACTORS
330
32C
102
}
330
2
100
AcDbEntity
  8
AM_5
100
AcDbMText
 10
2206.993848347067
 20
1142.159079311621
 30
0.0
 40
17.5
 41
0.0
 71
     9
 72
     1
  1
Inner Vessel Inner Wall
  7
スタイル１
 73
     1
 44
1.0
  0
LINE
  5
32E
330
2
100
AcDbEntity
  8
細線
100
AcDbLine
 10
2588.24539852225
 20
1082.0446653363
 30
0.0
 11
2589.543457048121
 21
1081.292968424428
 31
0.0
  0
LINE
  5
32F
330
2
100
AcDbEntity
  8
細線
100
AcDbLine
 10
2589.543457048121
 20
1081.292968424428
 30
0.0
 11
2590.548077839977
 21
1083.022343185596
 31
0.0
  0
LINE
  5
330
330
2
100
AcDbEntity
  8
細線
100
AcDbLine
 10
2564.986900395544
 20
1075.018110305212
 30
0.0
 11
2575.531947296583
 21
1092.012285361828
 31
0.0
  0
LINE
  5
331
330
2
100
AcDbEntity
  8
内槽内板
100
AcDbLine
 10
2646.487562264914
 20
976.1253267714177
 30
0.0
 11
2646.510776656757
 21
983.5998634373277
 31
0.0
  0
LINE
  5
332
330
2
100
AcDbEntity
  8
外槽内板
100
AcDbLine
 10
2588.133504547276
 20
1083.845450432088
 30
0.0
 11
2588.385445721234
 21
1084.277336580123
 31
0.0
  0
LINE
  5
333
330
2
100
AcDbEntity
  8
細線
100
AcDbLine
 10
2588.24539852225
 20
1082.044665336301
 30
0.0
 11
2589.250019314109
 21
1083.774040097469
 31
0.0
  0
LINE
  5
334
330
2
100
AcDbEntity
  8
細線
100
AcDbLine
 10
2588.133504547335
 20
1083.845450432054
 30
0.0
 11
2588.385445721292
 21
1084.277336580089
 31
0.0
  0
LINE
  5
335
330
2
100
AcDbEntity
  8
細線
100
AcDbLine
 10
2780.520737075075
 20
982.6026234060405
 30
0.0
 11
2765.520737075073
 21
967.6026234060431
 31
0.0
  0
LINE
  5
336
330
2
100
AcDbEntity
  8
細線
100
AcDbLine
 10
2845.520737075075
 20
982.6026234060286
 30
0.0
 11
2845.520737075041
 21
802.6026234060287
 31
0.0
  0
LINE
  5
337
330
2
100
AcDbEntity
  8
細線
100
AcDbLine
 10
2765.520737075026
 20
722.6026234060432
 30
0.0
 11
2845.520737075041
 21
802.6026234060287
 31
0.0
  0
LINE
  5
338
330
2
100
AcDbEntity
  8
細線
100
AcDbLine
 10
2765.520737075055
 20
887.6026234060432
 30
0.0
 11
2765.520737075026
 21
722.6026234060432
 31
0.0
  0
LWPOLYLINE
  5
339
330
2
100
AcDbEntity
  8
細線
100
AcDbPolyline
 90
        4
 70
     1
 43
0.0
 10
2765.520737075062
 20
922.6026234060432
 10
2845.520737075062
 20
922.6026234060286
 10
2845.520737075059
 20
902.6026234060287
 10
2765.520737075059
 20
902.6026234060433
  0
LINE
  5
33A
330
2
100
AcDbEntity
  8
細線
100
AcDbLine
 10
2780.520737075059
 20
902.6026234060404
 30
0.0
 11
2765.520737075055
 21
887.6026234060432
 31
0.0
  0
LINE
  5
33B
330
2
100
AcDbEntity
  8
細線
100
AcDbLine
 10
2780.520737075062
 20
922.6026234060405
 30
0.0
 11
2765.520737075064
 21
937.6026234060432
 31
0.0
  0
LINE
  5
33C
330
2
100
AcDbEntity
  8
細線
100
AcDbLine
 10
2765.520737075073
 20
967.6026234060431
 30
0.0
 11
2765.520737075064
 21
937.6026234060432
 31
0.0
  0
LWPOLYLINE
  5
33D
330
2
100
AcDbEntity
  8
細線
100
AcDbPolyline
 90
        4
 70
     1
 43
0.0
 10
2765.520737075079
 20
1002.602623406043
 10
2845.520737075079
 20
1002.602623406028
 10
2845.520737075075
 20
982.6026234060286
 10
2765.520737075075
 20
982.6026234060432
  0
LINE
  5
33E
330
2
100
AcDbEntity
  8
細線
100
AcDbLine
 10
2780.520737075075
 20
982.6026234060396
 30
0.0
 11
2845.520737075075
 21
982.6026234060286
 31
0.0
  0
LINE
  5
33F
330
2
100
AcDbEntity
  8
細線
100
AcDbLine
 10
2745.520737075259
 20
1022.602623405866
 30
0.0
 11
2745.520737075112
 21
1002.126830788552
 31
0.0
  0
SPLINE
  5
340
330
2
100
AcDbEntity
  8
細線
100
AcDbSpline
210
0.0
220
0.0
230
1.0
 70
     8
 71
     3
 72
    10
 73
     6
 74
     4
 42
0.0000000001
 43
0.0000000001
 44
0.0000000001
 40
0.0
 40
0.0
 40
0.0
 40
0.0
 40
17.89667234604698
 40
33.9305353112912
 40
44.6265033719399
 40
44.6265033719399
 40
44.6265033719399
 40
44.6265033719399
 10
3254.135132326659
 20
1145.46179013013
 30
0.0
 10
3261.19985744291
 20
1144.490590155596
 30
0.0
 10
3274.593962245551
 20
1142.649279413962
 30
0.0
 10
3271.157374806496
 20
1124.090334054123
 30
0.0
 10
3276.790035795036
 20
1117.000870202195
 30
0.0
 10
3279.04395060548
 20
1114.164014299369
 30
0.0
 11
3254.135132326659
 21
1145.46179013013
 31
0.0
 11
3270.876093034252
 21
1139.134775379983
 31
0.0
 11
3273.513705802992
 21
1123.319347454365
 31
0.0
 11
3279.04395060548
 21
1114.164014299369
 31
0.0
  0
MTEXT
  5
341
330
2
100
AcDbEntity
  8
A1枠
 62
     3
100
AcDbMText
 10
3947.750000000003
 20
215.0
 30
0.0
 40
12.5
 41
121.5
 71
     5
 72
     5
  1
Comments
  7
表題
 73
     1
 44
1.0
  0
LWPOLYLINE
  5
342
330
2
100
AcDbEntity
  8
A1枠
100
AcDbPolyline
 90
        4
 70
     1
 43
0.0
 10
3895.499997188533
 20
227.4999999999999
 10
3999.999998594263
 20
227.4999999999999
 10
3999.999998594263
 20
252.4999999999999
 10
3895.499997188533
 20
252.4999999999999
  0
LINE
  5
343
330
2
100
AcDbEntity
  8
A1枠
100
AcDbLine
 10
3949.5854811565
 20
77.49999999999943
 30
0.0
 11
3990.0
 21
77.49999999999943
 31
0.0
  0
MTEXT
  5
344
330
2
100
AcDbEntity
  8
A1枠
 62
     3
100
AcDbMText
 10
3970.082363776246
 20
91.87666171933358
 30
0.0
 40
20.0
 41
0.0
 71
     5
 72
     5
  1
5
  7
表題
 73
     1
 44
1.0
  0
LINE
  5
345
330
2
100
AcDbEntity
  8
A1枠
100
AcDbLine
 10
3969.792740577995
 20
112.4999999999994
 30
0.0
 11
3949.5854811565
 21
77.49999999999943
 31
0.0
  0
MTEXT
  5
346
330
2
100
AcDbEntity
  8
A1枠
 62
     3
100
AcDbMText
 10
3637.5
 20
94.99999999999943
 30
0.0
 40
12.5
 41
75.0
 71
     5
 72
     5
  1
Drawing\PNumber
  7
表題
 73
     1
 44
1.0
  0
LINE
  5
347
330
2
100
AcDbEntity
  8
A1枠
100
AcDbLine
 10
3675.0
 20
122.4999999999994
 30
0.0
 11
3675.0
 21
67.49999999999943
 31
0.0
  0
LINE
  5
348
330
2
100
AcDbEntity
  8
A1枠
100
AcDbLine
 10
3600.0
 20
202.4999999999994
 30
0.0
 11
3600.0
 21
67.49999999999943
 31
0.0
  0
SPLINE
  5
349
330
2
100
AcDbEntity
  8
A1枠
 48
5.0
100
AcDbSpline
210
0.0
220
0.0
230
1.0
 70
    11
 71
     3
 72
    41
 73
    37
 74
    35
 42
0.0000000001
 43
0.0000000001
 44
0.0000000001
 40
0.0
 40
0.0
 40
0.0
 40
0.0
 40
3.791487079333154
 40
4.653246449185656
 40
7.505198143742767
 40
9.264973784069319
 40
11.76188092119438
 40
13.59948603589188
 40
16.56804967313535
 40
19.40878146527085
 40
20.68454875507119
 40
23.6527138881544
 40
25.7881824349091
 40
27.21858850859328
 40
28.82862937113117
 40
30.74227963509125
 40
32.61523077214123
 40
35.46313919399425
 40
37.93660103986219
 40
38.91345337608946
 40
40.62097750318716
 40
43.00007957619651
 40
44.27504766835756
 40
46.60822642720379
 40
49.57638983056289
 40
52.60171981857062
 40
54.77503810711585
 40
55.62908623462128
 40
57.46669134932079
 40
59.96359848644563
 40
61.86111875929984
 40
63.39984968492021
 40
64.35432831011329
 40
65.6563291766287
 40
66.93696866619409
 40
67.41042516976431
 40
67.41042516976431
 40
67.41042516976431
 40
67.41042516976431
 10
3536.432654338059
 20
99.95405179866658
 30
0.0
 10
3535.141303271312
 20
99.36710737183361
 30
0.0
 10
3533.556443652841
 20
98.64675754262878
 30
0.0
 10
3533.216819292833
 20
96.01161855829289
 30
0.0
 10
3530.976200543683
 20
95.39919220540291
 30
0.0
 10
3530.374006323384
 20
92.94088387077845
 30
0.0
 10
3530.468407526802
 20
90.92984697212271
 30
0.0
 10
3529.534557622033
 20
88.56760907551345
 30
0.0
 10
3529.856076692984
 20
86.2333960483231
 30
0.0
 10
3528.753589456358
 20
83.10270303095412
 30
0.0
 10
3531.451467477739
 20
82.62921312299756
 30
0.0
 10
3532.870918003154
 20
81.04871705386401
 30
0.0
 10
3535.446479013355
 20
80.98241772282463
 30
0.0
 10
3536.038002228735
 20
79.17792098435552
 30
0.0
 10
3536.172145417801
 20
77.44958581911814
 30
0.0
 10
3538.289620540189
 20
76.63902584956824
 30
0.0
 10
3540.234605825994
 20
78.10235162549386
 30
0.0
 10
3542.710174825938
 20
76.74571401907247
 30
0.0
 10
3544.349840502121
 20
75.88716452622623
 30
0.0
 10
3546.685124294926
 20
76.23535031635288
 30
0.0
 10
3544.335559814038
 20
77.93419764450121
 30
0.0
 10
3545.105262697789
 20
79.67884266069859
 30
0.0
 10
3544.341270782352
 20
81.74617092568665
 30
0.0
 10
3541.948603373366
 20
82.1453865211089
 30
0.0
 10
3539.38825960943
 20
83.40211087936832
 30
0.0
 10
3538.129353606981
 20
85.89237511389807
 30
0.0
 10
3537.516607000593
 20
87.98441597982264
 30
0.0
 10
3535.907593813243
 20
88.65959767730791
 30
0.0
 10
3535.748105935323
 20
90.68231491574024
 30
0.0
 10
3536.132128293008
 20
92.64220053040107
 30
0.0
 10
3536.11380356325
 20
94.59811923863879
 30
0.0
 10
3536.448147156891
 20
96.16979497995089
 30
0.0
 10
3535.550548622492
 20
97.15202408230105
 30
0.0
 10
3535.494761971464
 20
98.51634198365237
 30
0.0
 10
3536.50549028982
 20
99.18641103972582
 30
0.0
 10
3536.448135299835
 20
99.79089312552034
 30
0.0
 10
3536.432654338059
 20
99.95405179866658
 30
0.0
 11
3536.432654338059
 21
99.95405179866658
 31
0.0
 11
3533.471002437363
 21
97.58677651010067
 31
0.0
 11
3533.234068986021
 21
96.75822853251361
 31
0.0
 11
3531.101680916818
 21
94.86440974751701
 31
0.0
 11
3530.509350536677
 21
93.20731740698533
 31
0.0
 11
3530.272417085325
 21
90.72167708886672
 31
0.0
 11
3529.798556679116
 21
88.94621971878166
 31
0.0
 11
3529.561623227755
 21
85.98712651173485
 31
0.0
 11
3529.561623227755
 21
83.14639471959935
 31
0.0
 11
3530.746283988037
 21
82.67293821602947
 31
0.0
 11
3533.352538959934
 21
81.25257231996187
 31
0.0
 11
3535.366457055215
 21
80.54238937192792
 31
0.0
 11
3535.958787435347
 21
79.24038850541307
 31
0.0
 11
3536.432654338059
 21
77.70166119443302
 31
0.0
 11
3538.209645478464
 21
76.99147824639965
 31
0.0
 11
3539.986636618887
 21
77.58329616488055
 31
0.0
 11
3542.711355068213
 21
76.75474818729412
 31
0.0
 11
3545.080670092284
 21
76.04456523926046
 31
0.0
 11
3546.02840389769
 21
76.28129529836542
 31
0.0
 11
3545.080670092284
 21
77.70166119443302
 31
0.0
 11
3544.843743137416
 21
80.06893648299893
 31
0.0
 11
3544.369876234704
 21
81.25257231996187
 31
0.0
 11
3542.237488165511
 21
82.19948532710077
 31
0.0
 11
3539.631233193613
 21
83.61984760852806
 31
0.0
 11
3538.09117550455
 21
86.22385295619892
 31
0.0
 11
3537.024984718192
 21
88.1176717411958
 31
0.0
 11
3536.314184364137
 21
88.59112824476483
 31
0.0
 11
3535.840323957918
 21
90.36658561484955
 31
0.0
 11
3536.07725740927
 21
92.85222593296794
 31
0.0
 11
3536.195720886708
 21
94.74604471796453
 31
0.0
 11
3536.195720886708
 21
96.2847756435849
 31
0.0
 11
3535.721860480489
 21
97.11332000653044
 31
0.0
 11
3535.721860480489
 21
98.41532087304585
 31
0.0
 11
3536.432654338059
 21
99.48059529509635
 31
0.0
 11
3536.432654338059
 21
99.95405179866658
 31
0.0
  0
HATCH
  5
34A
330
2
100
AcDbEntity
  8
A1枠
100
AcDbHatch
 10
0.0
 20
0.0
 30
0.0
210
0.0
220
0.0
230
1.0
  2
SOLID
 70
     1
 71
     0
 91
        3
 92
        5
 93
        1
 72
     4
 94
        3
 73
     0
 74
     0
 95
       36
 96
       32
 40
0.0
 40
0.0
 40
0.0
 40
0.0
 40
0.5883166331382988
 40
1.044054392814925
 40
1.80690955170025
 40
3.636128202933312
 40
4.761041426817341
 40
5.32376724630582
 40
5.496244357661193
 40
5.760920812099318
 40
6.482162802078521
 40
7.033164362538165
 40
7.60229327212658
 40
8.246625936795398
 40
9.147019221933327
 40
10.62065156322797
 40
11.40758064228761
 40
12.99540565581377
 40
14.29781240575261
 40
15.17937101280218
 40
16.32278793075024
 40
17.07088451630366
 40
17.59680358761074
 40
18.31113908322397
 40
18.53573797647749
 40
18.82104064963364
 40
19.36229386539549
 40
20.26438382887941
 40
20.80952202408279
 40
21.24999366457222
 40
21.74937437233119
 40
21.74937437233119
 40
21.74937437233119
 40
21.74937437233119
 10
3550.411643513516
 20
102.4396921167849
 10
3551.093303677271
 20
103.2873900325193
 10
3552.303009893785
 20
104.7917546600867
 10
3555.518745468543
 20
103.8564266891069
 10
3559.891093923734
 20
101.6174206221605
 10
3565.017506817321
 20
97.57106124547703
 10
3567.480273172878
 20
92.12933148833007
 10
3564.25601147349
 20
87.91706315350097
 10
3566.60583534569
 20
87.89528424204803
 10
3565.557100782271
 20
85.57688944553632
 10
3563.30591406353
 20
81.850431037671
 10
3567.150322576571
 20
85.08106444778718
 10
3570.081687015763
 20
83.49463417601441
 10
3572.669508465897
 20
86.73692938210422
 10
3577.378653147707
 20
88.68597817607678
 10
3578.926767434714
 20
94.37108137300446
 10
3580.079789241536
 20
100.6919827862225
 10
3577.154983785349
 20
106.5301049064996
 10
3573.729473436287
 20
111.8088993536105
 10
3568.877974823444
 20
114.877464202857
 10
3563.891722099224
 20
114.8342726373632
 10
3560.461308721151
 20
114.9357186748363
 10
3555.939787257585
 20
111.455368604906
 10
3560.949562074375
 20
114.3682209519442
 10
3561.909719042832
 20
111.4683210546386
 10
3559.390810230015
 20
112.1307050256814
 10
3557.384784907454
 20
110.0780903553188
 10
3553.456326458408
 20
109.8586047307285
 10
3552.213372451415
 20
106.7311884448283
 10
3550.286249917426
 20
104.9752559620981
 10
3550.368134824975
 20
103.3194743468798
 10
3550.411643513516
 20
102.4396921167849
 97
        0
 92
        7
 72
     1
 73
     1
 93
        2
 10
3543.72974129079
 20
91.78695151091744
 42
1.0
 10
3560.410601062194
 20
91.78695151091744
 42
1.0
 97
        0
 92
        5
 93
        1
 72
     4
 94
        3
 73
     0
 74
     0
 95
       41
 96
       37
 40
0.0
 40
0.0
 40
0.0
 40
0.0
 40
0.7582974158655653
 40
0.9306492898365002
 40
1.501039628747242
 40
1.852994756812246
 40
2.352376184237327
 40
2.71989720717723
 40
3.313609934625834
 40
3.881756293052878
 40
4.136909751011256
 40
4.730542777628725
 40
5.157636486979217
 40
5.443717701716619
 40
5.765725874223739
 40
6.148455927017043
 40
6.523046154425332
 40
7.092627838797694
 40
7.587320207969541
 40
7.782690675215876
 40
8.124195500635968
 40
8.60001591523784
 40
8.855009533669605
 40
9.321645285438874
 40
9.915277966111492
 40
10.5203439637128
 40
10.95500762142157
 40
11.12581724692269
 40
11.49333826986259
 40
11.99271969728756
 40
12.37222375185835
 40
12.67996993698242
 40
12.87086566202081
 40
13.13126583532389
 40
13.38739373323697
 40
13.48208503395095
 40
13.48208503395095
 40
13.48208503395095
 40
13.48208503395095
 10
3536.432654338059
 20
99.95405179866658
 10
3535.141303271321
 20
99.36710737183091
 10
3533.556443652861
 20
98.64675754262272
 10
3533.216819292811
 20
96.0116185582973
 10
3530.976200543691
 20
95.39919220540184
 10
3530.374006323391
 20
92.94088387077749
 10
3530.468407526814
 20
90.92984697212102
 10
3529.534557622019
 20
88.56760907551574
 10
3529.856076692995
 20
86.23339604832153
 10
3528.753589456364
 20
83.10270303095904
 10
3531.451467477736
 20
82.62921312299226
 10
3532.870918003154
 20
81.04871705386671
 10
3535.446479013353
 20
80.98241772282136
 10
3536.038002228742
 20
79.17792098435882
 10
3536.172145417795
 20
77.44958581911475
 10
3538.28962054019
 20
76.63902584956872
 10
3540.234605825999
 20
78.10235162549474
 10
3542.710174825943
 20
76.7457140190757
 10
3544.349840502118
 20
75.88716452622691
 10
3546.685124294926
 20
76.23535031635157
 10
3544.335559814035
 20
77.93419764449964
 10
3545.105262697779
 20
79.67884266069745
 10
3544.341270782352
 20
81.74617092568809
 10
3541.948603373358
 20
82.14538652110945
 10
3539.388259609432
 20
83.40211087936609
 10
3538.129353606973
 20
85.89237511389796
 10
3537.516607000589
 20
87.98441597982218
 10
3535.907593813245
 20
88.65959767730771
 10
3535.748105935317
 20
90.6823149157401
 10
3536.132128293011
 20
92.64220053040105
 10
3536.113803563239
 20
94.59811923863924
 10
3536.44814715688
 20
96.16979497994975
 10
3535.550548622486
 20
97.15202408230197
 10
3535.494761971458
 20
98.51634198365218
 10
3536.505490289819
 20
99.18641103972596
 10
3536.448135299834
 20
99.79089312551991
 10
3536.432654338059
 20
99.95405179866658
 97
        0
 75
     0
 76
     1
 47
1.666295372170839
 98
        3
 10
3567.722402973604
 20
104.1068901480605
 10
3555.218530676466
 20
93.27596941819001
 10
3534.378757675376
 20
87.44393636629638
  0
MTEXT
  5
34B
330
2
100
AcDbEntity
  8
A1枠
 62
     3
100
AcDbMText
 10
3634.499916666667
 20
215.0
 30
0.0
 40
12.5
 41
226.6665
 71
     5
 72
     5
  1
Dimension
  7
表題
 73
     1
 44
1.0
  0
LWPOLYLINE
  5
34C
330
2
100
AcDbEntity
  8
A1枠
100
AcDbPolyline
 90
        4
 70
     1
 43
0.0
 10
3553.499997188533
 20
227.4999999999999
 10
3745.499997188533
 20
227.4999999999999
 10
3745.499997188533
 20
252.4999999999999
 10
3553.499997188533
 20
252.4999999999999
  0
ATTDEF
  5
34D
330
2
100
AcDbEntity
  8
A1枠
100
AcDbText
 10
3553.905587226471
 20
233.7500000000055
 30
0.0
 40
12.5
  1

  7
表題
 11
3553.905587226471
 21
240.0000000000055
 31
0.0
100
AcDbAttributeDefinition
  3
素材寸法
  2
Φ9.53XT1_COIL_20M
 70
     0
 74
     2
  0
MTEXT
  5
34E
330
2
100
AcDbEntity
  8
A1枠
 62
     3
100
AcDbMText
 10
3637.5
 20
149.9999999999994
 30
0.0
 40
12.5
 41
75.0
 71
     5
 72
     5
  1
Name\PType
  7
表題
 73
     1
 44
1.0
  0
MTEXT
  5
34F
330
2
100
AcDbEntity
  8
A1枠
 62
     3
100
AcDbMText
 10
3637.5
 20
190.9499999999997
 30
0.0
 40
12.5
 41
75.0
 71
     5
 72
     5
  1
Date
  7
表題
 73
     1
 44
1.0
  0
MTEXT
  5
350
330
2
100
AcDbEntity
  8
A1枠
 62
     3
100
AcDbMText
 10
3490.83325
 20
215.0
 30
0.0
 40
12.5
 41
111.6665
 71
     5
 72
     5
  1
Material
  7
表題
 73
     1
 44
1.0
  0
LINE
  5
351
330
2
100
AcDbEntity
  8
A1枠
100
AcDbLine
 10
3485.497313397754
 20
83.39492031190218
 30
0.0
 11
3488.997313397758
 21
83.39492031190218
 31
0.0
  0
ARC
  5
352
330
2
100
AcDbEntity
  8
A1枠
100
AcDbCircle
 10
3482.872313397757
 20
98.26992031190172
 30
0.0
 40
2.624999999999999
100
AcDbArc
 50
0.0
 51
90.0
  0
ARC
  5
353
330
2
100
AcDbEntity
  8
A1枠
100
AcDbCircle
 10
3484.622313397758
 20
100.0199203119018
 30
0.0
 40
4.375
100
AcDbArc
 50
0.0
 51
90.0
  0
HATCH
  5
354
330
2
100
AcDbEntity
  8
A1枠
100
AcDbHatch
 10
0.0
 20
0.0
 30
0.0
210
0.0
220
0.0
230
1.0
  2
SOLID
 70
     1
 71
     0
 91
        4
 92
        7
 72
     1
 73
     1
 93
       20
 10
3441.52856339776
 20
95.64492031190184
 42
0.0
 10
3433.069224412948
 20
95.64492031190184
 42
-0.3669553196555314
 10
3431.342705560774
 20
97.10920602618763
 42
-0.0821840173641001
 10
3431.342705560764
 20
99.43063459761583
 42
-0.3669553196554433
 10
3433.069224412948
 20
100.8949203119021
 42
0.0
 10
3446.99731339776
 20
100.8949203119021
 42
0.0
 10
3446.99731339776
 20
104.3949203119018
 42
0.0
 10
3433.216063397758
 20
104.3949203119018
 42
0.2769839649484354
 10
3428.583710456578
 20
101.6155085471962
 42
0.2499999999999837
 10
3428.583710456578
 20
94.92433207660837
 42
0.2769839649484511
 10
3433.216063397758
 20
92.14492031190218
 42
0.0
 10
3441.675402382561
 20
92.14492031190218
 42
-0.3669553196555126
 10
3443.401921234745
 20
90.68063459761583
 42
-0.0821840173640942
 10
3443.401921234745
 20
88.35920602618756
 42
-0.3669553196554584
 10
3441.675402382561
 20
86.89492031190184
 42
0.0
 10
3427.747313397758
 20
86.89492031190184
 42
0.0
 10
3427.747313397758
 20
83.39492031190218
 42
0.0
 10
3441.52856339776
 20
83.39492031190218
 42
0.2769839649484323
 10
3446.160916338931
 20
86.17433207660752
 42
0.2499999999999991
 10
3446.160916338931
 20
92.86550854719621
 42
0.2769839649484371
 97
        0
 92
        7
 72
     1
 73
     1
 93
       20
 10
3451.37231339776
 20
96.51992031190218
 42
0.4142135623731131
 10
3448.747313397762
 20
93.89492031190172
 42
0.0
 10
3448.747313397762
 20
86.01992031190206
 42
0.4142135623730969
 10
3451.37231339776
 20
83.39492031190218
 42
0.0
 10
3461.872313397762
 20
83.39492031190218
 42
0.0
 10
3461.872313397762
 20
86.89492031190184
 42
0.0
 10
3454.872313397754
 20
86.89492031190184
 42
-0.4142135623731128
 10
3452.247313397756
 20
89.51992031190172
 42
0.0
 10
3452.247313397756
 20
90.39492031190206
 42
-0.4142135623730971
 10
3454.872313397754
 20
93.01992031190229
 42
0.0
 10
3464.49731339776
 20
93.01992031190229
 42
0.0
 10
3464.49731339776
 20
83.39492031190218
 42
0.0
 10
3467.997313397754
 20
83.39492031190218
 42
0.0
 10
3467.997313397754
 20
100.0199203119018
 42
0.4142135623730951
 10
3463.622313397754
 20
104.3949203119018
 42
0.0
 10
3448.747313397762
 20
104.3949203119018
 42
0.0
 10
3448.747313397762
 20
100.8949203119021
 42
0.0
 10
3461.872313397762
 20
100.8949203119021
 42
-0.4142135623731129
 10
3464.49731339776
 20
98.26992031190172
 42
0.0
 10
3464.49731339776
 20
96.51992031190218
 42
0.0
 97
        0
 92
        7
 72
     1
 73
     1
 93
       20
 10
3472.372313397755
 20
96.51992031190161
 42
0.4142135623731131
 10
3469.747313397756
 20
93.89492031190172
 42
0.0
 10
3469.747313397756
 20
86.01992031190206
 42
0.4142135623730969
 10
3472.372313397755
 20
83.39492031190218
 42
0.0
 10
3482.872313397757
 20
83.39492031190218
 42
0.0
 10
3482.872313397757
 20
86.89492031190184
 42
0.0
 10
3475.872313397758
 20
86.89492031190184
 42
-0.4142135623730811
 10
3473.247313397759
 20
89.51992031190172
 42
0.0
 10
3473.247313397759
 20
90.39492031190206
 42
-0.414213562373096
 10
3475.872313397758
 20
93.01992031190229
 42
0.0
 10
3485.497313397754
 20
93.01992031190229
 42
0.0
 10
3485.497313397754
 20
83.39492031190218
 42
0.0
 10
3488.997313397758
 20
83.39492031190218
 42
0.0
 10
3488.997313397758
 20
100.0199203119018
 42
0.4142135623730951
 10
3484.622313397758
 20
104.3949203119018
 42
0.0
 10
3469.747313397756
 20
104.3949203119018
 42
0.0
 10
3469.747313397756
 20
100.8949203119016
 42
0.0
 10
3482.872313397757
 20
100.8949203119016
 42
-0.4142135623731129
 10
3485.497313397754
 20
98.26992031190172
 42
0.0
 10
3485.497313397754
 20
96.51992031190161
 42
0.0
 97
        0
 92
        7
 72
     1
 73
     1
 93
       16
 10
3494.247313397755
 20
100.8949203119016
 42
0.0
 10
3494.597313397753
 20
100.8949203119016
 42
-0.306678441558875
 10
3498.659398920381
 20
98.14475452095109
 42
0.0
 10
3503.459266287618
 20
86.1450861028527
 42
0.3066784415588886
 10
3507.521351810246
 20
83.39492031190161
 42
0.0
 10
3513.121351810241
 20
83.39492031190218
 42
0.0
 10
3513.121351810241
 20
104.3949203119018
 42
0.0
 10
3509.621351810238
 20
104.3949203119018
 42
0.0
 10
3509.621351810238
 20
86.89492031190184
 42
0.0
 10
3509.271351810239
 20
86.89492031190184
 42
-0.3066784415588917
 10
3505.20926628762
 20
89.64508610285236
 42
0.0
 10
3500.409398920383
 20
101.6447545209516
 42
0.3066784415588832
 10
3496.347313397755
 20
104.3949203119018
 42
0.0
 10
3490.74731339776
 20
104.3949203119018
 42
0.0
 10
3490.74731339776
 20
83.39492031190218
 42
0.0
 10
3494.247313397755
 20
83.39492031190218
 42
0.0
 97
        0
 75
     0
 76
     1
 47
0.0756444689632718
 98
        4
 10
3438.723186333809
 20
94.43276264478924
 10
3453.562766441246
 20
94.96227397416248
 10
3474.232181551315
 20
94.96227397416248
 10
3493.046649147945
 20
94.96227397416248
  0
MTEXT
  5
355
330
2
100
AcDbEntity
  8
A1枠
 62
     3
100
AcDbMText
 10
3489.131992147713
 20
149.8129978137103
 30
0.0
 40
10.0
 41
0.0
 71
     5
 72
     5
  1
Sudo
  7
表題
 73
     1
 44
1.0
  0
MTEXT
  5
356
330
2
100
AcDbEntity
  8
A1枠
 62
     3
100
AcDbMText
 10
3492.5
 20
189.9999999999994
 30
0.0
 40
12.5
 41
65.0
 71
     5
 72
     5
  1
Drawing
  7
表題
 73
     1
 44
1.0
  0
LWPOLYLINE
  5
357
330
2
100
AcDbEntity
  8
A1枠
100
AcDbPolyline
 90
        4
 70
     1
 43
0.0
 10
3428.499997188533
 20
227.4999999999999
 10
3553.499997188533
 20
227.4999999999999
 10
3553.499997188533
 20
252.4999999999999
 10
3428.499997188533
 20
252.4999999999999
  0
ATTDEF
  5
358
330
2
100
AcDbEntity
  8
A1枠
100
AcDbText
 10
3436.29627384416
 20
232.500000000001
 30
0.0
 40
15.0
  1

  7
表題
 11
3436.29627384416
 21
240.000000000001
 31
0.0
100
AcDbAttributeDefinition
  3
材質
  2
SUS316LTP
 70
     0
 74
     2
  0
MTEXT
  5
359
330
2
100
AcDbEntity
  8
A1枠
 62
     3
100
AcDbMText
 10
3427.5
 20
189.9999999999994
 30
0.0
 40
12.5
 41
65.0
 71
     5
 72
     5
  1
Design
  7
表題
 73
     1
 44
1.0
  0
LINE
  5
35A
330
2
100
AcDbEntity
  8
A1枠
100
AcDbLine
 10
3460.0
 20
202.4999999999994
 30
0.0
 11
3460.0
 21
122.4999999999994
 31
0.0
  0
LINE
  5
35B
330
2
100
AcDbEntity
  8
A1枠
100
AcDbLine
 10
3395.0
 20
202.4999999999994
 30
0.0
 11
3395.0
 21
122.4999999999994
 31
0.0
  0
MTEXT
  5
35C
330
2
100
AcDbEntity
  8
A1枠
 62
     3
100
AcDbMText
 10
3424.131992147713
 20
149.8129978137103
 30
0.0
 40
10.0
 41
0.0
 71
     5
 72
     5
  1
Urakawa
  7
表題
 73
     1
 44
1.0
  0
LINE
  5
35D
330
2
100
AcDbEntity
  8
A1枠
100
AcDbLine
 10
3446.997313397751
 20
100.8949203119021
 30
0.0
 11
3433.069224412948
 21
100.8949203119021
 31
0.0
  0
LINE
  5
35E
330
2
100
AcDbEntity
  8
A1枠
100
AcDbLine
 10
3433.216063397758
 20
104.3949203119018
 30
0.0
 11
3446.997313397751
 21
104.3949203119018
 31
0.0
  0
ARC
  5
35F
330
2
100
AcDbEntity
  8
A1枠
100
AcDbCircle
 10
3441.528563397751
 20
88.64492031190195
 30
0.0
 40
5.249999999999999
100
AcDbArc
 50
270.0
 51
331.9275130641565
  0
ARC
  5
360
330
2
100
AcDbEntity
  8
A1枠
100
AcDbCircle
 10
3441.528563397751
 20
90.39492031190206
 30
0.0
 40
5.249999999999999
100
AcDbArc
 50
28.07248693584337
 51
90.0
  0
ARC
  5
361
330
2
100
AcDbEntity
  8
A1枠
100
AcDbCircle
 10
3433.216063397758
 20
99.14492031190206
 30
0.0
 40
5.249999999999999
100
AcDbArc
 50
90.0
 51
151.9275130641566
  0
LINE
  5
362
330
2
100
AcDbEntity
  8
A1枠
100
AcDbLine
 10
3427.747313397758
 20
86.89492031190184
 30
0.0
 11
3427.747313397758
 21
83.39492031190218
 31
0.0
  0
LINE
  5
363
330
2
100
AcDbEntity
  8
A1枠
100
AcDbLine
 10
3427.747313397758
 20
83.39492031190218
 30
0.0
 11
3441.528563397751
 21
83.39492031190218
 31
0.0
  0
LINE
  5
364
330
2
100
AcDbEntity
  8
A1枠
100
AcDbLine
 10
3441.675402382561
 20
86.89492031190184
 30
0.0
 11
3427.747313397758
 21
86.89492031190184
 31
0.0
  0
ARC
  5
365
330
2
100
AcDbEntity
  8
A1枠
100
AcDbCircle
 10
3433.216063397758
 20
97.39492031190195
 30
0.0
 40
5.249999999999999
100
AcDbArc
 50
208.0724869358433
 51
270.0
  0
ARC
  5
366
330
2
100
AcDbEntity
  8
A1枠
100
AcDbCircle
 10
3433.069224412948
 20
97.39492031190195
 30
0.0
 40
1.75
100
AcDbArc
 50
189.3964773768342
 51
270.0
  0
LINE
  5
367
330
2
100
AcDbEntity
  8
A1枠
100
AcDbLine
 10
3441.675402382561
 20
92.14492031190218
 30
0.0
 11
3433.216063397758
 21
92.14492031190218
 31
0.0
  0
ARC
  5
368
330
2
100
AcDbEntity
  8
A1枠
100
AcDbCircle
 10
3436.387938397757
 20
89.51992031190172
 30
0.0
 40
7.109375000000079
100
AcDbArc
 50
350.6035226231593
 51
9.396477376834271
  0
ARC
  5
369
330
2
100
AcDbEntity
  8
A1枠
100
AcDbCircle
 10
3441.675402382561
 20
90.39492031190206
 30
0.0
 40
1.75
100
AcDbArc
 50
9.396477376840698
 51
90.0
  0
ARC
  5
36A
330
2
100
AcDbEntity
  8
A1枠
100
AcDbCircle
 10
3441.675402382561
 20
88.64492031190195
 30
0.0
 40
1.75
100
AcDbArc
 50
270.0
 51
350.6035226231593
  0
LINE
  5
36B
330
2
100
AcDbEntity
  8
A1枠
100
AcDbLine
 10
3433.069224412948
 20
95.64492031190184
 30
0.0
 11
3441.528563397751
 21
95.64492031190184
 31
0.0
  0
ARC
  5
36C
330
2
100
AcDbEntity
  8
A1枠
100
AcDbCircle
 10
3438.356688397753
 20
98.26992031190172
 30
0.0
 40
7.109375000000037
100
AcDbArc
 50
170.6035226231592
 51
189.3964773768342
  0
ARC
  5
36D
330
2
100
AcDbEntity
  8
A1枠
100
AcDbCircle
 10
3434.856688397758
 20
98.26992031190172
 30
0.0
 40
7.109374999999973
100
AcDbArc
 50
151.9275130641566
 51
208.0724869358433
  0
ARC
  5
36E
330
2
100
AcDbEntity
  8
A1枠
100
AcDbCircle
 10
3433.069224412948
 20
99.14492031190206
 30
0.0
 40
1.75
100
AcDbArc
 50
90.0
 51
170.6035226231592
  0
LINE
  5
36F
330
2
100
AcDbEntity
  8
A1枠
100
AcDbLine
 10
3484.622313397758
 20
104.3949203119018
 30
0.0
 11
3469.747313397756
 21
104.3949203119018
 31
0.0
  0
LINE
  5
370
330
2
100
AcDbEntity
  8
A1枠
100
AcDbLine
 10
3469.747313397756
 20
100.8949203119021
 30
0.0
 11
3482.872313397757
 21
100.8949203119021
 31
0.0
  0
LINE
  5
371
330
2
100
AcDbEntity
  8
A1枠
100
AcDbLine
 10
3472.372313397755
 20
83.39492031190218
 30
0.0
 11
3482.872313397757
 21
83.39492031190218
 31
0.0
  0
LINE
  5
372
330
2
100
AcDbEntity
  8
A1枠
100
AcDbLine
 10
3472.372313397755
 20
83.39492031190218
 30
0.0
 11
3482.872313397757
 21
83.39492031190218
 31
0.0
  0
ARC
  5
373
330
2
100
AcDbEntity
  8
A1枠
100
AcDbCircle
 10
3475.872313397758
 20
90.39492031190206
 30
0.0
 40
2.624999999999999
100
AcDbArc
 50
90.0
 51
180.0
  0
ARC
  5
374
330
2
100
AcDbEntity
  8
A1枠
100
AcDbCircle
 10
3475.872313397758
 20
89.51992031190172
 30
0.0
 40
2.624999999999999
100
AcDbArc
 50
180.0
 51
270.0
  0
LINE
  5
375
330
2
100
AcDbEntity
  8
A1枠
100
AcDbLine
 10
3485.497313397754
 20
96.51992031190218
 30
0.0
 11
3472.372313397755
 21
96.51992031190218
 31
0.0
  0
LINE
  5
376
330
2
100
AcDbEntity
  8
A1枠
100
AcDbLine
 10
3469.747313397756
 20
104.3949203119018
 30
0.0
 11
3469.747313397756
 21
100.8949203119021
 31
0.0
  0
LINE
  5
377
330
2
100
AcDbEntity
  8
A1枠
100
AcDbLine
 10
3467.997313397754
 20
83.39492031190218
 30
0.0
 11
3467.997313397754
 21
100.0199203119018
 31
0.0
  0
ARC
  5
378
330
2
100
AcDbEntity
  8
A1枠
100
AcDbCircle
 10
3472.372313397755
 20
86.01992031190206
 30
0.0
 40
2.624999999999999
100
AcDbArc
 50
180.0
 51
270.0
  0
ARC
  5
379
330
2
100
AcDbEntity
  8
A1枠
100
AcDbCircle
 10
3472.372313397755
 20
93.89492031190172
 30
0.0
 40
2.624999999999999
100
AcDbArc
 50
90.0
 51
180.0
  0
LINE
  5
37A
330
2
100
AcDbEntity
  8
A1枠
100
AcDbLine
 10
3469.747313397756
 20
93.89492031190172
 30
0.0
 11
3469.747313397756
 21
86.01992031190206
 31
0.0
  0
LINE
  5
37B
330
2
100
AcDbEntity
  8
A1枠
100
AcDbLine
 10
3482.872313397757
 20
83.39492031190218
 30
0.0
 11
3482.872313397757
 21
86.89492031190184
 31
0.0
  0
LINE
  5
37C
330
2
100
AcDbEntity
  8
A1枠
100
AcDbLine
 10
3485.497313397754
 20
93.01992031190195
 30
0.0
 11
3485.497313397754
 21
83.39492031190218
 31
0.0
  0
LINE
  5
37D
330
2
100
AcDbEntity
  8
A1枠
100
AcDbLine
 10
3475.872313397758
 20
93.01992031190195
 30
0.0
 11
3485.497313397754
 21
93.01992031190195
 31
0.0
  0
LINE
  5
37E
330
2
100
AcDbEntity
  8
A1枠
100
AcDbLine
 10
3482.872313397757
 20
86.89492031190184
 30
0.0
 11
3475.872313397758
 21
86.89492031190184
 31
0.0
  0
LINE
  5
37F
330
2
100
AcDbEntity
  8
A1枠
100
AcDbLine
 10
3473.247313397751
 20
89.51992031190172
 30
0.0
 11
3473.247313397751
 21
90.39492031190206
 31
0.0
  0
LINE
  5
380
330
2
100
AcDbEntity
  8
A1枠
100
AcDbLine
 10
3485.497313397754
 20
98.26992031190172
 30
0.0
 11
3485.497313397754
 21
96.51992031190218
 31
0.0
  0
LINE
  5
381
330
2
100
AcDbEntity
  8
A1枠
100
AcDbLine
 10
3461.872313397753
 20
83.39492031190218
 30
0.0
 11
3461.872313397753
 21
86.89492031190184
 31
0.0
  0
LINE
  5
382
330
2
100
AcDbEntity
  8
A1枠
100
AcDbLine
 10
3464.497313397751
 20
93.01992031190195
 30
0.0
 11
3464.497313397751
 21
83.39492031190218
 31
0.0
  0
LINE
  5
383
330
2
100
AcDbEntity
  8
A1枠
100
AcDbLine
 10
3464.497313397751
 20
98.26992031190172
 30
0.0
 11
3464.497313397751
 21
96.51992031190218
 31
0.0
  0
ARC
  5
384
330
2
100
AcDbEntity
  8
A1枠
100
AcDbCircle
 10
3461.872313397753
 20
98.26992031190172
 30
0.0
 40
2.624999999999999
100
AcDbArc
 50
0.0
 51
90.0
  0
LINE
  5
385
330
2
100
AcDbEntity
  8
A1枠
100
AcDbLine
 10
3464.497313397751
 20
83.39492031190218
 30
0.0
 11
3467.997313397754
 21
83.39492031190218
 31
0.0
  0
ARC
  5
386
330
2
100
AcDbEntity
  8
A1枠
100
AcDbCircle
 10
3463.622313397754
 20
100.0199203119018
 30
0.0
 40
4.375
100
AcDbArc
 50
0.0
 51
90.0
  0
LINE
  5
387
330
2
100
AcDbEntity
  8
A1枠
100
AcDbLine
 10
3446.997313397751
 20
104.3949203119018
 30
0.0
 11
3446.997313397751
 21
100.8949203119021
 31
0.0
  0
LINE
  5
388
330
2
100
AcDbEntity
  8
A1枠
100
AcDbLine
 10
3448.747313397753
 20
104.3949203119018
 30
0.0
 11
3448.747313397753
 21
100.8949203119021
 31
0.0
  0
ARC
  5
389
330
2
100
AcDbEntity
  8
A1枠
100
AcDbCircle
 10
3451.372313397751
 20
86.01992031190206
 30
0.0
 40
2.624999999999999
100
AcDbArc
 50
180.0
 51
270.0
  0
ARC
  5
38A
330
2
100
AcDbEntity
  8
A1枠
100
AcDbCircle
 10
3451.372313397751
 20
93.89492031190172
 30
0.0
 40
2.624999999999999
100
AcDbArc
 50
90.0
 51
180.0
  0
ARC
  5
38B
330
2
100
AcDbEntity
  8
A1枠
100
AcDbCircle
 10
3454.872313397754
 20
90.39492031190206
 30
0.0
 40
2.624999999999999
100
AcDbArc
 50
90.0
 51
180.0
  0
LINE
  5
38C
330
2
100
AcDbEntity
  8
A1枠
100
AcDbLine
 10
3452.247313397756
 20
89.51992031190172
 30
0.0
 11
3452.247313397756
 21
90.39492031190206
 31
0.0
  0
ARC
  5
38D
330
2
100
AcDbEntity
  8
A1枠
100
AcDbCircle
 10
3439.887938397751
 20
89.51992031190172
 30
0.0
 40
7.10937499999999
100
AcDbArc
 50
331.9275130641565
 51
28.07248693584337
  0
LINE
  5
38E
330
2
100
AcDbEntity
  8
A1枠
100
AcDbLine
 10
3448.747313397753
 20
93.89492031190172
 30
0.0
 11
3448.747313397753
 21
86.01992031190206
 31
0.0
  0
ARC
  5
38F
330
2
100
AcDbEntity
  8
A1枠
100
AcDbCircle
 10
3454.872313397754
 20
89.51992031190172
 30
0.0
 40
2.624999999999999
100
AcDbArc
 50
180.0
 51
270.0
  0
LINE
  5
390
330
2
100
AcDbEntity
  8
A1枠
100
AcDbLine
 10
3448.747313397753
 20
100.8949203119021
 30
0.0
 11
3461.872313397753
 21
100.8949203119021
 31
0.0
  0
LINE
  5
391
330
2
100
AcDbEntity
  8
A1枠
100
AcDbLine
 10
3463.622313397754
 20
104.3949203119018
 30
0.0
 11
3448.747313397753
 21
104.3949203119018
 31
0.0
  0
LINE
  5
392
330
2
100
AcDbEntity
  8
A1枠
100
AcDbLine
 10
3451.372313397751
 20
83.39492031190218
 30
0.0
 11
3461.872313397753
 21
83.39492031190218
 31
0.0
  0
LINE
  5
393
330
2
100
AcDbEntity
  8
A1枠
100
AcDbLine
 10
3451.372313397751
 20
83.39492031190218
 30
0.0
 11
3461.872313397753
 21
83.39492031190218
 31
0.0
  0
LINE
  5
394
330
2
100
AcDbEntity
  8
A1枠
100
AcDbLine
 10
3454.872313397754
 20
93.01992031190195
 30
0.0
 11
3464.497313397751
 21
93.01992031190195
 31
0.0
  0
LINE
  5
395
330
2
100
AcDbEntity
  8
A1枠
100
AcDbLine
 10
3461.872313397753
 20
86.89492031190184
 30
0.0
 11
3454.872313397754
 21
86.89492031190184
 31
0.0
  0
LINE
  5
396
330
2
100
AcDbEntity
  8
A1枠
100
AcDbLine
 10
3464.497313397751
 20
96.51992031190218
 30
0.0
 11
3451.372313397751
 21
96.51992031190218
 31
0.0
  0
LINE
  5
397
330
2
100
AcDbEntity
  8
A1枠
100
AcDbLine
 10
3428.500000000004
 20
227.4999999999999
 30
0.0
 11
3428.500000000004
 21
202.4999999999999
 31
0.0
  0
MTEXT
  5
398
330
2
100
AcDbEntity
  8
A1枠
 62
     3
100
AcDbMText
 10
3562.5
 20
190.9499999999997
 30
0.0
 40
12.5
 41
75.0
 71
     5
 72
     5
  1
Scale
  7
表題
 73
     1
 44
1.0
  0
LINE
  5
399
330
2
100
AcDbEntity
  8
A1枠
100
AcDbLine
 10
3525.0
 20
202.4999999999994
 30
0.0
 11
3525.0
 21
122.4999999999994
 31
0.0
  0
MTEXT
  5
39A
330
2
100
AcDbEntity
  8
A1枠
 62
     3
100
AcDbMText
 10
3562.5
 20
150.9499999999997
 30
0.0
 40
15.0
 41
75.0
 71
     5
 72
     5
  1
1/5
  7
表題
 73
     1
 44
1.0
  0
SPLINE
  5
39B
330
2
100
AcDbEntity
  8
A1枠
 48
5.0
100
AcDbSpline
210
0.0
220
0.0
230
1.0
 70
    11
 71
     3
 72
    36
 73
    32
 74
    30
 42
0.0000000001
 43
0.0000000001
 44
0.0000000001
 40
0.0
 40
0.0
 40
0.0
 40
0.0
 40
2.941583165689534
 40
5.220271964068178
 40
9.034547758494655
 40
18.18064101466531
 40
23.80520713408411
 40
26.61883623152454
 40
27.48122178829922
 40
28.80460406049026
 40
32.41081401038538
 40
35.16582181267744
 40
38.01146636062632
 40
41.2331296839649
 40
45.73509610966197
 40
53.10325781613522
 40
57.03790321143313
 40
64.97702827906394
 40
71.48906202875813
 40
75.89685506400599
 40
81.61393965374628
 40
85.35442258151331
 40
87.98401793804707
 40
91.55569541610864
 40
92.67868988237632
 40
94.10520324815484
 40
96.81146932696435
 40
101.3219191443879
 40
104.0476101204074
 40
106.2499683228518
 40
108.7468718616461
 40
108.7468718616461
 40
108.7468718616461
 40
108.7468718616461
 10
3550.411643513516
 20
102.4396921167849
 30
0.0
 10
3551.093303677277
 20
103.2873900325197
 30
0.0
 10
3552.303009893783
 20
104.7917546600866
 30
0.0
 10
3555.518745468535
 20
103.8564266891057
 30
0.0
 10
3559.891093923727
 20
101.6174206221602
 30
0.0
 10
3565.017506817336
 20
97.57106124547942
 30
0.0
 10
3567.480273172854
 20
92.12933148833121
 30
0.0
 10
3564.256011473499
 20
87.91706315350209
 30
0.0
 10
3566.605835345695
 20
87.89528424204704
 30
0.0
 10
3565.557100782262
 20
85.57688944553715
 30
0.0
 10
3563.305914063539
 20
81.85043103767162
 30
0.0
 10
3567.150322576575
 20
85.08106444778999
 30
0.0
 10
3570.081687015758
 20
83.49463417601199
 30
0.0
 10
3572.669508465894
 20
86.73692938210958
 30
0.0
 10
3577.378653147712
 20
88.68597817607083
 30
0.0
 10
3578.926767434716
 20
94.37108137300469
 30
0.0
 10
3580.079789241533
 20
100.6919827862226
 30
0.0
 10
3577.154983785355
 20
106.5301049064992
 30
0.0
 10
3573.729473436287
 20
111.8088993536103
 30
0.0
 10
3568.877974823453
 20
114.8774642028569
 30
0.0
 10
3563.891722099228
 20
114.834272637363
 30
0.0
 10
3560.461308721152
 20
114.9357186748375
 30
0.0
 10
3555.939787257591
 20
111.4553686049071
 30
0.0
 10
3560.949562074376
 20
114.3682209519417
 30
0.0
 10
3561.909719042832
 20
111.4683210546397
 30
0.0
 10
3559.390810230023
 20
112.130705025681
 30
0.0
 10
3557.384784907454
 20
110.0780903553173
 30
0.0
 10
3553.456326458406
 20
109.8586047307274
 30
0.0
 10
3552.213372451413
 20
106.7311884448315
 30
0.0
 10
3550.286249917424
 20
104.9752559620962
 30
0.0
 10
3550.36813482498
 20
103.3194743468795
 30
0.0
 10
3550.411643513516
 20
102.4396921167849
 30
0.0
 11
3550.411643513516
 21
102.4396921167849
 31
0.0
 11
3552.662501556633
 21
104.3335109017812
 31
0.0
 11
3554.913353103256
 21
103.9784194277643
 31
0.0
 11
3558.348865410162
 21
102.3213270872324
 31
0.0
 11
3565.219896520466
 21
96.2847756435849
 31
0.0
 11
3566.049160351949
 21
90.72167708886672
 31
0.0
 11
3565.338366494389
 21
87.99931032628364
 31
0.0
 11
3566.167623829388
 21
87.76258026717869
 31
0.0
 11
3565.93069687452
 21
86.46057940066327
 31
0.0
 11
3564.509102662896
 21
83.14639471959935
 31
0.0
 11
3566.996887660871
 21
84.33003055656172
 31
0.0
 11
3569.840069587644
 21
84.21166914164984
 31
0.0
 11
3572.446324559541
 21
86.10548792664644
 31
0.0
 11
3576.118770317807
 21
88.70949327431731
 31
0.0
 11
3579.080422218494
 21
95.45622766599876
 31
0.0
 11
3579.554289121197
 21
99.36223388018504
 31
0.0
 11
3576.829570671861
 21
106.8191512198995
 31
0.0
 11
3572.920191462253
 21
112.0271583006012
 31
0.0
 11
3569.129275730074
 21
114.2760685596147
 31
0.0
 11
3563.442905380052
 21
114.8678864780958
 31
0.0
 11
3559.770459621796
 21
114.1577071447031
 31
0.0
 11
3557.638071552601
 21
112.6189762190824
 31
0.0
 11
3561.192053833419
 21
112.9740676930989
 31
0.0
 11
3561.547450762209
 21
111.9087932710485
 31
0.0
 11
3560.125856550585
 21
111.790428241496
 31
0.0
 11
3557.638071552601
 21
110.7251574340855
 31
0.0
 11
3553.491758891632
 21
108.9497000640011
 31
0.0
 11
3551.95170120257
 21
106.7007861903471
 31
0.0
 11
3550.648576964868
 21
104.9253288202623
 31
0.0
 11
3550.411643513516
 21
102.4396921167849
 31
0.0
  0
LINE
  5
39C
330
2
100
AcDbEntity
  8
A1枠
100
AcDbLine
 10
3509.621351810238
 20
104.3949203119018
 30
0.0
 11
3513.121351810241
 21
104.3949203119018
 31
0.0
  0
ARC
  5
39D
330
2
100
AcDbEntity
  8
A1枠
100
AcDbCircle
 10
3496.347313397755
 20
100.0199203119018
 30
0.0
 40
4.375
100
AcDbArc
 50
21.80140948634528
 51
90.0
  0
LINE
  5
39E
330
2
100
AcDbEntity
  8
A1枠
100
AcDbLine
 10
3494.247313397755
 20
100.8949203119021
 30
0.0
 11
3494.597313397753
 21
100.8949203119021
 31
0.0
  0
LINE
  5
39F
330
2
100
AcDbEntity
  8
A1枠
100
AcDbLine
 10
3490.747313397751
 20
104.3949203119018
 30
0.0
 11
3496.347313397755
 21
104.3949203119018
 31
0.0
  0
ARC
  5
3A0
330
2
100
AcDbEntity
  8
A1枠
100
AcDbCircle
 10
3507.521351810237
 20
87.76992031190161
 30
0.0
 40
4.375
100
AcDbArc
 50
201.8014094863453
 51
270.0
  0
LINE
  5
3A1
330
2
100
AcDbEntity
  8
A1枠
100
AcDbLine
 10
3488.997313397758
 20
83.39492031190218
 30
0.0
 11
3488.997313397758
 21
100.0199203119018
 31
0.0
  0
LINE
  5
3A2
330
2
100
AcDbEntity
  8
A1枠
100
AcDbLine
 10
3513.121351810241
 20
83.39492031190218
 30
0.0
 11
3507.521351810237
 21
83.39492031190161
 31
0.0
  0
LINE
  5
3A3
330
2
100
AcDbEntity
  8
A1枠
100
AcDbLine
 10
3494.247313397755
 20
83.39492031190218
 30
0.0
 11
3490.747313397751
 21
83.39492031190218
 31
0.0
  0
LINE
  5
3A4
330
2
100
AcDbEntity
  8
A1枠
100
AcDbLine
 10
3509.621351810238
 20
86.89492031190184
 30
0.0
 11
3509.271351810239
 21
86.89492031190184
 31
0.0
  0
ARC
  5
3A5
330
2
100
AcDbEntity
  8
A1枠
100
AcDbCircle
 10
3509.271351810239
 20
91.26992031190184
 30
0.0
 40
4.375
100
AcDbArc
 50
201.8014094863453
 51
270.0
  0
LINE
  5
3A6
330
2
100
AcDbEntity
  8
A1枠
100
AcDbLine
 10
3498.659398920381
 20
98.14475452095109
 30
0.0
 11
3503.459266287618
 21
86.1450861028527
 31
0.0
  0
LINE
  5
3A7
330
2
100
AcDbEntity
  8
A1枠
100
AcDbLine
 10
3513.121351810241
 20
104.3949203119018
 30
0.0
 11
3513.121351810241
 21
83.39492031190218
 31
0.0
  0
LINE
  5
3A8
330
2
100
AcDbEntity
  8
A1枠
100
AcDbLine
 10
3494.247313397755
 20
83.39492031190218
 30
0.0
 11
3494.247313397755
 21
100.8949203119021
 31
0.0
  0
LINE
  5
3A9
330
2
100
AcDbEntity
  8
A1枠
100
AcDbLine
 10
3490.747313397751
 20
83.39492031190218
 30
0.0
 11
3490.747313397751
 21
104.3949203119018
 31
0.0
  0
LINE
  5
3AA
330
2
100
AcDbEntity
  8
A1枠
100
AcDbLine
 10
3509.621351810238
 20
104.3949203119018
 30
0.0
 11
3509.621351810238
 21
86.89492031190184
 31
0.0
  0
ARC
  5
3AB
330
2
100
AcDbEntity
  8
A1枠
100
AcDbCircle
 10
3494.597313397753
 20
96.51992031190218
 30
0.0
 40
4.375
100
AcDbArc
 50
21.80140948634528
 51
90.0
  0
LINE
  5
3AC
330
2
100
AcDbEntity
  8
A1枠
100
AcDbLine
 10
3505.20926628762
 20
89.64508610285236
 30
0.0
 11
3500.409398920373
 21
101.6447545209513
 31
0.0
  0
CIRCLE
  5
3AD
330
2
100
AcDbEntity
  8
A1枠
 48
5.0
100
AcDbCircle
 10
3552.070171176492
 20
91.78695151091744
 30
0.0
 40
8.340429885705384
  0
LINE
  5
3AE
330
2
100
AcDbEntity
  8
A1枠
100
AcDbLine
 10
3553.500000000004
 20
202.4999999999999
 30
0.0
 11
3553.500000000004
 21
227.4999999999999
 31
0.0
  0
MTEXT
  5
3AF
330
2
100
AcDbEntity
  8
A1枠
 62
     3
100
AcDbMText
 10
3690.0
 20
163.7499999999994
 30
0.0
 40
17.5
 41
310.0
 71
     4
 72
     5
  1
Gamma Detector LXe Vessel
  7
表題
 73
     1
 44
1.0
  0
MTEXT
  5
3B0
330
2
100
AcDbEntity
  8
A1枠
 62
     3
100
AcDbMText
 10
3690.0
 20
94.99999999999943
 30
0.0
 40
20.0
 41
310.0
 71
     4
 72
     5
  1
TC-01196-223
  7
表題
 73
     1
 44
1.0
  0
MTEXT
  5
3B1
330
2
100
AcDbEntity
  8
A1枠
 62
     3
100
AcDbMText
 10
3756.25
 20
189.9999999999994
 30
0.0
 40
15.0
 41
162.5
 71
     5
 72
     5
  1
27/Mar/2002
  7
表題
 73
     1
 44
1.0
  0
MTEXT
  5
3B2
330
2
100
AcDbEntity
  8
A1枠
 62
     3
100
AcDbMText
 10
3690.0
 20
136.2499999999994
 30
0.0
 40
17.5
 41
310.0
 71
     4
 72
     5
  1
Cooling Coil
  7
表題
 73
     1
 44
1.0
  0
LWPOLYLINE
  5
3B3
330
2
100
AcDbEntity
  8
A1枠
100
AcDbPolyline
 90
        4
 70
     1
 43
0.0
 10
3745.499997188533
 20
227.4999999999999
 10
3820.499997188533
 20
227.4999999999999
 10
3820.499997188533
 20
252.4999999999999
 10
3745.499997188533
 20
252.4999999999999
  0
LINE
  5
3B4
330
2
100
AcDbEntity
  8
A1枠
100
AcDbLine
 10
3675.0
 20
202.4999999999994
 30
0.0
 11
3675.0
 21
122.4999999999994
 31
0.0
  0
MTEXT
  5
3B5
330
2
100
AcDbEntity
  8
A1枠
 62
     3
100
AcDbMText
 10
3783.000000000003
 20
214.9999999999999
 30
0.0
 40
12.5
 41
75.0
 71
     5
 72
     5
  1
Weight
  7
表題
 73
     1
 44
1.0
  0
LINE
  5
3B6
330
2
100
AcDbEntity
  8
A1枠
100
AcDbLine
 10
3745.500000000003
 20
227.4999999999999
 30
0.0
 11
3745.500000000003
 21
202.4999999999999
 31
0.0
  0
MTEXT
  5
3B7
330
2
100
AcDbEntity
  8
A1枠
 62
     3
100
AcDbMText
 10
3840.167934843594
 20
190.1535714285714
 30
0.0
 40
12.5
 41
72.6665
 71
     4
 72
     5
  1
FileNo.
  7
表題
 73
     1
 44
1.0
  0
LINE
  5
3B8
330
2
100
AcDbEntity
  8
A1枠
100
AcDbLine
 10
3835.166666666664
 20
202.4999999999994
 30
0.0
 11
3835.166666666664
 21
177.4999999999994
 31
0.0
  0
LWPOLYLINE
  5
3B9
330
2
100
AcDbEntity
  8
A1枠
100
AcDbPolyline
 90
        4
 70
     1
 43
0.0
 10
3820.499997188533
 20
227.4999999999999
 10
3895.499997188533
 20
227.4999999999999
 10
3895.499997188533
 20
252.4999999999999
 10
3820.499997188533
 20
252.4999999999999
  0
ATTDEF
  5
3BA
330
2
100
AcDbEntity
  8
A1枠
100
AcDbText
 10
3874.713480334601
 20
232.5
 30
0.0
 40
15.0
  1

  7
表題
 72
     2
 11
3885.499997188533
 21
240.0
 31
0.0
100
AcDbAttributeDefinition
  3
数量
  2
1
 70
     0
 74
     2
  0
MTEXT
  5
3BB
330
2
100
AcDbEntity
  8
A1枠
 62
     3
100
AcDbMText
 10
3858.000000000003
 20
214.9999999999994
 30
0.0
 40
12.5
 41
75.0
 71
     5
 72
     5
  1
Quantity
  7
表題
 73
     1
 44
1.0
  0
LINE
  5
3BC
330
2
100
AcDbEntity
  8
A1枠
100
AcDbLine
 10
3820.500000000003
 20
202.4999999999999
 30
0.0
 11
3820.500000000003
 21
227.4999999999999
 31
0.0
  0
LINE
  5
3BD
330
2
100
AcDbEntity
  8
A1枠
100
AcDbLine
 10
3895.500000000003
 20
227.4999999999999
 30
0.0
 11
3895.500000000003
 21
202.4999999999999
 31
0.0
  0
LINE
  5
3BE
330
2
100
AcDbEntity
  8
A1枠
100
AcDbLine
 10
4000.000001405733
 20
67.50000136684491
 30
0.0
 11
4000.000001405733
 21
202.4999999999994
 31
0.0
  0
LINE
  5
3BF
330
2
100
AcDbEntity
  8
A1枠
100
AcDbLine
 10
4000.0
 20
67.50000136684469
 30
0.0
 11
4000.0
 21
202.4999999999994
 31
0.0
  0
LINE
  5
3C0
330
2
100
AcDbEntity
  8
A1枠
100
AcDbLine
 10
3985.0
 20
94.99999999999943
 30
0.0
 11
4000.0
 21
94.99999999999943
 31
0.0
  0
LINE
  5
3C1
330
2
100
AcDbEntity
  8
A1枠
100
AcDbLine
 10
3969.792740577995
 20
112.4999999999994
 30
0.0
 11
3990.0
 21
77.49999999999943
 31
0.0
  0
LINE
  5
3C2
330
2
100
AcDbEntity
  8
A1枠
100
AcDbLine
 10
4000.000001405733
 20
227.4999999999999
 30
0.0
 11
4000.000001405733
 21
202.4999999999994
 31
0.0
  0
LINE
  5
3C3
330
2
100
AcDbEntity
  8
AM_0
100
AcDbLine
 10
3396.491620348855
 20
969.8396193772692
 30
0.0
 11
3444.191620348855
 21
969.249715217813
 31
0.0
  0
DIMENSION
  5
3C4
330
2
100
AcDbEntity
  8
AM_5
100
AcDbDimension
  2
*D34
 10
3490.341620348853
 20
894.3906134674461
 30
0.0
 11
3420.341620348854
 21
908.185029711101
 31
0.0
 70
    32
  1
28 diam.
 71
     5
 42
27.99999999999963
  3
スタイル2
100
AcDbAlignedDimension
 13
3350.341620348855
 23
1168.337309648696
 33
0.0
 14
3490.341620348853
 24
1269.92773221714
 34
0.0
100
AcDbRotatedDimension
1001
ACAD
1000
DSTYLE
1002
{
1070
   144
1040
0.2
1002
}
  0
LINE
  5
3D1
330
2
100
AcDbEntity
  8
AM_5
100
AcDbLine
 10
3420.341620348855
 20
822.8873183760001
 30
0.0
 11
3740.006399339507
 21
822.8873183759997
 31
0.0
  0
LINE
  5
3D2
330
2
100
AcDbEntity
  8
AM_5
380
     1
100
AcDbLine
 10
3440.341620348856
 20
817.5283345759998
 30
0.0
 11
3420.341620348855
 21
822.8873183759997
 31
0.0
  0
LINE
  5
3D3
330
2
100
AcDbEntity
  8
AM_5
380
     1
100
AcDbLine
 10
3420.341620348855
 20
822.8873183759997
 30
0.0
 11
3440.341620348856
 21
828.2463021759994
 31
0.0
  0
LINE
  5
3D4
330
2
100
AcDbEntity
  8
AM_5
380
     1
100
AcDbLine
 10
3420.341620348855
 20
822.8873183759997
 30
0.0
 11
3440.341620348856
 21
822.8873183759997
 31
0.0
  0
MTEXT
  5
3D5
330
2
100
AcDbEntity
  8
AM_5
 62
     2
100
AcDbMText
 10
3576.690322328504
 20
835.860388717435
 30
0.0
 40
17.5
 41
0.0
 71
     5
 72
     1
  1
750
  7
スタイル１
 73
     1
 44
1.0
  0
LINE
  5
3D6
330
2
100
AcDbEntity
  8
AM_5
380
     1
100
AcDbLine
 10
3720.006399339506
 20
828.2463021759994
 30
0.0
 11
3740.006399339507
 21
822.8873183759997
 31
0.0
  0
LINE
  5
3D7
330
2
100
AcDbEntity
  8
AM_5
380
     1
100
AcDbLine
 10
3740.006399339507
 20
822.8873183759997
 30
0.0
 11
3720.006399339506
 21
817.5283345759998
 31
0.0
  0
LINE
  5
3D8
330
2
100
AcDbEntity
  8
AM_5
380
     1
100
AcDbLine
 10
3740.006399339507
 20
822.8873183759997
 30
0.0
 11
3720.006399339506
 21
822.8873183759997
 31
0.0
  0
LINE
  5
3D9
330
2
100
AcDbEntity
  8
AM_5
380
     1
100
AcDbLine
 10
3700.006399339507
 20
828.2463021759994
 30
0.0
 11
3720.006399339506
 21
822.8873183759997
 31
0.0
  0
LINE
  5
3DA
330
2
100
AcDbEntity
  8
AM_5
380
     1
100
AcDbLine
 10
3720.006399339506
 20
822.8873183759997
 30
0.0
 11
3700.006399339507
 21
817.5283345759998
 31
0.0
  0
LINE
  5
3DB
330
2
100
AcDbEntity
  8
AM_5
380
     1
100
AcDbLine
 10
3720.006399339506
 20
822.8873183759997
 30
0.0
 11
3700.006399339507
 21
822.8873183759997
 31
0.0
  0
LINE
  5
3DC
330
2
100
AcDbEntity
  8
細線
100
AcDbLine
 10
3350.341620348855
 20
1218.197399652875
 30
0.0
 11
3350.341620348855
 21
1168.337309648696
 31
0.0
1001
GENIUS_GENOBJ-N-CEN_13
1002
{
1000
OWNER
1000
GEN
1002
}
1001
GENIUS_GENODEF_13
1002
{
1000
HIER
1070
     0
1002
}
1002
{
1000
MANEDIT
1070
     0
1002
}
1002
{
1000
NOSEL
1070
     0
1002
}
1002
{
1000
BEHIND
1070
     0
1002
}
1002
{
1000
OTHER
1070
     0
1002
}
1002
{
1000
REACTOR
1002
}
  0
ARC
  5
3DD
330
2
100
AcDbEntity
  8
細線
100
AcDbCircle
 10
6920.341620348856
 20
-3604.156797209897
 30
0.0
 40
5960.0
100
AcDbArc
 50
123.7561341305644
 51
125.6792198090282
  0
ARC
  5
3DE
330
2
100
AcDbEntity
  8
細線
100
AcDbCircle
 10
6924.441696304151
 20
-3601.295088679307
 30
0.0
 40
6000.0
100
AcDbArc
 50
125.1530804362192
 51
126.321760478879
  0
LINE
  5
3DF
330
2
100
AcDbEntity
  8
細線
100
AcDbLine
 10
3490.341620348853
 20
1318.759005442022
 30
0.0
 11
3490.341620348853
 21
1269.927732217141
 31
0.0
1001
GENIUS_GENOBJ-N-CEN_13
1002
{
1000
OWNER
1000
GEN
1002
}
1001
GENIUS_GENODEF_13
1002
{
1000
HIER
1070
     0
1002
}
1002
{
1000
MANEDIT
1070
     0
1002
}
1002
{
1000
NOSEL
1070
     0
1002
}
1002
{
1000
BEHIND
1070
     0
1002
}
1002
{
1000
OTHER
1070
     0
1002
}
1002
{
1000
REACTOR
1002
}
  0
LINE
  5
3E0
330
2
100
AcDbEntity
  8
AM_5
 62
     2
100
AcDbLine
 10
3560.068888563435
 20
1416.006639401202
 30
0.0
 11
3585.068888563435
 21
1416.006639401202
 31
0.0
  0
LINE
  5
3E1
330
2
100
AcDbEntity
  8
AM_5
 62
     2
100
AcDbLine
 10
3540.775138563436
 20
1416.006639401202
 30
0.0
 11
3610.862638563435
 21
1416.006639401202
 31
0.0
  0
ARC
  5
3E2
330
2
100
AcDbEntity
  8
細線
100
AcDbCircle
 10
6920.341620348856
 20
-3604.156797209897
 30
0.0
 40
6000.0
100
AcDbArc
 50
123.7423480801593
 51
124.8898099186254
  0
LINE
  5
3E3
330
2
100
AcDbEntity
  8
AM_5
 62
     2
100
AcDbLine
 10
3540.775138563436
 20
1416.006639401202
 30
0.0
 11
3492.037872706783
 21
1324.318575526626
 31
0.0
  0
LINE
  5
3E4
330
2
100
AcDbEntity
  8
AM_5
 62
     2
100
AcDbLine
 10
3495.734125064713
 20
1331.272232370798
 30
0.0
 11
3488.341620348854
 21
1317.364918682454
 31
0.0
  0
LINE
  5
3E5
330
2
100
AcDbEntity
  8
AM_5
 62
     2
100
AcDbLine
 10
3493.90319249108
 20
1332.245474075727
 30
0.0
 11
3488.341620348854
 21
1317.364918682454
 31
0.0
  0
LINE
  5
3E6
330
2
100
AcDbEntity
  8
AM_5
 62
     2
100
AcDbLine
 10
3488.341620348854
 20
1317.364918682454
 30
0.0
 11
3497.565057638347
 21
1330.298990665871
 31
0.0
  0
SPLINE
  5
3E7
330
2
100
AcDbEntity
  8
細線
100
AcDbSpline
210
0.0
220
0.0
230
1.0
 70
     8
 71
     3
 72
    10
 73
     6
 74
     4
 42
0.0000000001
 43
0.0000000001
 44
0.0000000001
 40
0.0
 40
0.0
 40
0.0
 40
0.0
 40
15.25754957285387
 40
33.70963166839624
 40
45.91964602032224
 40
45.91964602032224
 40
45.91964602032224
 40
45.91964602032224
 10
3587.586514520141
 20
1385.075607706604
 30
0.0
 10
3586.008711261203
 20
1379.058085027057
 30
0.0
 10
3582.522753935617
 20
1365.763127529775
 30
0.0
 10
3605.489183337597
 20
1366.307475764074
 30
0.0
 10
3607.722979961604
 20
1355.393600271833
 30
0.0
 10
3608.612504553804
 20
1351.0475642262
 30
0.0
 11
3587.586514520141
 21
1385.075607706604
 31
0.0
 11
3587.021151249014
 21
1369.828536402916
 31
0.0
 11
3603.866363580541
 21
1362.297390728691
 31
0.0
 11
3608.612504553804
 21
1351.0475642262
 31
0.0
  0
LINE
  5
3E8
330
2
100
AcDbEntity
  8
AM_5
 62
     2
100
AcDbLine
 10
3537.666066237969
 20
1763.504867260826
 30
0.000000000000003
 11
3537.666066237969
 21
1788.504867260826
 31
0.0
  0
LINE
  5
3E9
330
2
100
AcDbEntity
  8
AM_5
 62
     2
100
AcDbLine
 10
3562.666066237969
 20
1788.504867260826
 30
0.0
 11
3537.666066237969
 21
1763.504867260826
 31
0.000000000000003
  0
LINE
  5
3EA
330
2
100
AcDbEntity
  8
AM_5
 62
     2
100
AcDbLine
 10
3559.950679119067
 20
1583.121460481616
 30
0.0
 11
3559.950679119067
 21
1558.121460481616
 31
0.000000000000003
  0
LINE
  5
3EB
330
2
100
AcDbEntity
  8
AM_5
 62
     2
100
AcDbLine
 10
3572.450679119067
 20
1583.121460481616
 30
0.0
 11
3572.450679119067
 21
1558.121460481616
 31
0.000000000000003
  0
DIMENSION
  5
3EC
330
2
100
AcDbEntity
  8
AM_5
100
AcDbDimension
  2
*D35
 10
3451.691620348855
 20
1882.836034587576
 30
0.0
 11
3301.508287015522
 21
1882.836034587576
 31
0.0
 70
   160
  1
12.5\Pdiam.
 71
     5
 42
12.54000000000014
  3
スタイル2
100
AcDbAlignedDimension
 13
3388.991620348855
 23
1679.832729381043
 33
0.0
 14
3451.691620348855
 24
1679.832729381043
 34
0.0
100
AcDbRotatedDimension
1001
ACAD
1000
DSTYLE
1002
{
1070
   144
1040
0.2
1070
   271
1070
     1
1002
}
  0
DIMENSION
  5
3FB
330
2
100
AcDbEntity
  8
AM_5
100
AcDbDimension
  2
*D7
 10
3220.163931213432
 20
2169.839619377288
 30
0.0
 11
3206.413931213431
 21
1919.836174379166
 31
0.0
 71
     5
 42
100.0013779992491
  3
スタイル2
100
AcDbAlignedDimension
 13
3347.341620348855
 23
1669.832729381043
 33
0.0
 14
3396.491620348855
 24
2169.839619377288
 34
0.0
 50
90.0
100
AcDbRotatedDimension
1001
ACAD
1000
DSTYLE
1002
{
1070
   144
1040
0.2
1002
}
  0
DIMENSION
  5
408
330
2
100
AcDbEntity
  8
AM_5
100
AcDbDimension
  2
*D36
 10
3488.341620348855
 20
1963.773218179862
 30
0.0
 11
3292.758287015522
 21
1963.773218179862
 31
0.0
 70
   160
  1
27.2\Pdiam.
 71
     5
 42
27.2
  3
スタイル2
100
AcDbAlignedDimension
 13
3352.341620348855
 23
1669.832729381043
 33
0.0
 14
3488.341620348855
 24
1669.832729381043
 34
0.0
100
AcDbRotatedDimension
1001
ACAD
1000
DSTYLE
1002
{
1070
   144
1040
0.2
1002
}
  0
LINE
  5
417
330
2
100
AcDbEntity
  8
細線
100
AcDbLine
 10
2765.520737075171
 20
2396.101575431528
 30
0.0
 11
2765.520737075171
 21
2231.101575431528
 31
0.0
  0
LINE
  5
418
330
2
100
AcDbEntity
  8
細線
100
AcDbLine
 10
2845.520737075172
 20
2136.101575431528
 30
0.0
 11
2845.520737075172
 21
2316.101575431528
 31
0.0
  0
LEADER
  5
419
330
2
100
AcDbEntity
  8
AM_5
100
AcDbLeader
  3
スタイル2
 73
     0
 75
     1
 40
20.60913705583756
 41
89.27664974619288
 76
     3
 10
2745.520737075182
 20
2490.843380033695
 30
0.0
 10
2546.463160468234
 20
2243.059002602155
 30
0.0
 10
2536.463160468234
 20
2243.059002602155
 30
0.0
340
41A
1001
ACAD
1000
DSTYLE
1002
{
1070
   147
1040
5.0
1070
    77
1070
     1
1002
}
  0
MTEXT
  5
41A
102
{ACAD_REACTORS
330
419
102
}
330
2
100
AcDbEntity
  8
AM_5
100
AcDbMText
 10
2531.463160468234
 20
2248.059002602155
 30
0.0
 40
17.5
 41
0.0
 71
     9
 72
     1
  1
Outer Vessel Front Wall
  7
スタイル１
 73
     1
 44
1.0
  0
REGION
  5
41B
330
2
100
AcDbEntity
  8
外槽側板
100
AcDbModelerGeometry
 70
     1
  1
koo ln n o          
  1
h J1410(1 nl ^ \VL kqoqm QK mk R01 R>- nh nfenfenk mool 
  1
rn fqfffffffffffffffj:rooh n:rono 
  1
=0;& {rn {n {rn {rn |
  1
3*2/ {rn {rn {m {o |
  1
,7:33 {rn {rn {rn {l {rn {n |
  1
9><: {rn {rn {k {m {rn {j 90-(>-; ;0*=3: 0*+ |
  1
300/ {rn {rn {i {l |
  1
/3>1:r,*-9><: {rn mhjlqhlmmhfnklimig mkigqnljjigmmojfnh o o o n n o o 90-(>-;@) V V V V |
  1
<0:;8: {rn {h {g {rn {f -:):-,:; {k {rn |
  1
<0:;8: {rn {no {i {rn {nn -:):-,:; {k {rn |
  1
<0:;8: {rn {i {nm {rn {nl -:):-,:; {k {rn |
  1
:;8: {rn {nk {nj {i {ni 90-(>-; |
  1
<0:;8: {rn {nm {h {rn {nh 90-(>-; {k {rn |
  1
:;8: {rn {ng {nk {h {nf 90-(>-; |
  1
<0:;8: {rn {g {no {rn {mo 90-(>-; {k {rn |
  1
:;8: {rn {nj {mn {g {mm 90-(>-; |
  1
):-+:' {rn {f {ml |
  1
):-+:' {rn {f {mk |
  1
,+->687+r<*-): {rn mhijqjmohlhohjnh mhkjqhfnhlnmjgkhli o o rn o V V |
  1
:;8: {rn {ng {mj {no {mi 90-(>-; |
  1
):-+:' {rn {nh {mh |
  1
,+->687+r<*-): {rn mhjoqjmohlhohjnigm mhkjqhfnhlnmjgkhli o n o o V V |
  1
:;8: {rn {mj {mn {nm {mg 90-(>-; |
  1
):-+:' {rn {nl {mf |
  1
:336/,:r<*-): {rn mgijqjmohlhohjnigm njjfqljmoffknghknj o o o n jjo o o n V V |
  1
/061+ {rn mhijqjmohlhohjnh mhkjqhfnhlnmjgkhli o |
  1
/061+ {rn mhijqjmohlhohjnh mnooqngkhfohlgllfk o |
  1
):-+:' {rn {mo {lo |
  1
:336/,:r<*-): {rn mgijqjmohlhohjnigm njjfqljmoffknghknj o o o n nnfm o o n V V |
  1
/061+ {rn mhjoqjmohlhohjnigm mhkjqhfnhlnmjgkhli o |
  1
,+->687+r<*-): {rn mhkjqjmohlhohjnh mhkjqmfikkgghnfjln o o rn o V V |
  1
/061+ {rn mhkjqjmohlhohjnh mofiqnonjhjklnjmgn o |
  1
/061+ {rn mhkjqjmohlhohjnh mhkjqmfikkgghnfjln o |
  0
REGION
  5
41C
330
2
100
AcDbEntity
  8
内槽側板
100
AcDbModelerGeometry
 70
     1
  1
koo li n o          
  1
h J1410(1 nl ^ \VL kqoqm QK mk R01 R>- nh nfenfenk mool 
  1
rn fqfffffffffffffffj:rooh n:rono 
  1
=0;& {rn {n {rn {rn |
  1
3*2/ {rn {rn {m {o |
  1
,7:33 {rn {rn {rn {l {rn {n |
  1
9><: {rn {rn {k {m {rn {j -:):-,:; ;0*=3: 0*+ |
  1
300/ {rn {rn {i {l |
  1
/3>1:r,*-9><: {rn miknqghjnfihinflgh mlfkqigngkfifhkohf o o o rn rn o o 90-(>-;@) V V V V |
  1
<0:;8: {rn {h {g {rn {f 90-(>-; {k {rn |
  1
<0:;8: {rn {no {i {rn {nn -:):-,:; {k {rn |
  1
<0:;8: {rn {i {nm {rn {nl 90-(>-; {k {rn |
  1
:;8: {rn {nk {nj {i {ni 90-(>-; |
  1
<0:;8: {rn {nh {h {rn {ng -:):-,:; {k {rn |
  1
:;8: {rn {nf {nj {h {mo 90-(>-; |
  1
<0:;8: {rn {g {nh {rn {mn 90-(>-; {k {rn |
  1
:;8: {rn {mm {nk {g {ml 90-(>-; |
  1
):-+:' {rn {f {mk |
  1
):-+:' {rn {f {mj |
  1
,+->687+r<*-): {rn mimfqjmnoogkhklnhn mikhqoklhjoimllfh o riqiloolhmlgmfjlnih:rooj roqffffffffhgomnlomm o V V |
  1
<0:;8: {rn {nm {no {rn {mi -:):-,:; {k {rn |
  1
:;8: {rn {mh {nf {no {mg 90-(>-; |
  1
):-+:' {rn {nn {mf |
  1
:336/,:r<*-): {rn mgijqjmohlhohjnh njjfqljmoffknghlin o o o n iml o o n V V |
  1
:;8: {rn {lo {mm {nm {ln 90-(>-; |
  1
):-+:' {rn {mn {lm |
  1
:336/,:r<*-): {rn mgijqjmohlhohjnh njjfqljmoffknghlin o o o n nnnl o o n V V |
  1
/061+ {rn mimfqjmnoogkhklnhn mikhqoklhjoimllfh o |
  1
/061+ {rn mimfqkghnmooogohfl mnljqfogligihnnnhg o |
  1
:;8: {rn {lo {mh {nh {ll 90-(>-; |
  1
):-+:' {rn {ng {lk |
  1
,+->687+r<*-): {rn mijlqkghjimmikflfm mnkmqjhgghmoiioohn o rn o o V V |
  1
/061+ {rn mikiqkghjimmikfknn mnkmqjhgghmoiioohn o |
  1
):-+:' {rn {mi {lj |
  1
,+->687+r<*-): {rn mijlqjmohlhohjnh mijoqjfljfkmlofjmf o rn riqkfilfohmifkfifhg:ronk o V V |
  1
/061+ {rn mikiqjmohlhohjnh mijoqjfljfkmlofjnn o |
  1
,+->687+r<*-): {rn mijlqjmohlhohjnh mijoqjfljfkmlofjmf o riqjlomgjngggkmnkik:rooj roqffffffffhgihhiggl o V V |
  1
/061+ {rn mijlqkghjimmikflfm mnkmqjhgghmoiioohn o |
  1
/061+ {rn mijlqjmohlhohjnh mijoqjfljfkmlofjmf o |
  0
ARC
  5
41D
330
2
100
AcDbEntity
  8
細線
100
AcDbCircle
 10
2865.52073707517
 20
1559.352099418741
 30
0.0
 40
550.0
100
AcDbArc
 50
102.6022648414533
 51
121.8199941436487
  0
ARC
  5
41E
330
2
100
AcDbEntity
  8
細線
100
AcDbCircle
 10
2865.52073707517
 20
1559.352099418741
 30
0.0
 40
570.0
100
AcDbArc
 50
102.1531974690418
 51
121.8199941436487
  0
LINE
  5
41F
330
2
100
AcDbEntity
  8
細線
100
AcDbLine
 10
2564.986900395544
 20
2043.68608853227
 30
0.0
 11
2575.531947296583
 21
2026.691913475656
 31
0.0
  0
LINE
  5
420
330
2
100
AcDbEntity
  8
外槽内板
100
AcDbLine
 10
2588.133504547335
 20
2034.858748405429
 30
0.0
 11
2588.385445721292
 21
2034.426862257394
 31
0.0
  0
LINE
  5
421
330
2
100
AcDbEntity
  8
細線
100
AcDbLine
 10
2588.24539852225
 20
2036.659533501183
 30
0.0
 11
2589.250019314109
 21
2034.930158740014
 31
0.0
  0
LINE
  5
422
330
2
100
AcDbEntity
  8
細線
100
AcDbLine
 10
2589.543457048121
 20
2037.411230413054
 30
0.0
 11
2590.548077839977
 21
2035.681855651886
 31
0.0
  0
LINE
  5
423
330
2
100
AcDbEntity
  8
細線
100
AcDbLine
 10
2588.24539852225
 20
2036.659533501183
 30
0.0
 11
2589.543457048121
 21
2037.411230413054
 31
0.0
  0
LINE
  5
424
330
2
100
AcDbEntity
  8
内槽内板
100
AcDbLine
 10
2646.487562264941
 20
2142.578872066007
 30
0.0
 11
2646.510776656783
 21
2135.104335400097
 31
0.0
  0
LWPOLYLINE
  5
425
330
2
100
AcDbEntity
  8
細線
100
AcDbPolyline
 90
        4
 70
     1
 43
0.0
 10
2765.520737075171
 20
2196.101575431528
 10
2845.520737075172
 20
2196.101575431528
 10
2845.520737075172
 20
2216.101575431528
 10
2765.520737075171
 20
2216.101575431528
  0
LWPOLYLINE
  5
426
330
2
100
AcDbEntity
  8
細線
100
AcDbPolyline
 90
        4
 70
     1
 43
0.0
 10
2765.520737075171
 20
2116.101575431528
 10
2845.520737075172
 20
2116.101575431528
 10
2845.520737075172
 20
2136.101575431528
 10
2765.520737075171
 20
2136.101575431528
  0
LINE
  5
427
330
2
100
AcDbEntity
  8
細線
100
AcDbLine
 10
2780.520737075172
 20
2136.101575431528
 30
0.0
 11
2845.520737075172
 21
2136.101575431528
 31
0.0
  0
LINE
  5
428
330
2
100
AcDbEntity
  8
細線
100
AcDbLine
 10
2765.520737075171
 20
2216.101575431528
 30
0.0
 11
2765.520737075171
 21
2196.101575431528
 31
0.0
  0
LINE
  5
429
330
2
100
AcDbEntity
  8
細線
100
AcDbLine
 10
2745.520737075171
 20
2116.577368048941
 30
0.0
 11
2745.520737075171
 21
2096.101575431528
 31
0.0
  0
LINE
  5
42A
330
2
100
AcDbEntity
  8
細線
100
AcDbLine
 10
2780.520737075172
 20
2136.101575431528
 30
0.0
 11
2765.520737075171
 21
2151.101575431528
 31
0.0
  0
LINE
  5
42B
330
2
100
AcDbEntity
  8
細線
100
AcDbLine
 10
2765.520737075171
 20
2181.101575431528
 30
0.0
 11
2765.520737075171
 21
2151.101575431528
 31
0.0
  0
LINE
  5
42C
330
2
100
AcDbEntity
  8
細線
100
AcDbLine
 10
2780.520737075172
 20
2196.101575431528
 30
0.0
 11
2765.520737075171
 21
2181.101575431528
 31
0.0
  0
LINE
  5
42D
330
2
100
AcDbEntity
  8
細線
100
AcDbLine
 10
2780.520737075172
 20
2216.101575431528
 30
0.0
 11
2765.520737075171
 21
2231.101575431528
 31
0.0
  0
DIMENSION
  5
42E
330
2
100
AcDbEntity
  8
AM_5
100
AcDbDimension
  2
*D5
 10
2865.520737075171
 20
2779.311574239208
 30
0.0
 11
2490.520737075175
 21
2793.061574239208
 31
0.0
 71
     5
 42
749.9999999999931
  3
スタイル2
100
AcDbAlignedDimension
 13
2115.520737075178
 23
2724.16515255934
 33
0.0
 14
2865.520737075171
 24
2785.657910492562
 34
0.0
100
AcDbRotatedDimension
  0
MTEXT
  5
43B
102
{ACAD_REACTORS
330
43C
102
}
330
2
100
AcDbEntity
  8
AM_5
100
AcDbMText
 10
2432.37802488163
 20
2708.82496251802
 30
0.0
 40
17.5
 41
0.0
 71
     9
 72
     1
  1
Inner Vessel Outer Wall
  7
スタイル１
 73
     1
 44
1.0
  0
LEADER
  5
43C
330
2
100
AcDbEntity
  8
AM_5
100
AcDbLeader
  3
スタイル2
 73
     0
 75
     1
 40
20.60913705583756
 41
87.85532994923856
 76
     3
 10
2541.294304068299
 20
2628.423628865974
 30
0.0
 10
2447.378024881631
 20
2703.82496251802
 30
0.0
 10
2437.37802488163
 20
2703.82496251802
 30
0.0
340
43B
1001
ACAD
1000
DSTYLE
1002
{
1070
   147
1040
5.0
1070
    77
1070
     1
1002
}
  0
LINE
  5
43D
330
2
100
AcDbEntity
  8
AM_0
100
AcDbLine
 10
2129.120737075178
 20
2564.654803446205
 30
0.0
 11
2129.120737075178
 21
2496.677571173343
 31
0.0
  0
LINE
  5
43E
330
2
100
AcDbEntity
  8
AM_0
100
AcDbLine
 10
2103.570737075178
 20
2564.654803446205
 30
0.0
 11
2103.570737075178
 21
2476.028813151553
 31
0.0
  0
LINE
  5
43F
330
2
100
AcDbEntity
  8
AM_0
100
AcDbLine
 10
2101.920737075178
 20
2564.654803446205
 30
0.0
 11
2101.920737075178
 21
2474.654803446205
 31
0.0
  0
LINE
  5
440
330
2
100
AcDbEntity
  8
AM_0
100
AcDbLine
 10
2127.470737075177
 20
2564.654803446205
 30
0.0
 11
2127.470737075178
 21
2495.378913938489
 31
0.0
  0
LEADER
  5
441
330
2
100
AcDbEntity
  8
AM_5
100
AcDbLeader
  3
スタイル2
 76
     2
 10
2110.750737075178
 20
2436.238751975841
 30
0.0
 10
2045.885027958474
 20
2547.386809831849
 30
0.0
1001
ACAD
1000
DSTYLE
1002
{
1070
   147
1040
5.0
1070
    77
1070
     0
1070
   144
1040
0.2
1002
}
  0
LINE
  5
442
330
2
100
AcDbEntity
  8
AM_0
100
AcDbLine
 10
2120.290737075178
 20
2674.656181445454
 30
0.0
 11
2120.290737075178
 21
2434.656181445454
 31
0.0
  0
LINE
  5
443
330
2
100
AcDbEntity
  8
AM_0
100
AcDbLine
 10
2110.750737075178
 20
2674.656181445454
 30
0.0
 11
2110.750737075178
 21
2434.656181445454
 31
0.0
  0
LINE
  5
444
330
2
100
AcDbEntity
  8
AM_7
100
AcDbLine
 10
2115.520737075178
 20
2724.16515255934
 30
0.0
 11
2115.520737075178
 21
2412.635119817017
 31
0.0
1001
GENIUS_GENOBJ-N-CEN_13
1002
{
1000
OWNER
1000
GEN
1002
}
1001
GENIUS_GENODEF_13
1002
{
1000
HIER
1070
     0
1002
}
1002
{
1000
MANEDIT
1070
     0
1002
}
1002
{
1000
NOSEL
1070
     0
1002
}
1002
{
1000
BEHIND
1070
     0
1002
}
1002
{
1000
OTHER
1070
     0
1002
}
1002
{
1000
REACTOR
1002
}
  0
LINE
  5
445
330
2
100
AcDbEntity
  8
AM_1
100
AcDbLine
 10
2120.290737075178
 20
2434.656181445454
 30
0.0
 11
2120.290737075178
 21
2412.635119817017
 31
0.0
  0
LINE
  5
446
330
2
100
AcDbEntity
  8
AM_1
100
AcDbLine
 10
2110.750737075178
 20
2434.656181445454
 30
0.0
 11
2110.750737075178
 21
2412.635119817017
 31
0.0
  0
ARC
  5
447
330
2
100
AcDbEntity
  8
AM_1
100
AcDbCircle
 10
2081.520737075178
 20
2412.635119817017
 30
0.0
 40
38.77
100
AcDbArc
 50
312.5769260561815
 51
0.0
  0
ARC
  5
448
330
2
100
AcDbEntity
  8
AM_7
100
AcDbCircle
 10
2081.520737075178
 20
2412.635119817017
 30
0.0
 40
34.0
100
AcDbArc
 50
312.5769260561813
 51
0.0
  0
ARC
  5
449
330
2
100
AcDbEntity
  8
AM_1
100
AcDbCircle
 10
2081.520737075178
 20
2412.635119817017
 30
0.0
 40
29.23
100
AcDbArc
 50
312.5769260561818
 51
0.0
  0
ARC
  5
44A
330
2
100
AcDbEntity
  8
細線
100
AcDbCircle
 10
2865.520737075181
 20
1559.352099418737
 30
0.0
 40
1200.0
100
AcDbArc
 50
128.1936803402451
 51
129.1781617822268
  0
LINE
  5
44B
330
2
100
AcDbEntity
  8
AM_0
100
AcDbLine
 10
2110.750737075178
 20
2434.656181445454
 30
0.0
 11
2120.290737075178
 21
2434.656181445454
 31
0.0
  0
LINE
  5
44C
330
2
100
AcDbEntity
  8
細線
100
AcDbLine
 10
2101.520737075178
 20
2484.719053659051
 30
0.0
 11
2101.520737075178
 21
2474.355719499735
 31
0.0
1001
GENIUS_GENOBJ-N-CEN_13
1002
{
1000
OWNER
1000
GEN
1002
}
1001
GENIUS_GENODEF_13
1002
{
1000
HIER
1070
     0
1002
}
1002
{
1000
MANEDIT
1070
     0
1002
}
1002
{
1000
NOSEL
1070
     0
1002
}
1002
{
1000
BEHIND
1070
     0
1002
}
1002
{
1000
OTHER
1070
     0
1002
}
1002
{
1000
REACTOR
1002
}
  0
LINE
  5
44D
330
2
100
AcDbEntity
  8
細線
100
AcDbLine
 10
2129.520737075178
 20
2507.141105474407
 30
0.0
 11
2129.520737075178
 21
2496.991689026596
 31
0.0
1001
GENIUS_GENOBJ-N-CEN_13
1002
{
1000
OWNER
1000
GEN
1002
}
1001
GENIUS_GENODEF_13
1002
{
1000
HIER
1070
     0
1002
}
1002
{
1000
MANEDIT
1070
     0
1002
}
1002
{
1000
NOSEL
1070
     0
1002
}
1002
{
1000
BEHIND
1070
     0
1002
}
1002
{
1000
OTHER
1070
     0
1002
}
1002
{
1000
REACTOR
1002
}
  0
MTEXT
  5
44E
330
2
100
AcDbEntity
  8
AM_6
100
AcDbMText
 10
2085.446842274896
 20
2627.191354945558
 30
0.0
 40
17.5
 41
0.0
 71
     8
 72
     5
  1
N7
  7
スタイル１
 73
     1
 44
1.0
  0
CIRCLE
  5
44F
330
2
100
AcDbEntity
  8
AM_5
 62
     2
100
AcDbCircle
 10
2045.885027958474
 20
2547.386809831849
 30
0.0
 40
5.0
  0
LINE
  5
450
330
2
100
AcDbEntity
  8
AM_0
100
AcDbLine
 10
2103.570737075178
 20
2564.654803446205
 30
0.0
 11
2110.750737075178
 21
2564.654803446205
 31
0.0
  0
LINE
  5
451
330
2
100
AcDbEntity
  8
AM_0
100
AcDbLine
 10
2101.920737075178
 20
2574.654803446204
 30
0.0
 11
2109.250737075178
 21
2574.654803446204
 31
0.0
  0
LINE
  5
452
330
2
100
AcDbEntity
  8
AM_0
100
AcDbLine
 10
2101.920737075178
 20
2574.654803446204
 30
0.0
 11
2101.920737075178
 21
2564.654803446205
 31
0.0
  0
LINE
  5
453
330
2
100
AcDbEntity
  8
AM_0
100
AcDbLine
 10
2103.570737075178
 20
2569.654803446205
 30
0.0
 11
2101.920737075178
 21
2569.654803446205
 31
0.0
  0
LINE
  5
454
330
2
100
AcDbEntity
  8
AM_0
100
AcDbLine
 10
2103.570737075178
 20
2569.654803446205
 30
0.0
 11
2103.570737075178
 21
2564.654803446205
 31
0.0
  0
LINE
  5
455
330
2
100
AcDbEntity
  8
AM_0
100
AcDbLine
 10
2109.250737075178
 20
2574.654803446204
 30
0.0
 11
2109.250737075178
 21
2576.654803446205
 31
0.0
  0
LINE
  5
456
330
2
100
AcDbEntity
  8
AM_0
100
AcDbLine
 10
2109.250737075178
 20
2576.654803446205
 30
0.0
 11
2110.750737075178
 21
2576.654803446205
 31
0.0
  0
LINE
  5
457
330
2
100
AcDbEntity
  8
AM_0
100
AcDbLine
 10
2127.470737075177
 20
2564.654803446205
 30
0.0
 11
2120.290737075178
 21
2564.654803446205
 31
0.0
  0
LINE
  5
458
330
2
100
AcDbEntity
  8
AM_0
100
AcDbLine
 10
2129.120737075178
 20
2574.654803446204
 30
0.0
 11
2121.790737075178
 21
2574.654803446204
 31
0.0
  0
LINE
  5
459
330
2
100
AcDbEntity
  8
AM_0
100
AcDbLine
 10
2129.120737075178
 20
2574.654803446204
 30
0.0
 11
2129.120737075178
 21
2564.654803446205
 31
0.0
  0
LINE
  5
45A
330
2
100
AcDbEntity
  8
AM_0
100
AcDbLine
 10
2127.470737075177
 20
2569.654803446205
 30
0.0
 11
2127.470737075177
 21
2564.654803446205
 31
0.0
  0
LINE
  5
45B
330
2
100
AcDbEntity
  8
AM_0
100
AcDbLine
 10
2127.470737075177
 20
2569.654803446205
 30
0.0
 11
2129.120737075178
 21
2569.654803446205
 31
0.0
  0
LINE
  5
45C
330
2
100
AcDbEntity
  8
AM_0
100
AcDbLine
 10
2121.790737075178
 20
2574.654803446204
 30
0.0
 11
2121.790737075178
 21
2576.654803446205
 31
0.0
  0
LINE
  5
45D
330
2
100
AcDbEntity
  8
AM_0
100
AcDbLine
 10
2121.790737075178
 20
2576.654803446205
 30
0.0
 11
2120.290737075178
 21
2576.654803446205
 31
0.0
  0
LINE
  5
45E
330
2
100
AcDbEntity
  8
AM_0
100
AcDbLine
 10
2110.750737075178
 20
2674.656181445454
 30
0.0
 11
2120.290737075178
 21
2674.656181445454
 31
0.0
  0
LEADER
  5
45F
330
2
100
AcDbEntity
  8
AM_5
100
AcDbLeader
  3
スタイル2
 73
     0
 75
     1
 40
20.60913705583756
 41
87.85532994923856
 76
     3
 10
2629.520737075161
 20
2527.895250471329
 30
0.0
 10
2481.587630429965
 20
2363.477573364295
 30
0.0
 10
2471.587630429965
 20
2363.477573364295
 30
0.0
340
460
1001
ACAD
1000
DSTYLE
1002
{
1070
   147
1040
5.0
1070
    77
1070
     1
1002
}
  0
MTEXT
  5
460
102
{ACAD_REACTORS
330
45F
102
}
330
2
100
AcDbEntity
  8
AM_5
100
AcDbMText
 10
2466.587630429965
 20
2368.477573364295
 30
0.0
 40
17.5
 41
0.0
 71
     9
 72
     1
  1
Inner Vessel Front Wall
  7
スタイル１
 73
     1
 44
1.0
  0
LINE
  5
461
330
2
100
AcDbEntity
  8
内槽外板
100
AcDbLine
 10
2646.520737075168
 20
2657.7322703978
 30
0.0
 11
2646.520737075169
 21
2650.593594230951
 31
0.0
  0
MTEXT
  5
462
102
{ACAD_REACTORS
330
463
102
}
330
2
100
AcDbEntity
  8
AM_5
100
AcDbMText
 10
2969.016086628102
 20
2462.893837272959
 30
0.0
 40
17.5
 41
0.0
 71
     7
 72
     1
  1
Supporting Plate
  7
スタイル１
 73
     1
 44
1.0
  0
LEADER
  5
463
330
2
100
AcDbEntity
  8
AM_5
100
AcDbLeader
  3
スタイル2
 73
     0
 74
     0
 75
     1
 40
20.78680203045685
 41
66.97969543147206
 76
     3
 10
2809.179022444054
 20
2323.477337582389
 30
0.0
 10
2954.016086628102
 20
2457.893837272959
 30
0.0
 10
2964.016086628102
 20
2457.893837272959
 30
0.0
340
462
1001
ACAD
1000
DSTYLE
1002
{
1070
   147
1040
5.0
1070
    77
1070
     1
1002
}
  0
LINE
  5
464
330
2
100
AcDbEntity
  8
細線
100
AcDbLine
 10
2765.520737075171
 20
2396.101575431528
 30
0.0
 11
2845.520737075172
 21
2316.101575431528
 31
0.0
  0
LINE
  5
465
330
2
100
AcDbEntity
  8
外槽外板
100
AcDbLine
 10
2750.520737075172
 20
2753.828972363547
 30
0.0
 11
2750.520737075172
 21
2745.791731258473
 31
0.0
  0
MTEXT
  5
466
330
2
100
AcDbEntity
  8
AM_5
100
AcDbMText
 10
2853.124128021823
 20
2817.213034000004
 30
0.0
 40
31.5
 41
0.0
 71
     5
 72
     5
  1
ｃ
  7
スタイル１
 73
     1
 44
1.0
  0
MTEXT
  5
467
330
2
100
AcDbEntity
  8
AM_5
100
AcDbMText
 10
2866.082446292987
 20
2809.040280340589
 30
0.0
 40
31.5
 41
0.0
 71
     5
 72
     5
  1
L
  7
スタイル１
 73
     1
 44
1.0
  0
DIMENSION
  5
468
330
2
100
AcDbEntity
  8
AM_5
100
AcDbDimension
  2
*D12
 10
3670.800200597299
 20
1619.832729381043
 30
0.0
 11
3657.050200597298
 21
1649.832729381043
 31
0.0
 71
     5
 42
12.0
  3
スタイル2
100
AcDbAlignedDimension
 13
3451.691620348855
 23
1679.832729381043
 33
0.0
 14
3485.091620348853
 24
1619.832729381043
 34
0.0
 50
90.0
100
AcDbRotatedDimension
1001
ACAD
1000
DSTYLE
1002
{
1070
   144
1040
0.2
1002
}
  0
LINE
  5
475
330
2
100
AcDbEntity
  8
AM_5
 62
     2
100
AcDbLine
 10
3499.02337810399
 20
1633.074240329893
 30
0.0
 11
3488.341620348855
 21
1644.832729381044
 31
0.0
  0
LINE
  5
476
330
2
100
AcDbEntity
  8
AM_5
 62
     2
100
AcDbLine
 10
3488.341620348855
 20
1644.832729381044
 30
0.0
 11
3495.616085142943
 21
1630.7102587946
 31
0.0
  0
LINE
  5
477
330
2
100
AcDbEntity
  8
AM_0
100
AcDbLine
 10
3480.091620348854
 20
1644.832729381043
 30
0.0
 11
3480.091620348854
 21
1619.832729381043
 31
0.0
  0
LINE
  5
478
330
2
100
AcDbEntity
  8
AM_0
100
AcDbLine
 10
3488.341620348855
 20
1669.832729381043
 30
0.0
 11
3488.341620348855
 21
1619.832729381043
 31
0.0
  0
LINE
  5
479
330
2
100
AcDbEntity
  8
AM_0
100
AcDbLine
 10
3360.591620348856
 20
1644.832729381043
 30
0.0
 11
3360.591620348856
 21
1619.832729381043
 31
0.0
  0
LINE
  5
47A
330
2
100
AcDbEntity
  8
AM_0
100
AcDbLine
 10
3352.341620348855
 20
1669.832729381043
 30
0.0
 11
3352.341620348855
 21
1619.832729381043
 31
0.0
  0
DIMENSION
  5
47B
330
2
100
AcDbEntity
  8
AM_5
100
AcDbDimension
  2
*D16
 10
3619.980617831719
 20
1644.832729381044
 30
0.0
 11
3619.980617831718
 21
1608.15812364222
 31
0.0
 70
   128
 71
     5
 42
4.999999999999636
  3
スタイル2
100
AcDbAlignedDimension
 13
3488.341620348855
 23
1669.832729381043
 33
0.0
 14
3488.341620348854
 24
1644.832729381045
 34
0.0
 50
90.0
100
AcDbRotatedDimension
1001
ACAD
1000
DSTYLE
1002
{
1070
   144
1040
0.2
1070
   173
1070
     1
1070
   342
1005
0
1070
   343
1005
47C
1070
   344
1005
20
1002
}
  0
LINE
  5
48E
330
2
100
AcDbEntity
  8
AM_5
 62
     2
100
AcDbLine
 10
3531.156929119064
 20
1583.121460481616
 30
0.0
 11
3488.341620348864
 21
1644.832729381034
 31
0.0
  0
DIMENSION
  5
48F
330
2
100
AcDbEntity
  8
AM_5
100
AcDbDimension
  2
*D10
 10
3488.341620348855
 20
1509.967616153701
 30
0.0
 11
3538.758287015522
 21
1509.967616153701
 31
0.0
 70
   128
 71
     5
 42
1.650000000000363
  3
スタイル2
100
AcDbAlignedDimension
 13
3480.091620348854
 23
1459.656612488796
 33
0.0
 14
3488.341620348855
 24
1459.656612488796
 34
0.0
100
AcDbRotatedDimension
1001
ACAD
1000
DSTYLE
1002
{
1070
   144
1040
0.2
1002
}
  0
LINE
  5
49E
330
2
100
AcDbEntity
  8
AM_0
100
AcDbLine
 10
3360.591620348856
 20
1619.832729381043
 30
0.0
 11
3396.491620348855
 21
1619.832729381043
 31
0.0
  0
LINE
  5
49F
330
2
100
AcDbEntity
  8
AM_0
100
AcDbLine
 10
3480.091620348854
 20
1619.832729381043
 30
0.0
 11
3444.191620348855
 21
1619.832729381043
 31
0.0
  0
LINE
  5
4A0
330
2
100
AcDbEntity
  8
AM_5
 62
     2
100
AcDbLine
 10
3531.156929119064
 20
1583.121460481616
 30
0.0
 11
3601.244429119066
 21
1583.121460481616
 31
0.0
  0
CIRCLE
  5
4A1
330
2
100
AcDbEntity
  8
AM_5
 62
     2
100
AcDbCircle
 10
3531.156929119064
 20
1583.121460481616
 30
0.0
 40
5.0
  0
LINE
  5
4A2
330
2
100
AcDbEntity
  8
AM_0
100
AcDbLine
 10
3488.341620348855
 20
1669.832729381043
 30
0.0
 11
3451.691620348855
 21
1669.832729381043
 31
0.0
  0
LINE
  5
4A3
330
2
100
AcDbEntity
  8
AM_5
 62
     2
100
AcDbLine
 10
3480.091620348854
 20
1644.832729381043
 30
0.0
 11
3488.341620348855
 21
1644.832729381043
 31
0.0
  0
LINE
  5
4A4
330
2
100
AcDbEntity
  8
AM_5
 62
     2
100
AcDbLine
 10
3518.372316237968
 20
1788.504867260826
 30
0.0
 11
3444.191620348855
 21
1679.832729381043
 31
0.0
  0
DIMENSION
  5
4A5
330
2
100
AcDbEntity
  8
AM_5
100
AcDbDimension
  2
*D14
 10
3619.980617831718
 20
1669.832729381043
 30
0.0
 11
3619.980617831717
 21
1710.666062714376
 31
0.0
 70
   128
 71
     5
 42
2.0
  3
スタイル2
100
AcDbAlignedDimension
 13
3451.691620348855
 23
1679.832729381043
 33
0.0
 14
3493.341620348855
 24
1669.832729381043
 34
0.0
 50
90.0
100
AcDbRotatedDimension
1001
ACAD
1000
DSTYLE
1002
{
1070
   144
1040
0.2
1070
   173
1070
     1
1070
   342
1005
0
1070
   343
1005
20
1070
   344
1005
47C
1002
}
  0
LINE
  5
4B4
330
2
100
AcDbEntity
  8
AM_0
100
AcDbLine
 10
3352.341620348855
 20
1669.832729381043
 30
0.0
 11
3388.991620348855
 21
1669.832729381043
 31
0.0
  0
LINE
  5
4B5
330
2
100
AcDbEntity
  8
AM_0
100
AcDbLine
 10
3360.591620348856
 20
1644.832729381043
 30
0.0
 11
3352.341620348855
 21
1644.832729381043
 31
0.0
  0
LINE
  5
4B6
330
2
100
AcDbEntity
  8
AM_0
100
AcDbLine
 10
3388.991620348855
 20
1669.832729381043
 30
0.0
 11
3388.991620348855
 21
1679.832729381043
 31
0.0
  0
LINE
  5
4B7
330
2
100
AcDbEntity
  8
AM_0
100
AcDbLine
 10
3388.991620348855
 20
1679.832729381043
 30
0.0
 11
3396.491620348855
 21
1679.832729381043
 31
0.0
  0
LINE
  5
4B8
330
2
100
AcDbEntity
  8
AM_5
 62
     2
100
AcDbLine
 10
3451.691620348855
 20
1679.832729381043
 30
0.0
 11
3444.191620348855
 21
1679.832729381043
 31
0.0
  0
LINE
  5
4B9
330
2
100
AcDbEntity
  8
AM_5
 62
     2
100
AcDbLine
 10
3451.282251671354
 20
1694.048388386302
 30
0.0
 11
3444.191620348855
 21
1679.832729381043
 31
0.0
  0
LINE
  5
4BA
330
2
100
AcDbEntity
  8
AM_5
 62
     2
100
AcDbLine
 10
3444.191620348855
 20
1679.832729381043
 30
0.0
 11
3454.719927543457
 21
1691.728811136037
 31
0.0
  0
LINE
  5
4BB
330
2
100
AcDbEntity
  8
AM_5
 62
     2
100
AcDbLine
 10
3451.691620348855
 20
1669.832729381043
 30
0.0
 11
3451.691620348855
 21
1679.832729381043
 31
0.0
  0
LINE
  5
4BC
330
2
100
AcDbEntity
  8
AM_5
 62
     2
100
AcDbLine
 10
3518.372316237968
 20
1788.504867260826
 30
0.0
 11
3588.459816237967
 21
1788.504867260826
 31
0.0
  0
CIRCLE
  5
4BD
330
2
100
AcDbEntity
  8
AM_5
 62
     2
100
AcDbCircle
 10
3518.372316237968
 20
1788.504867260826
 30
0.0
 40
5.0
  0
LINE
  5
4BE
330
2
100
AcDbEntity
  8
AM_5
 62
     2
100
AcDbLine
 10
3537.666066237969
 20
1788.504867260826
 30
0.0
 11
3562.666066237969
 21
1788.504867260826
 31
0.0
  0
DIMENSION
  5
4BF
330
2
100
AcDbEntity
  8
AM_5
100
AcDbDimension
  2
*D33
 10
3444.191620348856
 20
2243.696527331958
 30
0.0
 11
3493.442889384388
 21
2272.029860665291
 31
0.0
 70
    32
  1
9.53\Pdiam.
 71
     5
 42
9.540000000000146
  3
スタイル2
100
AcDbAlignedDimension
 13
3396.491620348855
 23
2169.839619377288
 33
0.0
 14
3444.191620348856
 24
2169.839619377288
 34
0.0
100
AcDbRotatedDimension
1001
ACAD
1000
DSTYLE
1002
{
1070
   144
1040
0.2
1002
}
  0
LINE
  5
4CE
330
2
100
AcDbEntity
  8
AM_0
100
AcDbLine
 10
3396.491620348855
 20
2169.839619377288
 30
0.0
 11
3444.191620348855
 21
2169.839619377288
 31
0.0
  0
DIMENSION
  5
4CF
330
2
100
AcDbEntity
  8
AM_5
100
AcDbDimension
  2
*D15
 10
3444.191620348856
 20
2157.521484472847
 30
0.0
 11
3471.545681262561
 21
2171.271484472848
 31
0.0
 71
     5
  3
スタイル2
100
AcDbAlignedDimension
 13
3439.191620348855
 23
2169.839619377288
 33
0.0
 14
3444.191620348856
 24
2169.839619377288
 34
0.0
100
AcDbRotatedDimension
1001
ACAD
1000
DSTYLE
1002
{
1070
   144
1040
0.2
1002
}
  0
LINE
  5
502
330
2
100
AcDbEntity
  8
AM_7
100
AcDbLine
 10
1198.729488079328
 20
715.1289630976053
 30
0.0
 11
1268.729488079328
 21
715.1289630976053
 31
0.0
  0
LINE
  5
504
330
2
100
AcDbEntity
  8
AM_7
100
AcDbLine
 10
1233.729488079329
 20
746.7003388742841
 30
0.0
 11
1233.729488079329
 21
683.5575873209266
 31
0.0
  0
ELLIPSE
  5
50A
330
2
100
AcDbEntity
  8
ノゾキポイント
100
AcDbEllipse
 10
1233.729488079329
 20
715.1289630976053
 30
0.0
 11
-10.0
 21
0.0
 31
0.0
210
0.0
220
0.0
230
1.0
 40
0.6571375776678793
 41
0.0
 42
6.283185307179586
  0
LINE
  5
50B
330
2
100
AcDbEntity
  8
AM_7
100
AcDbLine
 10
373.7294880793287
 20
746.7003388742841
 30
0.0
 11
373.7294880793287
 21
683.5575873209266
 31
0.0
  0
ELLIPSE
  5
50C
330
2
100
AcDbEntity
  8
ノゾキポイント
100
AcDbEllipse
 10
373.7294880793287
 20
715.1289630976053
 30
0.0
 11
10.0
 21
0.0
 31
0.0
210
0.0
220
0.0
230
-1.0
 40
0.6571375776678793
 41
0.0
 42
6.283185307179586
  0
LINE
  5
50D
330
2
100
AcDbEntity
  8
AM_7
100
AcDbLine
 10
408.7294880793288
 20
715.1289630976053
 30
0.0
 11
338.7294880793287
 21
715.1289630976053
 31
0.0
  0
LINE
  5
511
330
2
100
AcDbEntity
  8
AM_7
100
AcDbLine
 10
1283.729488079329
 20
2504.185123940953
 30
0.0
 11
1283.729488079329
 21
2441.042372387595
 31
0.0
  0
ELLIPSE
  5
512
330
2
100
AcDbEntity
  8
ノゾキポイント
100
AcDbEllipse
 10
1283.729488079329
 20
2472.613748164274
 30
0.0
 11
-10.0
 21
0.0
 31
0.0
210
0.0
220
0.0
230
1.0
 40
0.6571375776678793
 41
0.0
 42
6.283185307179586
  0
LINE
  5
513
330
2
100
AcDbEntity
  8
AM_7
100
AcDbLine
 10
1248.729488079328
 20
2472.613748164274
 30
0.0
 11
1318.729488079328
 21
2472.613748164274
 31
0.0
  0
LINE
  5
514
330
2
100
AcDbEntity
  8
AM_7
100
AcDbLine
 10
323.7294880793287
 20
2504.185123940953
 30
0.0
 11
323.7294880793287
 21
2441.042372387595
 31
0.0
  0
ELLIPSE
  5
515
330
2
100
AcDbEntity
  8
ノゾキポイント
100
AcDbEllipse
 10
323.7294880793287
 20
2472.613748164274
 30
0.0
 11
-10.0
 21
0.0
 31
0.0
210
0.0
220
0.0
230
1.0
 40
0.6571375776678793
 41
0.0
 42
6.283185307179586
  0
LINE
  5
516
330
2
100
AcDbEntity
  8
AM_7
100
AcDbLine
 10
288.7294880793287
 20
2472.613748164274
 30
0.0
 11
358.7294880793288
 21
2472.613748164274
 31
0.0
  0
LEADER
  5
51C
330
2
100
AcDbEntity
  8
AM_5
100
AcDbLeader
  3
スタイル2
 73
     0
 74
     0
 75
     1
 40
20.60913705583756
 41
155.6345177664974
 76
     3
 10
1238.422862112677
 20
720.9316121969924
 30
0.0
 10
1536.399768735807
 20
958.2907865655752
 30
0.0
 10
1546.399768735807
 20
958.2907865655752
 30
0.0
340
51D
1001
ACAD
1000
DSTYLE
1002
{
1070
   147
1040
5.0
1070
    77
1070
     1
1002
}
  0
MTEXT
  5
51D
102
{ACAD_REACTORS
330
51C
102
}
330
2
100
AcDbEntity
  8
AM_5
100
AcDbMText
 10
1551.399768735807
 20
963.2907865655752
 30
0.0
 40
17.5
 41
0.0
 71
     7
 72
     1
  1
Viewed Point
  7
スタイル１
 73
     1
 44
1.0
  0
LWPOLYLINE
  5
51E
330
2
100
AcDbEntity
  8
AM_0
100
AcDbPolyline
 90
        4
 70
     1
 43
0.0
 10
2121.988943499994
 20
721.7003388742841
 10
2137.064356648586
 20
708.5575873206985
 10
2130.492980871792
 20
701.0198807464028
 10
2115.4175677232
 20
714.1626322999886
  0
LINE
  5
51F
330
2
100
AcDbEntity
  8
AM_0
100
AcDbLine
 10
2122.084894913548
 20
708.3500536379315
 30
0.0
 11
2124.269549452856
 21
709.0987978380549
 31
0.0
  0
LINE
  5
520
330
2
100
AcDbEntity
  8
AM_0
100
AcDbLine
 10
2123.825653681444
 20
706.8324594084604
 30
0.0
 11
2124.269549452856
 21
709.0987978380549
 31
0.0
  0
LINE
  5
521
330
2
100
AcDbEntity
  8
AM_7
 48
0.4
100
AcDbLine
 10
2070.669608925934
 20
647.6169045763035
 30
0.0
 11
2140.478943035609
 21
727.691807387984
 31
0.0
  0
LINE
  5
522
330
2
100
AcDbEntity
  8
AM_0
100
AcDbLine
 10
2210.443890147001
 20
2480.099436071047
 30
0.0
 11
2212.543208612903
 21
2479.137045655437
 31
0.0
  0
LINE
  5
523
330
2
100
AcDbEntity
  8
AM_0
100
AcDbLine
 10
2212.327003928228
 20
2481.436303985347
 30
0.0
 11
2212.543208612903
 21
2479.137045655437
 31
0.0
  0
LWPOLYLINE
  5
524
330
2
100
AcDbEntity
  8
AM_0
100
AcDbPolyline
 90
        4
 70
     1
 43
0.0
 10
2209.020133050254
 20
2466.82494028796
 10
2225.328376777853
 20
2478.402556040836
 10
2219.539568901414
 20
2486.556677904635
 10
2203.231325173815
 20
2474.97906215176
  0
LINE
  5
525
330
2
100
AcDbEntity
  8
AM_7
 48
0.4
100
AcDbLine
 10
2182.986105983592
 20
2520.771216615094
 30
0.0
 11
2226.822268041448
 21
2459.023545058066
 31
0.0
  0
ENDSEC
  0
SECTION
  2
OBJECTS
  0
DICTIONARY
  5
7
330
0
100
AcDbDictionary
281
     1
  3
ACAD_GROUP
350
27
  3
ACAD_LAYOUT
350
B
  3
ACAD_MLINESTYLE
350
28
  3
ACAD_PLOTSETTINGS
350
29
  3
ACAD_PLOTSTYLENAME
350
6
  3
AcadDim
350
51B
  3
AcDbVariableDictionary
350
4E1
  0
DICTIONARY
  5
27
102
{ACAD_REACTORS
330
7
102
}
330
7
100
AcDbDictionary
281
     1
  0
DICTIONARY
  5
B
102
{ACAD_REACTORS
330
7
102
}
330
7
100
AcDbDictionary
281
     1
  3
Model
350
A
  3
ﾚｲｱｳﾄ1
350
F
  0
DICTIONARY
  5
28
102
{ACAD_REACTORS
330
7
102
}
330
7
100
AcDbDictionary
281
     1
  3
Standard
350
2C
  0
DICTIONARY
  5
29
102
{ACAD_REACTORS
330
7
102
}
330
7
100
AcDbDictionary
281
     1
  0
ACDBDICTIONARYWDFLT
  5
6
102
{ACAD_REACTORS
330
7
102
}
330
7
100
AcDbDictionary
281
     1
  3
Normal
350
5
100
AcDbDictionaryWithDefault
340
5
  0
XRECORD
  5
51B
102
{ACAD_REACTORS
330
7
102
}
330
7
100
AcDbXrecord
280
     1
 90
   990106
  3

 60
     0
 61
     0
 62
     4
 63
     4
 64
     1
 65
     0
 66
     0
 67
     3
 68
     1
 69
     0
 70
     0
 71
     0
 72
     0
 40
0.0
170
     2
340
51D
  0
DICTIONARY
  5
4E1
102
{ACAD_REACTORS
330
7
102
}
330
7
100
AcDbDictionary
281
     1
  3
DIMASSOC
350
4E3
  3
HIDETEXT
350
4E2
  0
LAYOUT
  5
A
102
{ACAD_REACTORS
330
B
102
}
330
B
100
AcDbPlotSettings
  1

  2
HP DesignJet 700 (E (2000i).pc3
  4
User271
  6

 40
4.995333194732666
 41
16.97562789916992
 42
4.99530029296875
 43
16.97564697265625
 44
593.97900390625
 45
840.9093017578125
 46
0.0
 47
0.0
 48
0.0
 49
0.0
140
0.0
141
0.0
142
1.0
143
5.0
 70
 11936
 72
     1
 73
     1
 74
     2
  7
monochrome.ctb
 75
     0
147
0.2
148
25.0
149
12.5
100
AcDbLayout
  1
Model
 70
     1
 71
     0
 10
0.0
 20
0.0
 11
12.0
 21
9.0
 12
0.0
 22
0.0
 32
0.0
 14
0.0
 24
0.0
 34
0.0
 15
0.0
 25
0.0
 35
0.0
146
0.0
 13
0.0
 23
0.0
 33
0.0
 16
1.0
 26
0.0
 36
0.0
 17
0.0
 27
1.0
 37
0.0
 76
     0
330
2
  0
LAYOUT
  5
F
102
{ACAD_REACTORS
330
B
102
}
330
B
100
AcDbPlotSettings
  1

  2
EPSON VP-1000
  4

  6

 40
0.0
 41
0.0
 42
0.0
 43
0.0
 44
0.0
 45
0.0
 46
0.0
 47
0.0
 48
0.0
 49
0.0
140
0.0
141
0.0
142
1.0
143
1.0
 70
   688
 72
     0
 73
     0
 74
     5
  7
monochrome.ctb
 75
    16
147
1.0
148
0.0
149
0.0
100
AcDbLayout
  1
ﾚｲｱｳﾄ1
 70
     1
 71
     1
 10
0.0
 20
0.0
 11
420.0
 21
297.0
 12
0.0
 22
0.0
 32
0.0
 14
1.000000000000000E+20
 24
1.000000000000000E+20
 34
1.000000000000000E+20
 15
-1.000000000000000E+20
 25
-1.000000000000000E+20
 35
-1.000000000000000E+20
146
0.0
 13
0.0
 23
0.0
 33
0.0
 16
1.0
 26
0.0
 36
0.0
 17
0.0
 27
1.0
 37
0.0
 76
     0
330
C
  0
MLINESTYLE
  5
2C
102
{ACAD_REACTORS
330
28
102
}
330
28
100
AcDbMlineStyle
  2
STANDARD
 70
     0
  3

 62
   256
 51
90.0
 52
90.0
 71
     2
 49
0.5
 62
   256
  6
BYLAYER
 49
-0.5
 62
   256
  6
BYLAYER
  0
ACDBPLACEHOLDER
  5
5
102
{ACAD_REACTORS
330
6
102
}
330
6
  0
DICTIONARYVAR
  5
4E3
102
{ACAD_REACTORS
330
4E1
102
}
330
4E1
100
DictionaryVariables
280
     0
  1
1
  0
DICTIONARYVAR
  5
4E2
102
{ACAD_REACTORS
330
4E1
102
}
330
4E1
100
DictionaryVariables
280
     0
  1
1
  0
ENDSEC
  0
EOF
