  0
SECTION
  2
HEADER
  9
$ACADVER
  1
AC1015
  9
$ACADMAINTVER
 70
    18
  9
$DWGCODEPAGE
  3
ANSI_932
  9
$INSBASE
 10
0.0
 20
0.0
 30
0.0
  9
$EXTMIN
 10
0.0
 20
0.0
 30
0.0
  9
$EXTMAX
 10
709.676
 20
548.3859999999999
 30
0.0
  9
$LIMMIN
 10
0.0
 20
0.0
  9
$LIMMAX
 10
709.676
 20
548.3859999999999
  9
$ORTHOMODE
 70
     0
  9
$REGENMODE
 70
     1
  9
$FILLMODE
 70
     1
  9
$QTEXTMODE
 70
     0
  9
$MIRRTEXT
 70
     0
  9
$LTSCALE
 40
1.0
  9
$ATTMODE
 70
     1
  9
$TEXTSIZE
 40
0.2
  9
$TRACEWID
 40
0.05
  9
$TEXTSTYLE
  7
Standard
  9
$CLAYER
  8
0
  9
$CELTYPE
  6
ByLayer
  9
$CECOLOR
 62
   256
  9
$CELTSCALE
 40
1.0
  9
$DISPSILH
 70
     0
  9
$DIMSCALE
 40
1.0
  9
$DIMASZ
 40
1.799999999999999
  9
$DIMEXO
 40
0.0625
  9
$DIMDLI
 40
0.38
  9
$DIMRND
 40
0.0
  9
$DIMDLE
 40
0.0
  9
$DIMEXE
 40
0.18
  9
$DIMTP
 40
0.0
  9
$DIMTM
 40
0.0
  9
$DIMTXT
 40
0.3499999940395355
  9
$DIMCEN
 40
0.09
  9
$DIMTSZ
 40
0.0
  9
$DIMTOL
 70
     0
  9
$DIMLIM
 70
     0
  9
$DIMTIH
 70
     1
  9
$DIMTOH
 70
     1
  9
$DIMSE1
 70
     0
  9
$DIMSE2
 70
     0
  9
$DIMTAD
 70
     0
  9
$DIMZIN
 70
     0
  9
$DIMBLK
  1

  9
$DIMASO
 70
     1
  9
$DIMSHO
 70
     1
  9
$DIMPOST
  1

  9
$DIMAPOST
  1

  9
$DIMALT
 70
     0
  9
$DIMALTD
 70
     2
  9
$DIMALTF
 40
25.4
  9
$DIMLFAC
 40
1.0
  9
$DIMTOFL
 70
     0
  9
$DIMTVP
 40
0.0
  9
$DIMTIX
 70
     0
  9
$DIMSOXD
 70
     0
  9
$DIMSAH
 70
     0
  9
$DIMBLK1
  1

  9
$DIMBLK2
  1

  9
$DIMSTYLE
  2
Standard
  9
$DIMCLRD
 70
     0
  9
$DIMCLRE
 70
     0
  9
$DIMCLRT
 70
     0
  9
$DIMTFAC
 40
1.0
  9
$DIMGAP
 40
0.09
  9
$DIMJUST
 70
     0
  9
$DIMSD1
 70
     0
  9
$DIMSD2
 70
     0
  9
$DIMTOLJ
 70
     1
  9
$DIMTZIN
 70
     0
  9
$DIMALTZ
 70
     0
  9
$DIMALTTZ
 70
     0
  9
$DIMUPT
 70
     0
  9
$DIMDEC
 70
     4
  9
$DIMTDEC
 70
     4
  9
$DIMALTU
 70
     2
  9
$DIMALTTD
 70
     2
  9
$DIMTXSTY
  7
Standard
  9
$DIMAUNIT
 70
     0
  9
$DIMADEC
 70
     0
  9
$DIMALTRND
 40
0.0
  9
$DIMAZIN
 70
     0
  9
$DIMDSEP
 70
    46
  9
$DIMATFIT
 70
     3
  9
$DIMFRAC
 70
     0
  9
$DIMLDRBLK
  1

  9
$DIMLUNIT
 70
     2
  9
$DIMLWD
 70
    -2
  9
$DIMLWE
 70
    -2
  9
$DIMTMOVE
 70
     0
  9
$LUNITS
 70
     2
  9
$LUPREC
 70
     4
  9
$SKETCHINC
 40
0.1
  9
$FILLETRAD
 40
0.0
  9
$AUNITS
 70
     0
  9
$AUPREC
 70
     0
  9
$MENU
  1
.
  9
$ELEVATION
 40
0.0
  9
$PELEVATION
 40
0.0
  9
$THICKNESS
 40
0.0
  9
$LIMCHECK
 70
     0
  9
$CHAMFERA
 40
0.0
  9
$CHAMFERB
 40
0.0
  9
$CHAMFERC
 40
0.0
  9
$CHAMFERD
 40
0.0
  9
$SKPOLY
 70
     0
  9
$TDCREATE
 40
2453383.746943403
  9
$TDUCREATE
 40
2453383.705276736
  9
$TDUPDATE
 40
2453383.746943403
  9
$TDUUPDATE
 40
2453383.705276736
  9
$TDINDWG
 40
0.0005127778
  9
$TDUSRTIMER
 40
0.0005127778
  9
$USRTIMER
 70
     1
  9
$ANGBASE
 50
0.0
  9
$ANGDIR
 70
     0
  9
$PDMODE
 70
     0
  9
$PDSIZE
 40
0.0
  9
$PLINEWID
 40
0.0
  9
$SPLFRAME
 70
     0
  9
$SPLINETYPE
 70
     6
  9
$SPLINESEGS
 70
     8
  9
$HANDSEED
  5
18B0
  9
$SURFTAB1
 70
     6
  9
$SURFTAB2
 70
     6
  9
$SURFTYPE
 70
     6
  9
$SURFU
 70
     6
  9
$SURFV
 70
     6
  9
$UCSBASE
  2

  9
$UCSNAME
  2

  9
$UCSORG
 10
0.0
 20
0.0
 30
0.0
  9
$UCSXDIR
 10
1.0
 20
0.0
 30
0.0
  9
$UCSYDIR
 10
0.0
 20
1.0
 30
0.0
  9
$UCSORTHOREF
  2

  9
$UCSORTHOVIEW
 70
     0
  9
$UCSORGTOP
 10
0.0
 20
0.0
 30
0.0
  9
$UCSORGBOTTOM
 10
0.0
 20
0.0
 30
0.0
  9
$UCSORGLEFT
 10
0.0
 20
0.0
 30
0.0
  9
$UCSORGRIGHT
 10
0.0
 20
0.0
 30
0.0
  9
$UCSORGFRONT
 10
0.0
 20
0.0
 30
0.0
  9
$UCSORGBACK
 10
0.0
 20
0.0
 30
0.0
  9
$PUCSBASE
  2

  9
$PUCSNAME
  2

  9
$PUCSORG
 10
0.0
 20
0.0
 30
0.0
  9
$PUCSXDIR
 10
1.0
 20
0.0
 30
0.0
  9
$PUCSYDIR
 10
0.0
 20
1.0
 30
0.0
  9
$PUCSORTHOREF
  2

  9
$PUCSORTHOVIEW
 70
     0
  9
$PUCSORGTOP
 10
0.0
 20
0.0
 30
0.0
  9
$PUCSORGBOTTOM
 10
0.0
 20
0.0
 30
0.0
  9
$PUCSORGLEFT
 10
0.0
 20
0.0
 30
0.0
  9
$PUCSORGRIGHT
 10
0.0
 20
0.0
 30
0.0
  9
$PUCSORGFRONT
 10
0.0
 20
0.0
 30
0.0
  9
$PUCSORGBACK
 10
0.0
 20
0.0
 30
0.0
  9
$USERI1
 70
     0
  9
$USERI2
 70
     0
  9
$USERI3
 70
     0
  9
$USERI4
 70
     0
  9
$USERI5
 70
     0
  9
$USERR1
 40
0.0
  9
$USERR2
 40
0.0
  9
$USERR3
 40
0.0
  9
$USERR4
 40
0.0
  9
$USERR5
 40
0.0
  9
$WORLDVIEW
 70
     1
  9
$SHADEDGE
 70
     3
  9
$SHADEDIF
 70
    70
  9
$TILEMODE
 70
     1
  9
$MAXACTVP
 70
    64
  9
$PINSBASE
 10
0.0
 20
0.0
 30
0.0
  9
$PLIMCHECK
 70
     0
  9
$PEXTMIN
 10
0.0
 20
0.0
 30
0.0
  9
$PEXTMAX
 10
709.676
 20
548.3859999999999
 30
0.0
  9
$PLIMMIN
 10
0.0
 20
0.0
  9
$PLIMMAX
 10
709.676
 20
548.3859999999999
  9
$UNITMODE
 70
     0
  9
$VISRETAIN
 70
     1
  9
$PLINEGEN
 70
     0
  9
$PSLTSCALE
 70
     1
  9
$TREEDEPTH
 70
  3020
  9
$CMLSTYLE
  2
Standard
  9
$CMLJUST
 70
     0
  9
$CMLSCALE
 40
1.0
  9
$PROXYGRAPHICS
 70
     1
  9
$MEASUREMENT
 70
     1
  9
$CELWEIGHT
370
    -1
  9
$ENDCAPS
280
     0
  9
$JOINSTYLE
280
     0
  9
$LWDISPLAY
290
     0
  9
$INSUNITS
 70
     0
  9
$HYPERLINKBASE
  1

  9
$STYLESHEET
  1

  9
$XEDIT
290
     1
  9
$CEPSNTYPE
380
     0
  9
$PSTYLEMODE
290
     1
  9
$FINGERPRINTGUID
  2
{AE9054E4-AF9E-4E41-AF67-D475A7D9E520}
  9
$VERSIONGUID
  2
{2E52CD70-D54F-4803-A1C7-B187088D962A}
  9
$EXTNAMES
290
     1
  9
$PSVPSCALE
 40
0.0
  9
$OLESTARTUP
290
     0
  0
ENDSEC
  0
SECTION
  2
CLASSES
  0
CLASS
  1
ACDBDICTIONARYWDFLT
  2
AcDbDictionaryWithDefault
  3
ObjectDBX Classes
 90
        0
280
     0
281
     0
  0
CLASS
  1
DICTIONARYVAR
  2
AcDbDictionaryVar
  3
ObjectDBX Classes
 90
        0
280
     0
281
     0
  0
CLASS
  1
ACDBPLACEHOLDER
  2
AcDbPlaceHolder
  3
ObjectDBX Classes
 90
        0
280
     0
281
     0
  0
CLASS
  1
LAYOUT
  2
AcDbLayout
  3
ObjectDBX Classes
 90
        0
280
     0
281
     0
  0
ENDSEC
  0
SECTION
  2
TABLES
  0
TABLE
  2
VPORT
  5
8
330
0
100
AcDbSymbolTable
 70
     1
  0
VPORT
  5
13
330
8
100
AcDbSymbolTableRecord
100
AcDbViewportTableRecord
  2
*Active
 70
     0
 10
0.0
 20
0.0
 11
1.0
 21
1.0
 12
354.838
 22
274.193
 13
0.0
 23
0.0
 14
1.0
 24
1.0
 15
0.0
 25
0.0
 16
0.0
 26
0.0
 36
1.0
 17
0.0
 27
0.0
 37
0.0
 40
548.3859999999999
 41
1.294117647058823
 42
50.0
 43
0.0
 44
0.0
 50
0.0
 51
0.0
 71
     0
 72
   100
 73
     1
 74
     1
 75
     0
 76
     0
 77
     0
 78
     0
281
     0
 65
     1
110
0.0
120
0.0
130
0.0
111
1.0
121
0.0
131
0.0
112
0.0
122
1.0
132
0.0
 79
     0
146
0.0
  0
ENDTAB
  0
TABLE
  2
LTYPE
  5
5
330
0
100
AcDbSymbolTable
 70
    59
  0
LTYPE
  5
14
330
5
100
AcDbSymbolTableRecord
100
AcDbLinetypeTableRecord
  2
ByBlock
 70
     0
  3

 72
    65
 73
     0
 40
0.0
  0
LTYPE
  5
15
330
5
100
AcDbSymbolTableRecord
100
AcDbLinetypeTableRecord
  2
ByLayer
 70
     0
  3

 72
    65
 73
     0
 40
0.0
  0
LTYPE
  5
16
330
5
100
AcDbSymbolTableRecord
100
AcDbLinetypeTableRecord
  2
Continuous
 70
     0
  3
Solid line
 72
    65
 73
     0
 40
0.0
  0
LTYPE
  5
2A
330
5
100
AcDbSymbolTableRecord
100
AcDbLinetypeTableRecord
  2
Section_View_Lines
 70
     0
  3
Section View Lines
 72
    65
 73
     4
 40
0.8406
 49
0.6614
 74
     0
 49
-0.0827
 74
     0
 49
0.0138
 74
     0
 49
-0.0827
 74
     0
  0
LTYPE
  5
2B
330
5
100
AcDbSymbolTableRecord
100
AcDbLinetypeTableRecord
  2
CHAIN
 70
     0
  3
Chain ____ _ ____ _ ____ _ ____ _ ____ _ ____
 72
    65
 73
     4
 40
0.3543
 49
0.2362
 74
     0
 49
-0.0295
 74
     0
 49
0.0591
 74
     0
 49
-0.0295
 74
     0
  0
LTYPE
  5
2C
330
5
100
AcDbSymbolTableRecord
100
AcDbLinetypeTableRecord
  2
DASH_DOT
 70
     0
  3
Dash dot _._._._._._._._._._._._._._._.
 72
    65
 73
     4
 40
0.182
 49
0.1181
 74
     0
 49
-0.0295
 74
     0
 49
0.0049
 74
     0
 49
-0.0295
 74
     0
  0
LTYPE
  5
2D
330
5
100
AcDbSymbolTableRecord
100
AcDbLinetypeTableRecord
  2
DASH_DOUBLE_DOT
 70
     0
  3
Dash Double Dot __ __ . __ __ . __ __ . __ _
 72
    65
 73
     6
 40
0.2164
 49
0.1181
 74
     0
 49
-0.0295
 74
     0
 49
0.0049
 74
     0
 49
-0.0295
 74
     0
 49
0.0049
 74
     0
 49
-0.0295
 74
     0
  0
LTYPE
  5
2E
330
5
100
AcDbSymbolTableRecord
100
AcDbLinetypeTableRecord
  2
DASH_TRIPLE_DOT
 70
     0
  3
Dash Triple-Dot _ . . . _ . . . _ . . . _
 72
    65
 73
     8
 40
0.2508
 49
0.1181
 74
     0
 49
-0.0295
 74
     0
 49
0.0049
 74
     0
 49
-0.0295
 74
     0
 49
0.0049
 74
     0
 49
-0.0295
 74
     0
 49
0.0049
 74
     0
 49
-0.0295
 74
     0
  0
LTYPE
  5
2F
330
5
100
AcDbSymbolTableRecord
100
AcDbLinetypeTableRecord
  2
DASHED
 70
     0
  3
Dashed __ __ __ __ __ __ __ __ __ __ __ __ __ _
 72
    65
 73
     2
 40
0.2068
 49
0.1655
 74
     0
 49
-0.0413
 74
     0
  0
LTYPE
  5
30
330
5
100
AcDbSymbolTableRecord
100
AcDbLinetypeTableRecord
  2
DASHED_SPACE
 70
     0
  3
Dashed Space __ __ __ __ __ __ __ __ __ __ __ _
 72
    65
 73
     2
 40
0.2067
 49
0.1654
 74
     0
 49
-0.0413
 74
     0
  0
LTYPE
  5
31
330
5
100
AcDbSymbolTableRecord
100
AcDbLinetypeTableRecord
  2
DOTTED
 70
     0
  3
Dotted . . . . . . . . . . . . . . . . . . . . 
 72
    65
 73
     2
 40
0.0481
 49
0.0068
 74
     0
 49
-0.0413
 74
     0
  0
LTYPE
  5
32
330
5
100
AcDbSymbolTableRecord
100
AcDbLinetypeTableRecord
  2
DOUBLE_DASH_CHAIN
 70
     0
  3
Double Dash Chain ___ _ _ ___ _ _ ___ _ _ ___ _
 72
    65
 73
     6
 40
1.240299999999999
 49
0.6614
 74
     0
 49
-0.0827
 74
     0
 49
0.1654
 74
     0
 49
-0.0827
 74
     0
 49
0.1654
 74
     0
 49
-0.0827
 74
     0
  0
LTYPE
  5
33
330
5
100
AcDbSymbolTableRecord
100
AcDbLinetypeTableRecord
  2
DOUBLE_DASH_DOT
 70
     0
  3
Double Dash Dot __ __ . __ __ . __ __ . __ _
 72
    65
 73
     6
 40
0.3296
 49
0.1181
 74
     0
 49
-0.0295
 74
     0
 49
0.1181
 74
     0
 49
-0.0295
 74
     0
 49
0.0049
 74
     0
 49
-0.0295
 74
     0
  0
LTYPE
  5
34
330
5
100
AcDbSymbolTableRecord
100
AcDbLinetypeTableRecord
  2
DOUBLE_DASH_DOUBLE_DOT
 70
     0
  3
Double Dash Double Dot _ _ . . _ _ . . _ _
 72
    65
 73
     8
 40
0.364
 49
0.1181
 74
     0
 49
-0.0295
 74
     0
 49
0.1181
 74
     0
 49
-0.0295
 74
     0
 49
0.0049
 74
     0
 49
-0.0295
 74
     0
 49
0.0049
 74
     0
 49
-0.0295
 74
     0
  0
LTYPE
  5
35
330
5
100
AcDbSymbolTableRecord
100
AcDbLinetypeTableRecord
  2
DOUBLE_DASH_TRIPLE_DOT
 70
     0
  3
Double Dash Triple Dot __ __ . . . __ __ . . .
 72
    65
 73
    10
 40
0.3984
 49
0.1181
 74
     0
 49
-0.0295
 74
     0
 49
0.1181
 74
     0
 49
-0.0295
 74
     0
 49
0.0049
 74
     0
 49
-0.0295
 74
     0
 49
0.0049
 74
     0
 49
-0.0295
 74
     0
 49
0.0049
 74
     0
 49
-0.0295
 74
     0
  0
LTYPE
  5
36
330
5
100
AcDbSymbolTableRecord
100
AcDbLinetypeTableRecord
  2
LONG_DASH_DOTTED
 70
     0
  3
Long Dash Dotted ____ . ____ . ____ . ____ . _
 72
    65
 73
     4
 40
0.3001
 49
0.2362
 74
     0
 49
-0.0295
 74
     0
 49
0.0049
 74
     0
 49
-0.0295
 74
     0
  0
LTYPE
  5
37
330
5
100
AcDbSymbolTableRecord
100
AcDbLinetypeTableRecord
  2
LONG_DASH_DOUBLE_DOT
 70
     0
  3
Long Dash Double Dot ____ . . ____ . . ____ . .
 72
    65
 73
     6
 40
0.3345
 49
0.2362
 74
     0
 49
-0.0295
 74
     0
 49
0.0049
 74
     0
 49
-0.0295
 74
     0
 49
0.0049
 74
     0
 49
-0.0295
 74
     0
  0
LTYPE
  5
38
330
5
100
AcDbSymbolTableRecord
100
AcDbLinetypeTableRecord
  2
LONG_DASH_TRIPLE_DOT
 70
     0
  3
Long Dash Triple Dot ____ ... ____ ... ____
 72
    65
 73
     8
 40
0.3689
 49
0.2362
 74
     0
 49
-0.0295
 74
     0
 49
0.0049
 74
     0
 49
-0.0295
 74
     0
 49
0.0049
 74
     0
 49
-0.0295
 74
     0
 49
0.0049
 74
     0
 49
-0.0295
 74
     0
  0
LTYPE
  5
39
330
5
100
AcDbSymbolTableRecord
100
AcDbLinetypeTableRecord
  2
BORDER
 70
     0
  3
Border __ __ . __ __ . __ __ . __ __ . __ __ .
 72
    65
 73
     6
 40
44.45
 49
12.7
 74
     0
 49
-6.349999999999999
 74
     0
 49
12.7
 74
     0
 49
-6.349999999999999
 74
     0
 49
0.0
 74
     0
 49
-6.349999999999999
 74
     0
  0
LTYPE
  5
3A
330
5
100
AcDbSymbolTableRecord
100
AcDbLinetypeTableRecord
  2
BORDER2
 70
     0
  3
Border (.5x) __.__.__.__.__.__.__.__.__.__.__.
 72
    65
 73
     6
 40
22.225
 49
6.349999999999999
 74
     0
 49
-3.174999999999999
 74
     0
 49
6.349999999999999
 74
     0
 49
-3.174999999999999
 74
     0
 49
0.0
 74
     0
 49
-3.174999999999999
 74
     0
  0
LTYPE
  5
3B
330
5
100
AcDbSymbolTableRecord
100
AcDbLinetypeTableRecord
  2
BORDERX2
 70
     0
  3
Border (2x) ____  ____  .  ____  ____  .  ___
 72
    65
 73
     6
 40
88.9
 49
25.4
 74
     0
 49
-12.7
 74
     0
 49
25.4
 74
     0
 49
-12.7
 74
     0
 49
0.0
 74
     0
 49
-12.7
 74
     0
  0
LTYPE
  5
3C
330
5
100
AcDbSymbolTableRecord
100
AcDbLinetypeTableRecord
  2
CENTER
 70
     0
  3
Center ____ _ ____ _ ____ _ ____ _ ____ _ ____
 72
    65
 73
     4
 40
50.8
 49
31.75
 74
     0
 49
-6.349999999999999
 74
     0
 49
6.349999999999999
 74
     0
 49
-6.349999999999999
 74
     0
  0
LTYPE
  5
3D
330
5
100
AcDbSymbolTableRecord
100
AcDbLinetypeTableRecord
  2
CENTER2
 70
     0
  3
Center (.5x) ___ _ ___ _ ___ _ ___ _ ___ _ ___
 72
    65
 73
     4
 40
28.575
 49
19.05
 74
     0
 49
-3.174999999999999
 74
     0
 49
3.174999999999999
 74
     0
 49
-3.174999999999999
 74
     0
  0
LTYPE
  5
3E
330
5
100
AcDbSymbolTableRecord
100
AcDbLinetypeTableRecord
  2
CENTERX2
 70
     0
  3
Center (2x) ________  __  ________  __  _____
 72
    65
 73
     4
 40
101.6
 49
63.5
 74
     0
 49
-12.7
 74
     0
 49
12.7
 74
     0
 49
-12.7
 74
     0
  0
LTYPE
  5
3F
330
5
100
AcDbSymbolTableRecord
100
AcDbLinetypeTableRecord
  2
DASHDOT2
 70
     0
  3
Dash dot (.5x) _._._._._._._._._._._._._._._.
 72
    65
 73
     4
 40
12.7
 49
6.349999999999999
 74
     0
 49
-3.174999999999999
 74
     0
 49
0.0
 74
     0
 49
-3.174999999999999
 74
     0
  0
LTYPE
  5
40
330
5
100
AcDbSymbolTableRecord
100
AcDbLinetypeTableRecord
  2
DASHDOTX2
 70
     0
  3
Dash dot (2x) ____  .  ____  .  ____  .  ___
 72
    65
 73
     4
 40
50.8
 49
25.4
 74
     0
 49
-12.7
 74
     0
 49
0.0
 74
     0
 49
-12.7
 74
     0
  0
LTYPE
  5
41
330
5
100
AcDbSymbolTableRecord
100
AcDbLinetypeTableRecord
  2
DASHED2
 70
     0
  3
Dashed (.5x) _ _ _ _ _ _ _ _ _ _ _ _ _ _ _ _ _
 72
    65
 73
     2
 40
9.524999999999998
 49
6.349999999999999
 74
     0
 49
-3.174999999999999
 74
     0
  0
LTYPE
  5
42
330
5
100
AcDbSymbolTableRecord
100
AcDbLinetypeTableRecord
  2
DASHEDX2
 70
     0
  3
Dashed (2x) ____  ____  ____  ____  ____  ___
 72
    65
 73
     2
 40
38.1
 49
25.4
 74
     0
 49
-12.7
 74
     0
  0
LTYPE
  5
43
330
5
100
AcDbSymbolTableRecord
100
AcDbLinetypeTableRecord
  2
DIVIDE
 70
     0
  3
Divide ____ . . ____ . . ____ . . ____ . . ____
 72
    65
 73
     6
 40
31.75
 49
12.7
 74
     0
 49
-6.349999999999999
 74
     0
 49
0.0
 74
     0
 49
-6.349999999999999
 74
     0
 49
0.0
 74
     0
 49
-6.349999999999999
 74
     0
  0
LTYPE
  5
44
330
5
100
AcDbSymbolTableRecord
100
AcDbLinetypeTableRecord
  2
DIVIDE2
 70
     0
  3
Divide (.5x) __..__..__..__..__..__..__..__.._
 72
    65
 73
     6
 40
15.875
 49
6.349999999999999
 74
     0
 49
-3.174999999999999
 74
     0
 49
0.0
 74
     0
 49
-3.174999999999999
 74
     0
 49
0.0
 74
     0
 49
-3.174999999999999
 74
     0
  0
LTYPE
  5
45
330
5
100
AcDbSymbolTableRecord
100
AcDbLinetypeTableRecord
  2
DIVIDEX2
 70
     0
  3
Divide (2x) ________  .  .  ________  .  .  _
 72
    65
 73
     6
 40
63.49999999999999
 49
25.4
 74
     0
 49
-12.7
 74
     0
 49
0.0
 74
     0
 49
-12.7
 74
     0
 49
0.0
 74
     0
 49
-12.7
 74
     0
  0
LTYPE
  5
46
330
5
100
AcDbSymbolTableRecord
100
AcDbLinetypeTableRecord
  2
DOT
 70
     0
  3
Dot . . . . . . . . . . . . . . . . . . . . . .
 72
    65
 73
     2
 40
6.349999999999999
 49
0.0
 74
     0
 49
-6.349999999999999
 74
     0
  0
LTYPE
  5
47
330
5
100
AcDbSymbolTableRecord
100
AcDbLinetypeTableRecord
  2
DOT2
 70
     0
  3
Dot (.5x) .....................................
 72
    65
 73
     2
 40
3.174999999999999
 49
0.0
 74
     0
 49
-3.174999999999999
 74
     0
  0
LTYPE
  5
48
330
5
100
AcDbSymbolTableRecord
100
AcDbLinetypeTableRecord
  2
DOTX2
 70
     0
  3
Dot (2x) .  .  .  .  .  .  .  .  .  .  .  .  . 
 72
    65
 73
     2
 40
12.7
 49
0.0
 74
     0
 49
-12.7
 74
     0
  0
LTYPE
  5
49
330
5
100
AcDbSymbolTableRecord
100
AcDbLinetypeTableRecord
  2
HIDDEN
 70
     0
  3
Hidden __ __ __ __ __ __ __ __ __ __ __ __ __ _
 72
    65
 73
     2
 40
9.524999999999998
 49
6.349999999999999
 74
     0
 49
-3.174999999999999
 74
     0
  0
LTYPE
  5
4A
330
5
100
AcDbSymbolTableRecord
100
AcDbLinetypeTableRecord
  2
HIDDEN2
 70
     0
  3
Hidden (.5x) _ _ _ _ _ _ _ _ _ _ _ _ _ _ _ _ _
 72
    65
 73
     2
 40
4.762499999999999
 49
3.174999999999999
 74
     0
 49
-1.587499999999999
 74
     0
  0
LTYPE
  5
4B
330
5
100
AcDbSymbolTableRecord
100
AcDbLinetypeTableRecord
  2
HIDDENX2
 70
     0
  3
Hidden (2x) ____ ____ ____ ____ ____ ____ ____
 72
    65
 73
     2
 40
19.05
 49
12.7
 74
     0
 49
-6.349999999999999
 74
     0
  0
LTYPE
  5
4C
330
5
100
AcDbSymbolTableRecord
100
AcDbLinetypeTableRecord
  2
PHANTOM
 70
     0
  3
Phantom ______  __  __  ______  __  __  ______
 72
    65
 73
     6
 40
63.5
 49
31.75
 74
     0
 49
-6.349999999999999
 74
     0
 49
6.349999999999999
 74
     0
 49
-6.349999999999999
 74
     0
 49
6.349999999999999
 74
     0
 49
-6.349999999999999
 74
     0
  0
LTYPE
  5
4D
330
5
100
AcDbSymbolTableRecord
100
AcDbLinetypeTableRecord
  2
PHANTOM2
 70
     0
  3
Phantom (.5x) ___ _ _ ___ _ _ ___ _ _ ___ _ _
 72
    65
 73
     6
 40
31.75
 49
15.875
 74
     0
 49
-3.174999999999999
 74
     0
 49
3.174999999999999
 74
     0
 49
-3.174999999999999
 74
     0
 49
3.174999999999999
 74
     0
 49
-3.174999999999999
 74
     0
  0
LTYPE
  5
4E
330
5
100
AcDbSymbolTableRecord
100
AcDbLinetypeTableRecord
  2
PHANTOMX2
 70
     0
  3
Phantom (2x) ____________    ____    ____   _
 72
    65
 73
     6
 40
127.0
 49
63.5
 74
     0
 49
-12.7
 74
     0
 49
12.7
 74
     0
 49
-12.7
 74
     0
 49
12.7
 74
     0
 49
-12.7
 74
     0
  0
LTYPE
  5
4F
330
5
100
AcDbSymbolTableRecord
100
AcDbLinetypeTableRecord
  2
ACAD_ISO02W100
 70
     0
  3
ISO dash __ __ __ __ __ __ __ __ __ __ __ __ __
 72
    65
 73
     2
 40
15.0
 49
12.0
 74
     0
 49
-3.0
 74
     0
  0
LTYPE
  5
50
330
5
100
AcDbSymbolTableRecord
100
AcDbLinetypeTableRecord
  2
ACAD_ISO03W100
 70
     0
  3
ISO dash space __    __    __    __    __    __
 72
    65
 73
     2
 40
30.0
 49
12.0
 74
     0
 49
-18.0
 74
     0
  0
LTYPE
  5
51
330
5
100
AcDbSymbolTableRecord
100
AcDbLinetypeTableRecord
  2
ACAD_ISO04W100
 70
     0
  3
ISO long-dash dot ____ . ____ . ____ . ____ . _
 72
    65
 73
     4
 40
30.0
 49
24.0
 74
     0
 49
-3.0
 74
     0
 49
0.0
 74
     0
 49
-3.0
 74
     0
  0
LTYPE
  5
52
330
5
100
AcDbSymbolTableRecord
100
AcDbLinetypeTableRecord
  2
ACAD_ISO05W100
 70
     0
  3
ISO long-dash double-dot ____ .. ____ .. ____ .
 72
    65
 73
     6
 40
33.0
 49
24.0
 74
     0
 49
-3.0
 74
     0
 49
0.0
 74
     0
 49
-3.0
 74
     0
 49
0.0
 74
     0
 49
-3.0
 74
     0
  0
LTYPE
  5
53
330
5
100
AcDbSymbolTableRecord
100
AcDbLinetypeTableRecord
  2
ACAD_ISO06W100
 70
     0
  3
ISO long-dash triple-dot ____ ... ____ ... ____
 72
    65
 73
     8
 40
36.0
 49
24.0
 74
     0
 49
-3.0
 74
     0
 49
0.0
 74
     0
 49
-3.0
 74
     0
 49
0.0
 74
     0
 49
-3.0
 74
     0
 49
0.0
 74
     0
 49
-3.0
 74
     0
  0
LTYPE
  5
54
330
5
100
AcDbSymbolTableRecord
100
AcDbLinetypeTableRecord
  2
ACAD_ISO07W100
 70
     0
  3
ISO dot . . . . . . . . . . . . . . . . . . . .
 72
    65
 73
     2
 40
3.0
 49
0.0
 74
     0
 49
-3.0
 74
     0
  0
LTYPE
  5
55
330
5
100
AcDbSymbolTableRecord
100
AcDbLinetypeTableRecord
  2
ACAD_ISO08W100
 70
     0
  3
ISO long-dash short-dash ____ __ ____ __ ____ _
 72
    65
 73
     4
 40
36.0
 49
24.0
 74
     0
 49
-3.0
 74
     0
 49
6.0
 74
     0
 49
-3.0
 74
     0
  0
LTYPE
  5
56
330
5
100
AcDbSymbolTableRecord
100
AcDbLinetypeTableRecord
  2
ACAD_ISO09W100
 70
     0
  3
ISO long-dash double-short-dash ____ __ __ ____
 72
    65
 73
     6
 40
45.0
 49
24.0
 74
     0
 49
-3.0
 74
     0
 49
6.0
 74
     0
 49
-3.0
 74
     0
 49
6.0
 74
     0
 49
-3.0
 74
     0
  0
LTYPE
  5
57
330
5
100
AcDbSymbolTableRecord
100
AcDbLinetypeTableRecord
  2
ACAD_ISO10W100
 70
     0
  3
ISO dash dot __ . __ . __ . __ . __ . __ . __ .
 72
    65
 73
     4
 40
18.0
 49
12.0
 74
     0
 49
-3.0
 74
     0
 49
0.0
 74
     0
 49
-3.0
 74
     0
  0
LTYPE
  5
58
330
5
100
AcDbSymbolTableRecord
100
AcDbLinetypeTableRecord
  2
ACAD_ISO11W100
 70
     0
  3
ISO double-dash dot __ __ . __ __ . __ __ . __ 
 72
    65
 73
     6
 40
33.0
 49
12.0
 74
     0
 49
-3.0
 74
     0
 49
12.0
 74
     0
 49
-3.0
 74
     0
 49
0.0
 74
     0
 49
-3.0
 74
     0
  0
LTYPE
  5
59
330
5
100
AcDbSymbolTableRecord
100
AcDbLinetypeTableRecord
  2
ACAD_ISO12W100
 70
     0
  3
ISO dash double-dot __ . . __ . . __ . . __ . .
 72
    65
 73
     6
 40
21.0
 49
12.0
 74
     0
 49
-3.0
 74
     0
 49
0.0
 74
     0
 49
-3.0
 74
     0
 49
0.0
 74
     0
 49
-3.0
 74
     0
  0
LTYPE
  5
5A
330
5
100
AcDbSymbolTableRecord
100
AcDbLinetypeTableRecord
  2
ACAD_ISO13W100
 70
     0
  3
ISO double-dash double-dot __ __ . . __ __ . . 
 72
    65
 73
     8
 40
36.0
 49
12.0
 74
     0
 49
-3.0
 74
     0
 49
12.0
 74
     0
 49
-3.0
 74
     0
 49
0.0
 74
     0
 49
-3.0
 74
     0
 49
0.0
 74
     0
 49
-3.0
 74
     0
  0
LTYPE
  5
5B
330
5
100
AcDbSymbolTableRecord
100
AcDbLinetypeTableRecord
  2
ACAD_ISO14W100
 70
     0
  3
ISO dash triple-dot __ . . . __ . . . __ . . . 
 72
    65
 73
     8
 40
24.0
 49
12.0
 74
     0
 49
-3.0
 74
     0
 49
0.0
 74
     0
 49
-3.0
 74
     0
 49
0.0
 74
     0
 49
-3.0
 74
     0
 49
0.0
 74
     0
 49
-3.0
 74
     0
  0
LTYPE
  5
5C
330
5
100
AcDbSymbolTableRecord
100
AcDbLinetypeTableRecord
  2
ACAD_ISO15W100
 70
     0
  3
ISO double-dash triple-dot __ __ . . . __ __ . 
 72
    65
 73
    10
 40
39.0
 49
12.0
 74
     0
 49
-3.0
 74
     0
 49
12.0
 74
     0
 49
-3.0
 74
     0
 49
0.0
 74
     0
 49
-3.0
 74
     0
 49
0.0
 74
     0
 49
-3.0
 74
     0
 49
0.0
 74
     0
 49
-3.0
 74
     0
  0
LTYPE
  5
5F
330
5
100
AcDbSymbolTableRecord
100
AcDbLinetypeTableRecord
  2
FENCELINE1
 70
     0
  3
Fenceline circle ----0-----0----0-----0----0---
 72
    65
 73
     4
 40
36.83
 49
6.349999999999999
 74
     0
 49
-2.54
 74
     4
 75
   133
340
5E
 46
2.54
 50
0.0
 44
-2.54
 45
0.0
 49
-2.54
 74
     0
 49
25.4
 74
     0
  0
LTYPE
  5
60
330
5
100
AcDbSymbolTableRecord
100
AcDbLinetypeTableRecord
  2
FENCELINE2
 70
     0
  3
Fenceline square ----[]-----[]----[]-----[]----
 72
    65
 73
     4
 40
36.83
 49
6.349999999999999
 74
     0
 49
-2.54
 74
     4
 75
   132
340
5E
 46
2.54
 50
0.0
 44
-2.54
 45
0.0
 49
-2.54
 74
     0
 49
25.4
 74
     0
  0
LTYPE
  5
61
330
5
100
AcDbSymbolTableRecord
100
AcDbLinetypeTableRecord
  2
TRACKS
 70
     0
  3
Tracks -|-|-|-|-|-|-|-|-|-|-|-|-|-|-|-|-|-|-|-|
 72
    65
 73
     2
 40
7.62
 49
3.81
 74
     4
 75
   130
340
5E
 46
6.349999999999999
 50
0.0
 44
0.0
 45
0.0
 49
3.81
 74
     0
  0
LTYPE
  5
62
330
5
100
AcDbSymbolTableRecord
100
AcDbLinetypeTableRecord
  2
BATTING
 70
     0
  3
Batting SSSSSSSSSSSSSSSSSSSSSSSSSSSSSSSSSSSSSSS
 72
    65
 73
     4
 40
10.16254
 49
0.00254
 74
     0
 49
-2.54
 74
     4
 75
   134
340
5E
 46
2.54
 50
0.0
 44
-2.54
 45
0.0
 49
-5.08
 74
     4
 75
   134
340
5E
 46
2.54
 50
180.0
 44
2.54
 45
0.0
 49
-2.54
 74
     0
  0
LTYPE
  5
63
330
5
100
AcDbSymbolTableRecord
100
AcDbLinetypeTableRecord
  2
HOT_WATER_SUPPLY
 70
     0
  3
Hot water supply ---- HW ---- HW ---- HW ----
 72
    65
 73
     3
 40
22.86
 49
12.7
 74
     0
 49
-5.08
 74
     2
 75
     0
340
11
 46
2.54
 50
0.0
 44
-2.54
 45
-1.27
  9
HW
 49
-5.08
 74
     0
  0
LTYPE
  5
64
330
5
100
AcDbSymbolTableRecord
100
AcDbLinetypeTableRecord
  2
GAS_LINE
 70
     0
  3
Gas line ----GAS----GAS----GAS----GAS----GAS---
 72
    65
 73
     3
 40
24.13
 49
12.7
 74
     0
 49
-5.08
 74
     2
 75
     0
340
11
 46
2.54
 50
0.0
 44
-2.54
 45
-1.27
  9
GAS
 49
-6.349999999999999
 74
     0
  0
LTYPE
  5
65
330
5
100
AcDbSymbolTableRecord
100
AcDbLinetypeTableRecord
  2
ZIGZAG
 70
     0
  3
Zig zag /\/\/\/\/\/\/\/\/\/\/\/\/\/\/\/\/\/\/\/
 72
    65
 73
     4
 40
20.32254
 49
0.00254
 74
     0
 49
-5.08
 74
     4
 75
   131
340
5E
 46
5.08
 50
0.0
 44
-5.08
 45
0.0
 49
-10.16
 74
     4
 75
   131
340
5E
 46
5.08
 50
180.0
 44
5.08
 45
0.0
 49
-5.08
 74
     0
  0
ENDTAB
  0
TABLE
  2
LAYER
  5
2
330
0
100
AcDbSymbolTable
 70
    40
  0
LAYER
  5
10
330
2
100
AcDbSymbolTableRecord
100
AcDbLayerTableRecord
  2
0
 70
     0
 62
     7
  6
Continuous
370
    -3
390
F
  0
LAYER
  5
7F
330
2
100
AcDbSymbolTableRecord
100
AcDbLayerTableRecord
  2
Visible Edges
 70
     0
 62
     7
  6
Continuous
370
    50
390
F
  0
LAYER
  5
80
330
2
100
AcDbSymbolTableRecord
100
AcDbLayerTableRecord
  2
Hidden Edges
 70
     0
 62
     7
  6
DASHED
370
    35
390
F
  0
LAYER
  5
81
330
2
100
AcDbSymbolTableRecord
100
AcDbLayerTableRecord
  2
Tangent Edges
 70
     0
 62
     7
  6
Continuous
370
    50
390
F
  0
LAYER
  5
82
330
2
100
AcDbSymbolTableRecord
100
AcDbLayerTableRecord
  2
Section View Lines
 70
     0
 62
     7
  6
LONG_DASH_DOTTED
370
    70
390
F
  0
LAYER
  5
83
330
2
100
AcDbSymbolTableRecord
100
AcDbLayerTableRecord
  2
Detail Circle Lines
 70
     0
 62
     7
  6
Continuous
370
    25
390
F
  0
LAYER
  5
84
330
2
100
AcDbSymbolTableRecord
100
AcDbLayerTableRecord
  2
Dimensions
 70
     0
 62
     7
  6
Continuous
370
    25
390
F
  0
LAYER
  5
85
330
2
100
AcDbSymbolTableRecord
100
AcDbLayerTableRecord
  2
Center Mark
 70
     0
 62
     7
  6
CHAIN
370
    25
390
F
  0
LAYER
  5
86
330
2
100
AcDbSymbolTableRecord
100
AcDbLayerTableRecord
  2
Symbols
 70
     0
 62
     7
  6
Continuous
370
    25
390
F
  0
LAYER
  5
87
330
2
100
AcDbSymbolTableRecord
100
AcDbLayerTableRecord
  2
Leader Lines
 70
     0
 62
     7
  6
Continuous
370
    25
390
F
  0
LAYER
  5
88
330
2
100
AcDbSymbolTableRecord
100
AcDbLayerTableRecord
  2
Sketch Lines
 70
     0
 62
     7
  6
Continuous
370
    25
390
F
  0
LAYER
  5
89
330
2
100
AcDbSymbolTableRecord
100
AcDbLayerTableRecord
  2
Phantom Lines
 70
     0
 62
     7
  6
DOUBLE_DASH_CHAIN
370
    70
390
F
  0
LAYER
  5
8A
330
2
100
AcDbSymbolTableRecord
100
AcDbLayerTableRecord
  2
Symmetry Lines
 70
     0
 62
     7
  6
LONG_DASH_DOTTED
370
    25
390
F
  0
LAYER
  5
8B
330
2
100
AcDbSymbolTableRecord
100
AcDbLayerTableRecord
  2
Break Lines
 70
     0
 62
     7
  6
Continuous
370
    50
390
F
  0
LAYER
  5
8C
330
2
100
AcDbSymbolTableRecord
100
AcDbLayerTableRecord
  2
Stitch 1 Lines
 70
     0
 62
     7
  6
DASHED_SPACE
370
    25
390
F
  0
LAYER
  5
8D
330
2
100
AcDbSymbolTableRecord
100
AcDbLayerTableRecord
  2
Stitch 2 Lines
 70
     0
 62
     7
  6
DOTTED
370
    25
390
F
  0
LAYER
  5
8E
330
2
100
AcDbSymbolTableRecord
100
AcDbLayerTableRecord
  2
Centerline
 70
     0
 62
     7
  6
CHAIN
370
    25
390
F
  0
LAYER
  5
8F
330
2
100
AcDbSymbolTableRecord
100
AcDbLayerTableRecord
  2
Sketch Only Lines
 70
     0
 62
     7
  6
Continuous
370
    50
390
F
  0
LAYER
  5
90
330
2
100
AcDbSymbolTableRecord
100
AcDbLayerTableRecord
  2
05 Lines
 70
     0
 62
     7
  6
LONG_DASH_DOTTED
370
    25
390
F
  0
LAYER
  5
91
330
2
100
AcDbSymbolTableRecord
100
AcDbLayerTableRecord
  2
06 Lines
 70
     0
 62
     7
  6
LONG_DASH_DOUBLE_DOT
370
    25
390
F
  0
LAYER
  5
92
330
2
100
AcDbSymbolTableRecord
100
AcDbLayerTableRecord
  2
07 Lines
 70
     0
 62
     7
  6
LONG_DASH_TRIPLE_DOT
370
    25
390
F
  0
LAYER
  5
93
330
2
100
AcDbSymbolTableRecord
100
AcDbLayerTableRecord
  2
08 Lines
 70
     0
 62
     7
  6
CHAIN
370
    25
390
F
  0
LAYER
  5
94
330
2
100
AcDbSymbolTableRecord
100
AcDbLayerTableRecord
  2
09 Lines
 70
     0
 62
     7
  6
DOUBLE_DASH_CHAIN
370
    25
390
F
  0
LAYER
  5
95
330
2
100
AcDbSymbolTableRecord
100
AcDbLayerTableRecord
  2
10 Lines
 70
     0
 62
     7
  6
DASH_DOT
370
    25
390
F
  0
LAYER
  5
96
330
2
100
AcDbSymbolTableRecord
100
AcDbLayerTableRecord
  2
11 Lines
 70
     0
 62
     7
  6
DOUBLE_DASH_DOT
370
    25
390
F
  0
LAYER
  5
97
330
2
100
AcDbSymbolTableRecord
100
AcDbLayerTableRecord
  2
12 Lines
 70
     0
 62
     7
  6
DASH_DOUBLE_DOT
370
    25
390
F
  0
LAYER
  5
98
330
2
100
AcDbSymbolTableRecord
100
AcDbLayerTableRecord
  2
13 Lines
 70
     0
 62
     7
  6
DOUBLE_DASH_DOUBLE_DOT
370
    25
390
F
  0
LAYER
  5
99
330
2
100
AcDbSymbolTableRecord
100
AcDbLayerTableRecord
  2
14 Lines
 70
     0
 62
     7
  6
DASH_TRIPLE_DOT
370
    25
390
F
  0
LAYER
  5
9A
330
2
100
AcDbSymbolTableRecord
100
AcDbLayerTableRecord
  2
15 Lines
 70
     0
 62
     7
  6
DOUBLE_DASH_TRIPLE_DOT
370
    25
390
F
  0
LAYER
  5
9B
330
2
100
AcDbSymbolTableRecord
100
AcDbLayerTableRecord
  2
Bend Extents
 70
     0
 62
     7
  6
Continuous
370
    50
390
F
  0
LAYER
  5
9C
330
2
100
AcDbSymbolTableRecord
100
AcDbLayerTableRecord
  2
Contour Lines
 70
     0
 62
     7
  6
LONG_DASH_DOUBLE_DOT
370
    25
390
F
  0
LAYER
  5
9D
330
2
100
AcDbSymbolTableRecord
100
AcDbLayerTableRecord
  2
Special Designation Lines
 70
     0
 62
     7
  6
LONG_DASH_DOTTED
370
    50
390
F
  0
LAYER
  5
9E
330
2
100
AcDbSymbolTableRecord
100
AcDbLayerTableRecord
  2
Work Point
 70
     0
 62
     7
  6
Continuous
370
    25
390
F
  0
LAYER
  5
9F
330
2
100
AcDbSymbolTableRecord
100
AcDbLayerTableRecord
  2
Work Axis
 70
     0
 62
     7
  6
CHAIN
370
    25
390
F
  0
LAYER
  5
A0
330
2
100
AcDbSymbolTableRecord
100
AcDbLayerTableRecord
  2
Work Plane
 70
     0
 62
     7
  6
DOUBLE_DASH_CHAIN
370
    25
390
F
  0
LAYER
  5
A1
330
2
100
AcDbSymbolTableRecord
100
AcDbLayerTableRecord
  2
Hatch
 70
     0
 62
     7
  6
Continuous
370
    25
390
F
  0
LAYER
  5
A2
330
2
100
AcDbSymbolTableRecord
100
AcDbLayerTableRecord
  2
Text
 70
     0
 62
     7
  6
Continuous
370
    25
390
F
  0
LAYER
  5
B6
330
2
100
AcDbSymbolTableRecord
100
AcDbLayerTableRecord
  2
2dTransBorder
 70
     0
 62
     7
  6
Continuous
370
    50
390
F
  0
LAYER
  5
123
330
2
100
AcDbSymbolTableRecord
100
AcDbLayerTableRecord
  2
2dTransTitleBlock
 70
     0
 62
     7
  6
Continuous
370
    50
390
F
  0
LAYER
  5
19E
330
2
100
AcDbSymbolTableRecord
100
AcDbLayerTableRecord
  2
Defpoints
 70
     0
 62
     7
  6
Continuous
290
     0
370
    -3
390
F
  0
ENDTAB
  0
TABLE
  2
STYLE
  5
3
330
0
100
AcDbSymbolTable
 70
    29
  0
STYLE
  5
11
330
3
100
AcDbSymbolTableRecord
100
AcDbTextStyleTableRecord
  2
Standard
 70
     0
 40
0.0
 41
1.0
 50
0.0
 71
     0
 42
0.2
  3
ARIAL.TTF
  4

1001
ACAD
1000
Arial
1071
      256
  0
STYLE
  5
5E
330
3
100
AcDbSymbolTableRecord
100
AcDbTextStyleTableRecord
  2

 70
     1
 40
0.0
 41
1.0
 50
0.0
 71
     0
 42
0.2
  3
ltypeshp.shx
  4

  0
STYLE
  5
66
330
3
100
AcDbSymbolTableRecord
100
AcDbTextStyleTableRecord
  2
Text Style1
 70
     0
 40
0.0
 41
1.0
 50
0.0
 71
     0
 42
0.2
  3
ARIAL.TTF
  4

1001
ACAD
1000
Arial
1071
      256
  0
STYLE
  5
67
330
3
100
AcDbSymbolTableRecord
100
AcDbTextStyleTableRecord
  2
Text Style2
 70
     0
 40
0.0
 41
1.0
 50
0.0
 71
     0
 42
0.2
  3
Aigdt___.ttf
  4

1001
ACAD
1000
AIGDT
1071
      514
  0
STYLE
  5
68
330
3
100
AcDbSymbolTableRecord
100
AcDbTextStyleTableRecord
  2
Text Style3
 70
     0
 40
0.0
 41
1.0
 50
0.0
 71
     0
 42
0.2
  3
TIMES.TTF
  4

1001
ACAD
1000
Times New Roman
1071
      256
  0
STYLE
  5
69
330
3
100
AcDbSymbolTableRecord
100
AcDbTextStyleTableRecord
  2
Text Style4
 70
     0
 40
0.0
 41
1.0
 50
0.0
 71
     0
 42
0.2
  3
TIMES.TTF
  4

1001
ACAD
1000
Times New Roman
1071
      256
  0
STYLE
  5
6A
330
3
100
AcDbSymbolTableRecord
100
AcDbTextStyleTableRecord
  2
Text Style5
 70
     0
 40
0.0
 41
1.0
 50
0.0
 71
     0
 42
0.2
  3
ARIAL.TTF
  4

1001
ACAD
1000
Arial
1071
      256
  0
STYLE
  5
6B
330
3
100
AcDbSymbolTableRecord
100
AcDbTextStyleTableRecord
  2
Text Style6
 70
     0
 40
0.0
 41
1.0
 50
0.0
 71
     0
 42
0.2
  3
ARIAL.TTF
  4

1001
ACAD
1000
Arial
1071
      256
  0
STYLE
  5
6C
330
3
100
AcDbSymbolTableRecord
100
AcDbTextStyleTableRecord
  2
Text Style7
 70
     0
 40
0.0
 41
1.0
 50
0.0
 71
     0
 42
0.2
  3
ARIAL.TTF
  4

1001
ACAD
1000
Arial
1071
      256
  0
STYLE
  5
6D
330
3
100
AcDbSymbolTableRecord
100
AcDbTextStyleTableRecord
  2
Text Style8
 70
     0
 40
0.0
 41
1.0
 50
0.0
 71
     0
 42
0.2
  3
ARIAL.TTF
  4

1001
ACAD
1000
Arial
1071
      256
  0
STYLE
  5
6E
330
3
100
AcDbSymbolTableRecord
100
AcDbTextStyleTableRecord
  2
Text Style9
 70
     0
 40
0.0
 41
1.0
 50
0.0
 71
     0
 42
0.2
  3
ARIAL.TTF
  4

1001
ACAD
1000
Arial
1071
      256
  0
STYLE
  5
6F
330
3
100
AcDbSymbolTableRecord
100
AcDbTextStyleTableRecord
  2
Text Style10
 70
     0
 40
0.0
 41
1.0
 50
0.0
 71
     0
 42
0.2
  3
ARIAL.TTF
  4

1001
ACAD
1000
Arial
1071
      256
  0
STYLE
  5
70
330
3
100
AcDbSymbolTableRecord
100
AcDbTextStyleTableRecord
  2
Text Style11
 70
     0
 40
0.0
 41
1.0
 50
0.0
 71
     0
 42
0.2
  3
Aigdt___.ttf
  4

1001
ACAD
1000
AIGDT
1071
      514
  0
STYLE
  5
71
330
3
100
AcDbSymbolTableRecord
100
AcDbTextStyleTableRecord
  2
Text Style12
 70
     0
 40
0.0
 41
1.0
 50
0.0
 71
     0
 42
0.2
  3
ARIAL.TTF
  4

1001
ACAD
1000
Arial
1071
      256
  0
STYLE
  5
72
330
3
100
AcDbSymbolTableRecord
100
AcDbTextStyleTableRecord
  2
Text Style13
 70
     0
 40
0.0
 41
1.0
 50
0.0
 71
     0
 42
0.2
  3
ARIAL.TTF
  4

1001
ACAD
1000
Arial
1071
      256
  0
STYLE
  5
73
330
3
100
AcDbSymbolTableRecord
100
AcDbTextStyleTableRecord
  2
Text Style14
 70
     0
 40
0.0
 41
1.0
 50
0.0
 71
     0
 42
0.2
  3
ARIAL.TTF
  4

1001
ACAD
1000
Arial
1071
      256
  0
STYLE
  5
74
330
3
100
AcDbSymbolTableRecord
100
AcDbTextStyleTableRecord
  2
Text Style15
 70
     0
 40
0.0
 41
1.0
 50
0.0
 71
     0
 42
0.2
  3
Aigdt___.ttf
  4

1001
ACAD
1000
AIGDT
1071
      514
  0
STYLE
  5
75
330
3
100
AcDbSymbolTableRecord
100
AcDbTextStyleTableRecord
  2
Text Style16
 70
     0
 40
0.0
 41
1.0
 50
0.0
 71
     0
 42
0.2
  3
ARIAL.TTF
  4

1001
ACAD
1000
Arial
1071
      256
  0
STYLE
  5
76
330
3
100
AcDbSymbolTableRecord
100
AcDbTextStyleTableRecord
  2
Text Style17
 70
     0
 40
0.0
 41
1.0
 50
0.0
 71
     0
 42
0.2
  3
ARIAL.TTF
  4

1001
ACAD
1000
Arial
1071
      256
  0
STYLE
  5
77
330
3
100
AcDbSymbolTableRecord
100
AcDbTextStyleTableRecord
  2
Text Style18
 70
     0
 40
0.0
 41
1.0
 50
0.0
 71
     0
 42
0.2
  3
Aigdt___.ttf
  4

1001
ACAD
1000
AIGDT
1071
      514
  0
STYLE
  5
78
330
3
100
AcDbSymbolTableRecord
100
AcDbTextStyleTableRecord
  2
Text Style19
 70
     0
 40
0.0
 41
1.0
 50
0.0
 71
     0
 42
0.2
  3
ARIAL.TTF
  4

1001
ACAD
1000
Arial
1071
      256
  0
STYLE
  5
79
330
3
100
AcDbSymbolTableRecord
100
AcDbTextStyleTableRecord
  2
Text Style20
 70
     0
 40
0.0
 41
1.0
 50
0.0
 71
     0
 42
0.2
  3
ARIAL.TTF
  4

1001
ACAD
1000
Arial
1071
      256
  0
STYLE
  5
7A
330
3
100
AcDbSymbolTableRecord
100
AcDbTextStyleTableRecord
  2
Text Style21
 70
     0
 40
0.0
 41
1.0
 50
0.0
 71
     0
 42
0.2
  3
Aigdt___.ttf
  4

1001
ACAD
1000
AIGDT
1071
      514
  0
STYLE
  5
7B
330
3
100
AcDbSymbolTableRecord
100
AcDbTextStyleTableRecord
  2
Text Style22
 70
     0
 40
0.0
 41
1.0
 50
0.0
 71
     0
 42
0.2
  3
ARIAL.TTF
  4

1001
ACAD
1000
Arial
1071
      256
  0
STYLE
  5
7C
330
3
100
AcDbSymbolTableRecord
100
AcDbTextStyleTableRecord
  2
Text Style23
 70
     0
 40
0.0
 41
1.0
 50
0.0
 71
     0
 42
0.2
  3
Aigdt___.ttf
  4

1001
ACAD
1000
AIGDT
1071
      514
  0
STYLE
  5
7D
330
3
100
AcDbSymbolTableRecord
100
AcDbTextStyleTableRecord
  2
Text Style24
 70
     0
 40
0.0
 41
1.0
 50
0.0
 71
     0
 42
0.2
  3
ARIAL.TTF
  4

1001
ACAD
1000
Arial
1071
      256
  0
STYLE
  5
7E
330
3
100
AcDbSymbolTableRecord
100
AcDbTextStyleTableRecord
  2
Text Style25
 70
     0
 40
0.0
 41
1.0
 50
0.0
 71
     0
 42
0.2
  3
Aigdt___.ttf
  4

1001
ACAD
1000
AIGDT
1071
      514
  0
STYLE
  5
A3
330
3
100
AcDbSymbolTableRecord
100
AcDbTextStyleTableRecord
  2
Current-ISO
 70
     0
 40
0.0
 41
1.0
 50
0.0
 71
     0
 42
0.2
  3
ARIAL.TTF
  4

1001
ACAD
1000
Arial
1071
      256
  0
STYLE
  5
A4
330
3
100
AcDbSymbolTableRecord
100
AcDbTextStyleTableRecord
  2
DEFAULT-ISO
 70
     0
 40
0.0
 41
1.0
 50
0.0
 71
     0
 42
0.2
  3
ARIAL.TTF
  4

1001
ACAD
1000
Arial
1071
      256
  0
ENDTAB
  0
TABLE
  2
VIEW
  5
6
330
0
100
AcDbSymbolTable
 70
     0
  0
ENDTAB
  0
TABLE
  2
UCS
  5
7
330
0
100
AcDbSymbolTable
 70
     0
  0
ENDTAB
  0
TABLE
  2
APPID
  5
9
330
0
100
AcDbSymbolTable
 70
     1
  0
APPID
  5
12
330
9
100
AcDbSymbolTableRecord
100
AcDbRegAppTableRecord
  2
ACAD
 70
     0
  0
ENDTAB
  0
TABLE
  2
DIMSTYLE
  5
A
330
0
100
AcDbSymbolTable
 70
    12
100
AcDbDimStyleTable
 71
     2
340
A5
340
29
  0
DIMSTYLE
105
29
330
A
100
AcDbSymbolTableRecord
100
AcDbDimStyleTableRecord
  2
Standard
 70
     0
340
11
  0
DIMSTYLE
105
A5
102
{ACAD_REACTORS
330
19D
330
237
330
2A2
330
336
330
3CA
330
464
330
4FE
330
569
330
616
330
6AF
330
748
330
7B3
330
869
330
997
330
A3B
330
ADF
330
B8C
330
CB8
330
D5E
330
E02
330
EAF
330
FC2
330
1036
330
1149
330
11E1
330
1251
330
12C3
330
135C
330
13F6
330
1492
330
152E
330
15DA
330
1673
102
}
330
A
100
AcDbSymbolTableRecord
100
AcDbDimStyleTableRecord
  2
DEFAULT-ISO
 70
     0
 41
2.5
 42
0.0
 43
5.999999999999999
 44
3.174999999999999
 45
0.00000001
 46
10.0
 73
     0
 74
     0
 77
     1
140
3.5
143
0.03937
147
0.762
171
     3
176
   250
177
   250
178
    18
179
     2
271
     2
272
     2
278
    44
340
11
371
    25
372
    25
  0
DIMSTYLE
105
A6
330
A
100
AcDbSymbolTableRecord
100
AcDbDimStyleTableRecord
  2
DEFAULT-ISO-Method 1b
 70
     0
 41
2.5
 42
0.0
 43
5.999999999999999
 44
3.174999999999999
 45
0.00000001
 46
10.0
 73
     0
 77
     1
 78
     8
 79
     2
140
3.5
143
0.03937
147
0.762
171
     3
176
   250
177
   250
178
    18
179
     2
271
     2
272
     2
278
    44
284
     8
340
11
371
    25
372
    25
  0
DIMSTYLE
105
A7
330
A
100
AcDbSymbolTableRecord
100
AcDbDimStyleTableRecord
  2
DEFAULT-ISO-Method 2a
 70
     0
 41
2.5
 42
0.0
 43
5.999999999999999
 44
3.174999999999999
 45
0.00000001
 46
10.0
 78
     8
 79
     2
140
3.5
143
0.03937
147
0.762
171
     3
176
   250
177
   250
178
    18
179
     2
271
     2
272
     2
278
    44
284
     8
340
11
371
    25
372
    25
  0
DIMSTYLE
105
A8
330
A
100
AcDbSymbolTableRecord
100
AcDbDimStyleTableRecord
  2
DEFAULT-ISO-Method 2b
 70
     0
 41
2.5
 42
0.0
 43
5.999999999999999
 44
3.174999999999999
 45
0.00000001
 46
10.0
 78
     8
 79
     2
140
3.5
143
0.03937
147
0.762
171
     3
176
   250
177
   250
178
    18
179
     2
271
     2
272
     2
278
    44
284
     8
340
11
371
    25
372
    25
  0
DIMSTYLE
105
A9
330
A
100
AcDbSymbolTableRecord
100
AcDbDimStyleTableRecord
  2
X.X big gap & text
 70
     0
 41
5.0
 42
2.0
 43
5.999999999999999
 44
3.174999999999999
 45
0.00000001
 46
10.0
 73
     0
 74
     0
 77
     1
 78
     8
 79
     2
140
5.0
143
0.03937
146
0.7
147
0.762
171
     3
176
   116
177
   116
178
    11
179
     1
271
     1
272
     1
278
    44
284
     8
340
11
343
AA
344
AA
371
    25
372
    25
  0
DIMSTYLE
105
B0
330
A
100
AcDbSymbolTableRecord
100
AcDbDimStyleTableRecord
  2
X.XXX
 70
     0
 41
2.5
 42
0.0
 43
5.999999999999999
 44
3.174999999999999
 45
0.00000001
 46
10.0
 73
     0
 74
     0
 77
     1
 78
     8
 79
     2
140
3.5
143
0.03937
147
0.762
171
     3
176
   250
177
   250
178
    18
179
     3
271
     3
272
     2
275
     1
278
    44
284
     8
340
11
371
    25
372
    25
  0
DIMSTYLE
105
B1
330
A
100
AcDbSymbolTableRecord
100
AcDbDimStyleTableRecord
  2
X.XXX + - tolerance
 70
     0
 41
2.5
 42
0.0
 43
5.999999999999999
 44
3.174999999999999
 45
0.00000001
 46
10.0
 71
     1
 73
     0
 74
     0
 77
     1
 78
     8
 79
     2
140
3.5
143
0.03937
147
0.762
171
     3
176
   250
177
   250
178
    18
179
     3
271
     3
272
     3
275
     1
278
    44
284
     8
340
11
371
    25
372
    25
  0
DIMSTYLE
105
B2
330
A
100
AcDbSymbolTableRecord
100
AcDbDimStyleTableRecord
  2
X.XXX +tolerance -tolerance
 70
     0
 41
2.5
 42
0.0
 43
5.999999999999999
 44
3.174999999999999
 45
0.00000001
 46
10.0
 48
0.000000001
 71
     1
 73
     0
 74
     0
 77
     1
 78
     8
 79
     2
140
3.5
143
0.03937
147
0.762
171
     3
176
   250
177
   250
178
    18
179
     3
271
     3
272
     3
275
     1
278
    44
284
     8
340
11
371
    25
372
    25
  0
DIMSTYLE
105
B3
330
A
100
AcDbSymbolTableRecord
100
AcDbDimStyleTableRecord
  2
X.XXX mm[inch]
 70
     0
  4
 in
 41
2.5
 42
0.0
 43
5.999999999999999
 44
3.174999999999999
 45
0.00000001
 46
10.0
 73
     0
 74
     0
 77
     1
 78
     8
 79
     2
140
3.5
143
0.03937
147
0.762
170
     1
171
     3
176
   250
177
   250
178
    18
179
     3
271
     3
272
     2
275
     1
278
    44
284
     8
285
     4
286
     4
340
11
371
    25
372
    25
  0
DIMSTYLE
105
B4
330
A
100
AcDbSymbolTableRecord
100
AcDbDimStyleTableRecord
  2
X.XXX radial
 70
     0
 41
2.5
 42
0.0
 43
5.999999999999999
 44
3.174999999999999
 45
0.00000001
 46
10.0
 73
     0
 74
     0
 77
     1
 78
     8
 79
     2
140
3.5
143
0.03937
147
0.762
171
     3
176
   250
177
   250
178
    18
179
     3
271
     3
272
     2
275
     1
284
     8
340
11
371
    25
372
    25
  0
DIMSTYLE
105
B5
330
A
100
AcDbSymbolTableRecord
100
AcDbDimStyleTableRecord
  2
X.XXX small tolerance
 70
     0
 41
2.5
 42
0.0
 43
5.999999999999999
 44
3.174999999999999
 45
0.00000001
 46
10.0
 71
     1
 73
     0
 74
     0
 77
     1
 78
     8
 79
     2
140
3.5
143
0.03937
146
0.7142857142857144
147
0.762
171
     3
176
   250
177
   250
178
    18
179
     3
271
     3
272
     3
275
     1
278
    44
284
     8
340
11
371
    25
372
    25
  0
ENDTAB
  0
TABLE
  2
BLOCK_RECORD
  5
1
330
0
100
AcDbSymbolTable
 70
    77
  0
BLOCK_RECORD
  5
21
330
1
100
AcDbSymbolTableRecord
100
AcDbBlockTableRecord
  2
*Model_Space
340
24
  0
BLOCK_RECORD
  5
1D
330
1
100
AcDbSymbolTableRecord
100
AcDbBlockTableRecord
  2
*Paper_Space
340
20
  0
BLOCK_RECORD
  5
25
330
1
100
AcDbSymbolTableRecord
100
AcDbBlockTableRecord
  2
*Paper_Space0
340
28
  0
BLOCK_RECORD
  5
AA
330
1
100
AcDbSymbolTableRecord
100
AcDbBlockTableRecord
  2
_Open
340
0
  0
BLOCK_RECORD
  5
B7
330
1
100
AcDbSymbolTableRecord
100
AcDbBlockTableRecord
  2
Borders Default Border
340
0
102
{BLKREFS
331
122
102
}
  0
BLOCK_RECORD
  5
124
330
1
100
AcDbSymbolTableRecord
100
AcDbBlockTableRecord
  2
Title Blocks ISO
340
0
102
{BLKREFS
331
147
102
}
  0
BLOCK_RECORD
  5
19F
330
1
100
AcDbSymbolTableRecord
100
AcDbBlockTableRecord
  2
*D4
340
0
  0
BLOCK_RECORD
  5
238
330
1
100
AcDbSymbolTableRecord
100
AcDbBlockTableRecord
  2
*D5
340
0
  0
BLOCK_RECORD
  5
2A3
330
1
100
AcDbSymbolTableRecord
100
AcDbBlockTableRecord
  2
*D6
340
0
  0
BLOCK_RECORD
  5
337
330
1
100
AcDbSymbolTableRecord
100
AcDbBlockTableRecord
  2
*D7
340
0
  0
BLOCK_RECORD
  5
3CB
330
1
100
AcDbSymbolTableRecord
100
AcDbBlockTableRecord
  2
*D8
340
0
  0
BLOCK_RECORD
  5
465
330
1
100
AcDbSymbolTableRecord
100
AcDbBlockTableRecord
  2
*D9
340
0
  0
BLOCK_RECORD
  5
4FF
330
1
100
AcDbSymbolTableRecord
100
AcDbBlockTableRecord
  2
*D10
340
0
  0
BLOCK_RECORD
  5
56A
330
1
100
AcDbSymbolTableRecord
100
AcDbBlockTableRecord
  2
*D11
340
0
  0
BLOCK_RECORD
  5
617
330
1
100
AcDbSymbolTableRecord
100
AcDbBlockTableRecord
  2
*D12
340
0
  0
BLOCK_RECORD
  5
6B0
330
1
100
AcDbSymbolTableRecord
100
AcDbBlockTableRecord
  2
*D13
340
0
  0
BLOCK_RECORD
  5
749
330
1
100
AcDbSymbolTableRecord
100
AcDbBlockTableRecord
  2
*D14
340
0
  0
BLOCK_RECORD
  5
7B4
330
1
100
AcDbSymbolTableRecord
100
AcDbBlockTableRecord
  2
*D15
340
0
  0
BLOCK_RECORD
  5
84D
330
1
100
AcDbSymbolTableRecord
100
AcDbBlockTableRecord
  2
2dTransSymbol1
340
0
102
{BLKREFS
331
85E
102
}
  0
BLOCK_RECORD
  5
86A
330
1
100
AcDbSymbolTableRecord
100
AcDbBlockTableRecord
  2
*D17
340
0
  0
BLOCK_RECORD
  5
96E
330
1
100
AcDbSymbolTableRecord
100
AcDbBlockTableRecord
  2
2dTransSection0
340
0
102
{BLKREFS
331
98D
102
}
  0
BLOCK_RECORD
  5
998
330
1
100
AcDbSymbolTableRecord
100
AcDbBlockTableRecord
  2
*D19
340
0
  0
BLOCK_RECORD
  5
A3C
330
1
100
AcDbSymbolTableRecord
100
AcDbBlockTableRecord
  2
*D20
340
0
  0
BLOCK_RECORD
  5
AE0
330
1
100
AcDbSymbolTableRecord
100
AcDbBlockTableRecord
  2
*D21
340
0
  0
BLOCK_RECORD
  5
B8D
330
1
100
AcDbSymbolTableRecord
100
AcDbBlockTableRecord
  2
*D22
340
0
  0
BLOCK_RECORD
  5
C8F
330
1
100
AcDbSymbolTableRecord
100
AcDbBlockTableRecord
  2
2dTransSection1
340
0
102
{BLKREFS
331
CAE
102
}
  0
BLOCK_RECORD
  5
CB9
330
1
100
AcDbSymbolTableRecord
100
AcDbBlockTableRecord
  2
*D24
340
0
  0
BLOCK_RECORD
  5
D5F
330
1
100
AcDbSymbolTableRecord
100
AcDbBlockTableRecord
  2
*D25
340
0
  0
BLOCK_RECORD
  5
E03
330
1
100
AcDbSymbolTableRecord
100
AcDbBlockTableRecord
  2
*D26
340
0
  0
BLOCK_RECORD
  5
EB0
330
1
100
AcDbSymbolTableRecord
100
AcDbBlockTableRecord
  2
*D27
340
0
  0
BLOCK_RECORD
  5
FC3
330
1
100
AcDbSymbolTableRecord
100
AcDbBlockTableRecord
  2
*D28
340
0
  0
BLOCK_RECORD
  5
1037
330
1
100
AcDbSymbolTableRecord
100
AcDbBlockTableRecord
  2
*D29
340
0
  0
BLOCK_RECORD
  5
114A
330
1
100
AcDbSymbolTableRecord
100
AcDbBlockTableRecord
  2
*D30
340
0
  0
BLOCK_RECORD
  5
11B9
330
1
100
AcDbSymbolTableRecord
100
AcDbBlockTableRecord
  2
2dTransSymbol2
340
0
102
{BLKREFS
331
11CD
102
}
  0
BLOCK_RECORD
  5
11CE
330
1
100
AcDbSymbolTableRecord
100
AcDbBlockTableRecord
  2
2dTransSymbol3
340
0
102
{BLKREFS
331
11E0
102
}
  0
BLOCK_RECORD
  5
11E2
330
1
100
AcDbSymbolTableRecord
100
AcDbBlockTableRecord
  2
*D33
340
0
  0
BLOCK_RECORD
  5
1252
330
1
100
AcDbSymbolTableRecord
100
AcDbBlockTableRecord
  2
*D34
340
0
  0
BLOCK_RECORD
  5
12C4
330
1
100
AcDbSymbolTableRecord
100
AcDbBlockTableRecord
  2
*D35
340
0
  0
BLOCK_RECORD
  5
135D
330
1
100
AcDbSymbolTableRecord
100
AcDbBlockTableRecord
  2
*D36
340
0
  0
BLOCK_RECORD
  5
13F7
330
1
100
AcDbSymbolTableRecord
100
AcDbBlockTableRecord
  2
*D37
340
0
  0
BLOCK_RECORD
  5
1493
330
1
100
AcDbSymbolTableRecord
100
AcDbBlockTableRecord
  2
*D38
340
0
  0
BLOCK_RECORD
  5
152F
330
1
100
AcDbSymbolTableRecord
100
AcDbBlockTableRecord
  2
*D39
340
0
  0
BLOCK_RECORD
  5
15C8
330
1
100
AcDbSymbolTableRecord
100
AcDbBlockTableRecord
  2
2dTransSymbol4
340
0
102
{BLKREFS
331
15D9
102
}
  0
BLOCK_RECORD
  5
15DB
330
1
100
AcDbSymbolTableRecord
100
AcDbBlockTableRecord
  2
*D41
340
0
  0
BLOCK_RECORD
  5
1674
330
1
100
AcDbSymbolTableRecord
100
AcDbBlockTableRecord
  2
*D42
340
0
  0
BLOCK_RECORD
  5
1707
330
1
100
AcDbSymbolTableRecord
100
AcDbBlockTableRecord
  2
2dTransSymbol5
340
0
102
{BLKREFS
331
1718
102
}
  0
BLOCK_RECORD
  5
1719
330
1
100
AcDbSymbolTableRecord
100
AcDbBlockTableRecord
  2
*D44
340
0
  0
BLOCK_RECORD
  5
1726
330
1
100
AcDbSymbolTableRecord
100
AcDbBlockTableRecord
  2
*D45
340
0
  0
BLOCK_RECORD
  5
172E
330
1
100
AcDbSymbolTableRecord
100
AcDbBlockTableRecord
  2
*D46
340
0
  0
BLOCK_RECORD
  5
173A
330
1
100
AcDbSymbolTableRecord
100
AcDbBlockTableRecord
  2
*D47
340
0
  0
BLOCK_RECORD
  5
1746
330
1
100
AcDbSymbolTableRecord
100
AcDbBlockTableRecord
  2
*D48
340
0
  0
BLOCK_RECORD
  5
1753
330
1
100
AcDbSymbolTableRecord
100
AcDbBlockTableRecord
  2
*D49
340
0
  0
BLOCK_RECORD
  5
1760
330
1
100
AcDbSymbolTableRecord
100
AcDbBlockTableRecord
  2
*D50
340
0
  0
BLOCK_RECORD
  5
1768
330
1
100
AcDbSymbolTableRecord
100
AcDbBlockTableRecord
  2
*D51
340
0
  0
BLOCK_RECORD
  5
1775
330
1
100
AcDbSymbolTableRecord
100
AcDbBlockTableRecord
  2
*D52
340
0
  0
BLOCK_RECORD
  5
1782
330
1
100
AcDbSymbolTableRecord
100
AcDbBlockTableRecord
  2
*D53
340
0
  0
BLOCK_RECORD
  5
178F
330
1
100
AcDbSymbolTableRecord
100
AcDbBlockTableRecord
  2
*D54
340
0
  0
BLOCK_RECORD
  5
1797
330
1
100
AcDbSymbolTableRecord
100
AcDbBlockTableRecord
  2
*D55
340
0
  0
BLOCK_RECORD
  5
17A4
330
1
100
AcDbSymbolTableRecord
100
AcDbBlockTableRecord
  2
*D56
340
0
  0
BLOCK_RECORD
  5
17B1
330
1
100
AcDbSymbolTableRecord
100
AcDbBlockTableRecord
  2
*D57
340
0
  0
BLOCK_RECORD
  5
17BE
330
1
100
AcDbSymbolTableRecord
100
AcDbBlockTableRecord
  2
*D58
340
0
  0
BLOCK_RECORD
  5
17CB
330
1
100
AcDbSymbolTableRecord
100
AcDbBlockTableRecord
  2
*D59
340
0
  0
BLOCK_RECORD
  5
17D8
330
1
100
AcDbSymbolTableRecord
100
AcDbBlockTableRecord
  2
*D60
340
0
  0
BLOCK_RECORD
  5
17E5
330
1
100
AcDbSymbolTableRecord
100
AcDbBlockTableRecord
  2
*D61
340
0
  0
BLOCK_RECORD
  5
17F2
330
1
100
AcDbSymbolTableRecord
100
AcDbBlockTableRecord
  2
*D62
340
0
  0
BLOCK_RECORD
  5
17FF
330
1
100
AcDbSymbolTableRecord
100
AcDbBlockTableRecord
  2
*D63
340
0
  0
BLOCK_RECORD
  5
180C
330
1
100
AcDbSymbolTableRecord
100
AcDbBlockTableRecord
  2
*D64
340
0
  0
BLOCK_RECORD
  5
181A
330
1
100
AcDbSymbolTableRecord
100
AcDbBlockTableRecord
  2
*D65
340
0
  0
BLOCK_RECORD
  5
1822
330
1
100
AcDbSymbolTableRecord
100
AcDbBlockTableRecord
  2
*D66
340
0
  0
BLOCK_RECORD
  5
1830
330
1
100
AcDbSymbolTableRecord
100
AcDbBlockTableRecord
  2
*D67
340
0
  0
BLOCK_RECORD
  5
1838
330
1
100
AcDbSymbolTableRecord
100
AcDbBlockTableRecord
  2
*D68
340
0
  0
BLOCK_RECORD
  5
1840
330
1
100
AcDbSymbolTableRecord
100
AcDbBlockTableRecord
  2
*D69
340
0
  0
BLOCK_RECORD
  5
1848
330
1
100
AcDbSymbolTableRecord
100
AcDbBlockTableRecord
  2
*D70
340
0
  0
BLOCK_RECORD
  5
1855
330
1
100
AcDbSymbolTableRecord
100
AcDbBlockTableRecord
  2
*D71
340
0
  0
BLOCK_RECORD
  5
1862
330
1
100
AcDbSymbolTableRecord
100
AcDbBlockTableRecord
  2
*D72
340
0
  0
BLOCK_RECORD
  5
186F
330
1
100
AcDbSymbolTableRecord
100
AcDbBlockTableRecord
  2
*D73
340
0
  0
BLOCK_RECORD
  5
187C
330
1
100
AcDbSymbolTableRecord
100
AcDbBlockTableRecord
  2
*D74
340
0
  0
BLOCK_RECORD
  5
1889
330
1
100
AcDbSymbolTableRecord
100
AcDbBlockTableRecord
  2
*D75
340
0
  0
BLOCK_RECORD
  5
1896
330
1
100
AcDbSymbolTableRecord
100
AcDbBlockTableRecord
  2
*D76
340
0
  0
ENDTAB
  0
ENDSEC
  0
SECTION
  2
BLOCKS
  0
BLOCK
  5
22
330
21
100
AcDbEntity
  8
0
100
AcDbBlockBegin
  2
*Model_Space
 70
     0
 10
0.0
 20
0.0
 30
0.0
  3
*Model_Space
  1

  0
ENDBLK
  5
23
330
21
100
AcDbEntity
  8
0
100
AcDbBlockEnd
  0
BLOCK
  5
1E
330
1D
100
AcDbEntity
 67
     1
  8
0
100
AcDbBlockBegin
  2
*Paper_Space
 70
     0
 10
0.0
 20
0.0
 30
0.0
  3
*Paper_Space
  1

  0
ENDBLK
  5
1F
330
1D
100
AcDbEntity
 67
     1
  8
0
100
AcDbBlockEnd
  0
BLOCK
  5
26
330
25
100
AcDbEntity
  8
0
100
AcDbBlockBegin
  2
*Paper_Space0
 70
     0
 10
0.0
 20
0.0
 30
0.0
  3
*Paper_Space0
  1

  0
ENDBLK
  5
27
330
25
100
AcDbEntity
  8
0
100
AcDbBlockEnd
  0
BLOCK
  5
AE
330
AA
100
AcDbEntity
  8
0
100
AcDbBlockBegin
  2
_Open
 70
     0
 10
0.0
 20
0.0
 30
0.0
  3
_Open
  1

  0
LINE
  5
AB
330
AA
100
AcDbEntity
  8
0
  6
ByBlock
 62
     0
370
    -2
100
AcDbLine
 10
-10.0
 20
1.666666666666666
 30
0.0
 11
0.0
 21
0.0
 31
0.0
  0
LINE
  5
AC
330
AA
100
AcDbEntity
  8
0
  6
ByBlock
 62
     0
370
    -2
100
AcDbLine
 10
-10.0
 20
-1.666666666666666
 30
0.0
 11
0.0
 21
0.0
 31
0.0
  0
LINE
  5
AD
330
AA
100
AcDbEntity
  8
0
  6
ByBlock
 62
     0
370
    -2
100
AcDbLine
 10
0.0
 20
0.0
 30
0.0
 11
-10.0
 21
0.0
 31
0.0
  0
ENDBLK
  5
AF
330
AA
100
AcDbEntity
  8
0
100
AcDbBlockEnd
  0
BLOCK
  5
B8
330
B7
100
AcDbEntity
  8
0
100
AcDbBlockBegin
  2
Borders Default Border
 70
     0
 10
0.0
 20
0.0
 30
0.0
  3
Borders Default Border
  1

  0
POLYLINE
  5
BA
330
B7
100
AcDbEntity
  8
2dTransBorder
  6
Continuous
 48
0.0
370
    50
100
AcDb2dPolyline
 66
     1
 10
0.0
 20
0.0
 30
0.0
  0
VERTEX
  5
BB
330
BA
100
AcDbEntity
  8
2dTransBorder
  6
Continuous
 48
0.0
370
    50
100
AcDbVertex
100
AcDb2dVertex
 10
10.0
 20
10.0
 30
0.0
  0
VERTEX
  5
BC
330
BA
100
AcDbEntity
  8
2dTransBorder
  6
Continuous
 48
0.0
370
    50
100
AcDbVertex
100
AcDb2dVertex
 10
10.0
 20
287.0000076293946
 30
0.0
  0
VERTEX
  5
BE
330
BA
100
AcDbEntity
  8
2dTransBorder
  6
Continuous
 48
0.0
370
    50
100
AcDbVertex
100
AcDb2dVertex
 10
410.0
 20
287.0000076293946
 30
0.0
  0
VERTEX
  5
BF
330
BA
100
AcDbEntity
  8
2dTransBorder
  6
Continuous
 48
0.0
370
    50
100
AcDbVertex
100
AcDb2dVertex
 10
410.0
 20
10.0
 30
0.0
  0
VERTEX
  5
C0
330
BA
100
AcDbEntity
  8
2dTransBorder
  6
Continuous
 48
0.0
370
    50
100
AcDbVertex
100
AcDb2dVertex
 10
10.0
 20
10.0
 30
0.0
  0
SEQEND
  5
BD
330
BA
100
AcDbEntity
  8
2dTransBorder
  6
Continuous
 48
0.0
370
    50
  0
POLYLINE
  5
C1
330
B7
100
AcDbEntity
  8
2dTransBorder
  6
Continuous
 48
0.0
370
    50
100
AcDb2dPolyline
 66
     1
 10
0.0
 20
0.0
 30
0.0
  0
VERTEX
  5
C2
330
C1
100
AcDbEntity
  8
2dTransBorder
  6
Continuous
 48
0.0
370
    50
100
AcDbVertex
100
AcDb2dVertex
 10
210.0
 20
0.0
 30
0.0
  0
VERTEX
  5
C3
330
C1
100
AcDbEntity
  8
2dTransBorder
  6
Continuous
 48
0.0
370
    50
100
AcDbVertex
100
AcDb2dVertex
 10
210.0
 20
10.0
 30
0.0
  0
VERTEX
  5
C5
330
C1
100
AcDbEntity
  8
2dTransBorder
  6
Continuous
 48
0.0
370
    50
100
AcDbVertex
100
AcDb2dVertex
 10
207.1132469177246
 20
5.0
 30
0.0
  0
VERTEX
  5
C6
330
C1
100
AcDbEntity
  8
2dTransBorder
  6
Continuous
 48
0.0
370
    50
100
AcDbVertex
100
AcDb2dVertex
 10
212.8867530822754
 20
5.0
 30
0.0
  0
VERTEX
  5
C7
330
C1
100
AcDbEntity
  8
2dTransBorder
  6
Continuous
 48
0.0
370
    50
100
AcDbVertex
100
AcDb2dVertex
 10
210.0
 20
10.0
 30
0.0
  0
SEQEND
  5
C4
330
C1
100
AcDbEntity
  8
2dTransBorder
  6
Continuous
 48
0.0
370
    50
  0
POLYLINE
  5
C8
330
B7
100
AcDbEntity
  8
2dTransBorder
  6
Continuous
 48
0.0
370
    50
100
AcDb2dPolyline
 66
     1
 10
0.0
 20
0.0
 30
0.0
  0
VERTEX
  5
C9
330
C8
100
AcDbEntity
  8
2dTransBorder
  6
Continuous
 48
0.0
370
    50
100
AcDbVertex
100
AcDb2dVertex
 10
210.0
 20
297.0000076293946
 30
0.0
  0
VERTEX
  5
CA
330
C8
100
AcDbEntity
  8
2dTransBorder
  6
Continuous
 48
0.0
370
    50
100
AcDbVertex
100
AcDb2dVertex
 10
210.0
 20
287.0000076293946
 30
0.0
  0
VERTEX
  5
CC
330
C8
100
AcDbEntity
  8
2dTransBorder
  6
Continuous
 48
0.0
370
    50
100
AcDbVertex
100
AcDb2dVertex
 10
207.1132469177246
 20
292.0000076293945
 30
0.0
  0
VERTEX
  5
CD
330
C8
100
AcDbEntity
  8
2dTransBorder
  6
Continuous
 48
0.0
370
    50
100
AcDbVertex
100
AcDb2dVertex
 10
212.8867530822754
 20
292.0000076293945
 30
0.0
  0
VERTEX
  5
CE
330
C8
100
AcDbEntity
  8
2dTransBorder
  6
Continuous
 48
0.0
370
    50
100
AcDbVertex
100
AcDb2dVertex
 10
210.0
 20
287.0000076293946
 30
0.0
  0
SEQEND
  5
CB
330
C8
100
AcDbEntity
  8
2dTransBorder
  6
Continuous
 48
0.0
370
    50
  0
POLYLINE
  5
CF
330
B7
100
AcDbEntity
  8
2dTransBorder
  6
Continuous
 48
0.0
370
    50
100
AcDb2dPolyline
 66
     1
 10
0.0
 20
0.0
 30
0.0
  0
VERTEX
  5
D0
330
CF
100
AcDbEntity
  8
2dTransBorder
  6
Continuous
 48
0.0
370
    50
100
AcDbVertex
100
AcDb2dVertex
 10
0.0
 20
148.5000038146973
 30
0.0
  0
VERTEX
  5
D1
330
CF
100
AcDbEntity
  8
2dTransBorder
  6
Continuous
 48
0.0
370
    50
100
AcDbVertex
100
AcDb2dVertex
 10
10.0
 20
148.5000038146973
 30
0.0
  0
VERTEX
  5
D3
330
CF
100
AcDbEntity
  8
2dTransBorder
  6
Continuous
 48
0.0
370
    50
100
AcDbVertex
100
AcDb2dVertex
 10
5.0
 20
151.3867473602295
 30
0.0
  0
VERTEX
  5
D4
330
CF
100
AcDbEntity
  8
2dTransBorder
  6
Continuous
 48
0.0
370
    50
100
AcDbVertex
100
AcDb2dVertex
 10
5.0
 20
145.6132507324219
 30
0.0
  0
VERTEX
  5
D5
330
CF
100
AcDbEntity
  8
2dTransBorder
  6
Continuous
 48
0.0
370
    50
100
AcDbVertex
100
AcDb2dVertex
 10
10.0
 20
148.5000038146973
 30
0.0
  0
SEQEND
  5
D2
330
CF
100
AcDbEntity
  8
2dTransBorder
  6
Continuous
 48
0.0
370
    50
  0
POLYLINE
  5
D6
330
B7
100
AcDbEntity
  8
2dTransBorder
  6
Continuous
 48
0.0
370
    50
100
AcDb2dPolyline
 66
     1
 10
0.0
 20
0.0
 30
0.0
  0
VERTEX
  5
D7
330
D6
100
AcDbEntity
  8
2dTransBorder
  6
Continuous
 48
0.0
370
    50
100
AcDbVertex
100
AcDb2dVertex
 10
420.0
 20
148.5000038146973
 30
0.0
  0
VERTEX
  5
D8
330
D6
100
AcDbEntity
  8
2dTransBorder
  6
Continuous
 48
0.0
370
    50
100
AcDbVertex
100
AcDb2dVertex
 10
410.0
 20
148.5000038146973
 30
0.0
  0
VERTEX
  5
DA
330
D6
100
AcDbEntity
  8
2dTransBorder
  6
Continuous
 48
0.0
370
    50
100
AcDbVertex
100
AcDb2dVertex
 10
415.0
 20
151.3867473602295
 30
0.0
  0
VERTEX
  5
DB
330
D6
100
AcDbEntity
  8
2dTransBorder
  6
Continuous
 48
0.0
370
    50
100
AcDbVertex
100
AcDb2dVertex
 10
415.0
 20
145.6132507324219
 30
0.0
  0
VERTEX
  5
DC
330
D6
100
AcDbEntity
  8
2dTransBorder
  6
Continuous
 48
0.0
370
    50
100
AcDbVertex
100
AcDb2dVertex
 10
410.0
 20
148.5000038146973
 30
0.0
  0
SEQEND
  5
D9
330
D6
100
AcDbEntity
  8
2dTransBorder
  6
Continuous
 48
0.0
370
    50
  0
POLYLINE
  5
DD
330
B7
100
AcDbEntity
  8
2dTransBorder
  6
Continuous
 48
0.0
370
    50
100
AcDb2dPolyline
 66
     1
 10
0.0
 20
0.0
 30
0.0
  0
VERTEX
  5
DE
330
DD
100
AcDbEntity
  8
2dTransBorder
  6
Continuous
 48
0.0
370
    50
100
AcDbVertex
100
AcDb2dVertex
 10
70.0
 20
10.0
 30
0.0
  0
VERTEX
  5
DF
330
DD
100
AcDbEntity
  8
2dTransBorder
  6
Continuous
 48
0.0
370
    50
100
AcDbVertex
100
AcDb2dVertex
 10
70.0
 20
6.100000143051147
 30
0.0
  0
SEQEND
  5
E0
330
DD
100
AcDbEntity
  8
2dTransBorder
  6
Continuous
 48
0.0
370
    50
  0
POLYLINE
  5
E1
330
B7
100
AcDbEntity
  8
2dTransBorder
  6
Continuous
 48
0.0
370
    50
100
AcDb2dPolyline
 66
     1
 10
0.0
 20
0.0
 30
0.0
  0
VERTEX
  5
E2
330
E1
100
AcDbEntity
  8
2dTransBorder
  6
Continuous
 48
0.0
370
    50
100
AcDbVertex
100
AcDb2dVertex
 10
70.0
 20
287.0000076293946
 30
0.0
  0
VERTEX
  5
E3
330
E1
100
AcDbEntity
  8
2dTransBorder
  6
Continuous
 48
0.0
370
    50
100
AcDbVertex
100
AcDb2dVertex
 10
70.0
 20
290.9000015258789
 30
0.0
  0
SEQEND
  5
E4
330
E1
100
AcDbEntity
  8
2dTransBorder
  6
Continuous
 48
0.0
370
    50
  0
POLYLINE
  5
E5
330
B7
100
AcDbEntity
  8
2dTransBorder
  6
Continuous
 48
0.0
370
    50
100
AcDb2dPolyline
 66
     1
 10
0.0
 20
0.0
 30
0.0
  0
VERTEX
  5
E6
330
E5
100
AcDbEntity
  8
2dTransBorder
  6
Continuous
 48
0.0
370
    50
100
AcDbVertex
100
AcDb2dVertex
 10
140.0
 20
10.0
 30
0.0
  0
VERTEX
  5
E7
330
E5
100
AcDbEntity
  8
2dTransBorder
  6
Continuous
 48
0.0
370
    50
100
AcDbVertex
100
AcDb2dVertex
 10
140.0
 20
6.100000143051147
 30
0.0
  0
SEQEND
  5
E8
330
E5
100
AcDbEntity
  8
2dTransBorder
  6
Continuous
 48
0.0
370
    50
  0
POLYLINE
  5
E9
330
B7
100
AcDbEntity
  8
2dTransBorder
  6
Continuous
 48
0.0
370
    50
100
AcDb2dPolyline
 66
     1
 10
0.0
 20
0.0
 30
0.0
  0
VERTEX
  5
EA
330
E9
100
AcDbEntity
  8
2dTransBorder
  6
Continuous
 48
0.0
370
    50
100
AcDbVertex
100
AcDb2dVertex
 10
140.0
 20
287.0000076293946
 30
0.0
  0
VERTEX
  5
EB
330
E9
100
AcDbEntity
  8
2dTransBorder
  6
Continuous
 48
0.0
370
    50
100
AcDbVertex
100
AcDb2dVertex
 10
140.0
 20
290.9000015258789
 30
0.0
  0
SEQEND
  5
EC
330
E9
100
AcDbEntity
  8
2dTransBorder
  6
Continuous
 48
0.0
370
    50
  0
POLYLINE
  5
ED
330
B7
100
AcDbEntity
  8
2dTransBorder
  6
Continuous
 48
0.0
370
    50
100
AcDb2dPolyline
 66
     1
 10
0.0
 20
0.0
 30
0.0
  0
VERTEX
  5
EE
330
ED
100
AcDbEntity
  8
2dTransBorder
  6
Continuous
 48
0.0
370
    50
100
AcDbVertex
100
AcDb2dVertex
 10
280.0
 20
10.0
 30
0.0
  0
VERTEX
  5
EF
330
ED
100
AcDbEntity
  8
2dTransBorder
  6
Continuous
 48
0.0
370
    50
100
AcDbVertex
100
AcDb2dVertex
 10
280.0
 20
6.100000143051147
 30
0.0
  0
SEQEND
  5
F0
330
ED
100
AcDbEntity
  8
2dTransBorder
  6
Continuous
 48
0.0
370
    50
  0
POLYLINE
  5
F1
330
B7
100
AcDbEntity
  8
2dTransBorder
  6
Continuous
 48
0.0
370
    50
100
AcDb2dPolyline
 66
     1
 10
0.0
 20
0.0
 30
0.0
  0
VERTEX
  5
F2
330
F1
100
AcDbEntity
  8
2dTransBorder
  6
Continuous
 48
0.0
370
    50
100
AcDbVertex
100
AcDb2dVertex
 10
280.0
 20
287.0000076293946
 30
0.0
  0
VERTEX
  5
F3
330
F1
100
AcDbEntity
  8
2dTransBorder
  6
Continuous
 48
0.0
370
    50
100
AcDbVertex
100
AcDb2dVertex
 10
280.0
 20
290.9000015258789
 30
0.0
  0
SEQEND
  5
F4
330
F1
100
AcDbEntity
  8
2dTransBorder
  6
Continuous
 48
0.0
370
    50
  0
POLYLINE
  5
F5
330
B7
100
AcDbEntity
  8
2dTransBorder
  6
Continuous
 48
0.0
370
    50
100
AcDb2dPolyline
 66
     1
 10
0.0
 20
0.0
 30
0.0
  0
VERTEX
  5
F6
330
F5
100
AcDbEntity
  8
2dTransBorder
  6
Continuous
 48
0.0
370
    50
100
AcDbVertex
100
AcDb2dVertex
 10
350.0
 20
10.0
 30
0.0
  0
VERTEX
  5
F7
330
F5
100
AcDbEntity
  8
2dTransBorder
  6
Continuous
 48
0.0
370
    50
100
AcDbVertex
100
AcDb2dVertex
 10
350.0
 20
6.100000143051147
 30
0.0
  0
SEQEND
  5
F8
330
F5
100
AcDbEntity
  8
2dTransBorder
  6
Continuous
 48
0.0
370
    50
  0
POLYLINE
  5
F9
330
B7
100
AcDbEntity
  8
2dTransBorder
  6
Continuous
 48
0.0
370
    50
100
AcDb2dPolyline
 66
     1
 10
0.0
 20
0.0
 30
0.0
  0
VERTEX
  5
FA
330
F9
100
AcDbEntity
  8
2dTransBorder
  6
Continuous
 48
0.0
370
    50
100
AcDbVertex
100
AcDb2dVertex
 10
350.0
 20
287.0000076293946
 30
0.0
  0
VERTEX
  5
FB
330
F9
100
AcDbEntity
  8
2dTransBorder
  6
Continuous
 48
0.0
370
    50
100
AcDbVertex
100
AcDb2dVertex
 10
350.0
 20
290.9000015258789
 30
0.0
  0
SEQEND
  5
FC
330
F9
100
AcDbEntity
  8
2dTransBorder
  6
Continuous
 48
0.0
370
    50
  0
MTEXT
  5
FD
330
B7
100
AcDbEntity
  8
2dTransBorder
  6
Continuous
 48
0.0
370
    50
100
AcDbMText
 10
383.6875000223518
 20
287.4
 30
0.0
 40
3.499999940395355
 41
0.0
 71
     7
 72
     1
  1
1
  7
Text Style10
 73
     1
 44
1.0
1001
ACAD
1000
MTEXTBEGIN
1070
    73
1070
     1
1070
    44
1040
1.0
1070
    74
1070
     0
1000
MTEXTEND
  0
MTEXT
  5
FF
330
B7
100
AcDbEntity
  8
2dTransBorder
  6
Continuous
 62
    18
 48
0.0
370
    50
100
AcDbMText
 10
383.6875000223518
 20
6.100000059604644
 30
0.0
 40
3.499999940395355
 41
0.0
 71
     7
 72
     1
  1
1
  7
Text Style10
 73
     1
 44
1.0
1001
ACAD
1000
MTEXTBEGIN
1070
    73
1070
     1
1070
    44
1040
1.0
1070
    74
1070
     0
1000
MTEXTEND
  0
MTEXT
  5
100
330
B7
100
AcDbEntity
  8
2dTransBorder
  6
Continuous
 62
    18
 48
0.0
370
    50
100
AcDbMText
 10
313.6875000223517
 20
287.4
 30
0.0
 40
3.499999940395355
 41
0.0
 71
     7
 72
     1
  1
2
  7
Text Style10
 73
     1
 44
1.0
1001
ACAD
1000
MTEXTBEGIN
1070
    73
1070
     1
1070
    44
1040
1.0
1070
    74
1070
     0
1000
MTEXTEND
  0
MTEXT
  5
101
330
B7
100
AcDbEntity
  8
2dTransBorder
  6
Continuous
 62
    18
 48
0.0
370
    50
100
AcDbMText
 10
313.6875000223517
 20
6.100000059604644
 30
0.0
 40
3.499999940395355
 41
0.0
 71
     7
 72
     1
  1
2
  7
Text Style10
 73
     1
 44
1.0
1001
ACAD
1000
MTEXTBEGIN
1070
    73
1070
     1
1070
    44
1040
1.0
1070
    74
1070
     0
1000
MTEXTEND
  0
MTEXT
  5
102
330
B7
100
AcDbEntity
  8
2dTransBorder
  6
Continuous
 62
    18
 48
0.0
370
    50
100
AcDbMText
 10
243.6875000223517
 20
287.4
 30
0.0
 40
3.499999940395355
 41
0.0
 71
     7
 72
     1
  1
3
  7
Text Style10
 73
     1
 44
1.0
1001
ACAD
1000
MTEXTBEGIN
1070
    73
1070
     1
1070
    44
1040
1.0
1070
    74
1070
     0
1000
MTEXTEND
  0
MTEXT
  5
103
330
B7
100
AcDbEntity
  8
2dTransBorder
  6
Continuous
 62
    18
 48
0.0
370
    50
100
AcDbMText
 10
243.6875000223517
 20
6.100000059604644
 30
0.0
 40
3.499999940395355
 41
0.0
 71
     7
 72
     1
  1
3
  7
Text Style10
 73
     1
 44
1.0
1001
ACAD
1000
MTEXTBEGIN
1070
    73
1070
     1
1070
    44
1040
1.0
1070
    74
1070
     0
1000
MTEXTEND
  0
MTEXT
  5
104
330
B7
100
AcDbEntity
  8
2dTransBorder
  6
Continuous
 48
0.0
370
    50
100
AcDbMText
 10
173.6875000223517
 20
287.4
 30
0.0
 40
3.499999940395355
 41
0.0
 71
     7
 72
     1
  1
4
  7
Text Style10
 73
     1
 44
1.0
1001
ACAD
1000
MTEXTBEGIN
1070
    73
1070
     1
1070
    44
1040
1.0
1070
    74
1070
     0
1000
MTEXTEND
  0
MTEXT
  5
105
330
B7
100
AcDbEntity
  8
2dTransBorder
  6
Continuous
 62
   178
 48
0.0
370
    50
100
AcDbMText
 10
173.6875000223517
 20
6.100000059604644
 30
0.0
 40
3.499999940395355
 41
0.0
 71
     7
 72
     1
  1
4
  7
Text Style10
 73
     1
 44
1.0
1001
ACAD
1000
MTEXTBEGIN
1070
    73
1070
     1
1070
    44
1040
1.0
1070
    74
1070
     0
1000
MTEXTEND
  0
MTEXT
  5
106
330
B7
100
AcDbEntity
  8
2dTransBorder
  6
Continuous
 62
    18
 48
0.0
370
    50
100
AcDbMText
 10
103.6875000223517
 20
287.4
 30
0.0
 40
3.499999940395355
 41
0.0
 71
     7
 72
     1
  1
5
  7
Text Style10
 73
     1
 44
1.0
1001
ACAD
1000
MTEXTBEGIN
1070
    73
1070
     1
1070
    44
1040
1.0
1070
    74
1070
     0
1000
MTEXTEND
  0
MTEXT
  5
107
330
B7
100
AcDbEntity
  8
2dTransBorder
  6
Continuous
 62
    18
 48
0.0
370
    50
100
AcDbMText
 10
103.6875000223517
 20
6.100000059604644
 30
0.0
 40
3.499999940395355
 41
0.0
 71
     7
 72
     1
  1
5
  7
Text Style10
 73
     1
 44
1.0
1001
ACAD
1000
MTEXTBEGIN
1070
    73
1070
     1
1070
    44
1040
1.0
1070
    74
1070
     0
1000
MTEXTEND
  0
MTEXT
  5
108
330
B7
100
AcDbEntity
  8
2dTransBorder
  6
Continuous
 62
    18
 48
0.0
370
    50
100
AcDbMText
 10
33.68750002235174
 20
287.4
 30
0.0
 40
3.499999940395355
 41
0.0
 71
     7
 72
     1
  1
6
  7
Text Style10
 73
     1
 44
1.0
1001
ACAD
1000
MTEXTBEGIN
1070
    73
1070
     1
1070
    44
1040
1.0
1070
    74
1070
     0
1000
MTEXTEND
  0
MTEXT
  5
109
330
B7
100
AcDbEntity
  8
2dTransBorder
  6
Continuous
 48
0.0
370
    50
100
AcDbMText
 10
33.68750002235174
 20
6.100000059604644
 30
0.0
 40
3.499999940395355
 41
0.0
 71
     7
 72
     1
  1
6
  7
Text Style10
 73
     1
 44
1.0
1001
ACAD
1000
MTEXTBEGIN
1070
    73
1070
     1
1070
    44
1040
1.0
1070
    74
1070
     0
1000
MTEXTEND
  0
POLYLINE
  5
10A
330
B7
100
AcDbEntity
  8
2dTransBorder
  6
Continuous
 48
0.0
370
    50
100
AcDb2dPolyline
 66
     1
 10
0.0
 20
0.0
 30
0.0
  0
VERTEX
  5
10B
330
10A
100
AcDbEntity
  8
2dTransBorder
  6
Continuous
 48
0.0
370
    50
100
AcDbVertex
100
AcDb2dVertex
 10
10.0
 20
74.25000190734863
 30
0.0
  0
VERTEX
  5
10C
330
10A
100
AcDbEntity
  8
2dTransBorder
  6
Continuous
 48
0.0
370
    50
100
AcDbVertex
100
AcDb2dVertex
 10
6.100000143051147
 20
74.25000190734863
 30
0.0
  0
SEQEND
  5
10D
330
10A
100
AcDbEntity
  8
2dTransBorder
  6
Continuous
 48
0.0
370
    50
  0
POLYLINE
  5
10E
330
B7
100
AcDbEntity
  8
2dTransBorder
  6
Continuous
 48
0.0
370
    50
100
AcDb2dPolyline
 66
     1
 10
0.0
 20
0.0
 30
0.0
  0
VERTEX
  5
10F
330
10E
100
AcDbEntity
  8
2dTransBorder
  6
Continuous
 48
0.0
370
    50
100
AcDbVertex
100
AcDb2dVertex
 10
410.0
 20
74.25000190734863
 30
0.0
  0
VERTEX
  5
110
330
10E
100
AcDbEntity
  8
2dTransBorder
  6
Continuous
 48
0.0
370
    50
100
AcDbVertex
100
AcDb2dVertex
 10
413.8999938964843
 20
74.25000190734863
 30
0.0
  0
SEQEND
  5
111
330
10E
100
AcDbEntity
  8
2dTransBorder
  6
Continuous
 48
0.0
370
    50
  0
POLYLINE
  5
112
330
B7
100
AcDbEntity
  8
2dTransBorder
  6
Continuous
 48
0.0
370
    50
100
AcDb2dPolyline
 66
     1
 10
0.0
 20
0.0
 30
0.0
  0
VERTEX
  5
113
330
112
100
AcDbEntity
  8
2dTransBorder
  6
Continuous
 48
0.0
370
    50
100
AcDbVertex
100
AcDb2dVertex
 10
10.0
 20
222.7499961853027
 30
0.0
  0
VERTEX
  5
114
330
112
100
AcDbEntity
  8
2dTransBorder
  6
Continuous
 48
0.0
370
    50
100
AcDbVertex
100
AcDb2dVertex
 10
6.100000143051147
 20
222.7499961853027
 30
0.0
  0
SEQEND
  5
115
330
112
100
AcDbEntity
  8
2dTransBorder
  6
Continuous
 48
0.0
370
    50
  0
POLYLINE
  5
116
330
B7
100
AcDbEntity
  8
2dTransBorder
  6
Continuous
 48
0.0
370
    50
100
AcDb2dPolyline
 66
     1
 10
0.0
 20
0.0
 30
0.0
  0
VERTEX
  5
117
330
116
100
AcDbEntity
  8
2dTransBorder
  6
Continuous
 48
0.0
370
    50
100
AcDbVertex
100
AcDb2dVertex
 10
410.0
 20
222.7499961853027
 30
0.0
  0
VERTEX
  5
118
330
116
100
AcDbEntity
  8
2dTransBorder
  6
Continuous
 48
0.0
370
    50
100
AcDbVertex
100
AcDb2dVertex
 10
413.8999938964843
 20
222.7499961853027
 30
0.0
  0
SEQEND
  5
119
330
116
100
AcDbEntity
  8
2dTransBorder
  6
Continuous
 48
0.0
370
    50
  0
MTEXT
  5
11A
330
B7
100
AcDbEntity
  8
2dTransBorder
  6
Continuous
 62
    18
 48
0.0
370
    50
100
AcDbMText
 10
6.537500052154063
 20
35.37500002980233
 30
0.0
 40
3.499999940395355
 41
0.0
 71
     7
 72
     1
  1
A
  7
Text Style10
 73
     1
 44
1.0
1001
ACAD
1000
MTEXTBEGIN
1070
    73
1070
     1
1070
    44
1040
1.0
1070
    74
1070
     0
1000
MTEXTEND
  0
MTEXT
  5
11B
330
B7
100
AcDbEntity
  8
2dTransBorder
  6
Continuous
 48
0.0
370
    50
100
AcDbMText
 10
410.8374999925493
 20
35.37500002980233
 30
0.0
 40
3.499999940395355
 41
0.0
 71
     7
 72
     1
  1
A
  7
Text Style10
 73
     1
 44
1.0
1001
ACAD
1000
MTEXTBEGIN
1070
    73
1070
     1
1070
    44
1040
1.0
1070
    74
1070
     0
1000
MTEXTEND
  0
MTEXT
  5
11C
330
B7
100
AcDbEntity
  8
2dTransBorder
  6
Continuous
 62
    18
 48
0.0
370
    50
100
AcDbMText
 10
6.537500052154063
 20
109.6250000298023
 30
0.0
 40
3.499999940395355
 41
0.0
 71
     7
 72
     1
  1
B
  7
Text Style10
 73
     1
 44
1.0
1001
ACAD
1000
MTEXTBEGIN
1070
    73
1070
     1
1070
    44
1040
1.0
1070
    74
1070
     0
1000
MTEXTEND
  0
MTEXT
  5
11D
330
B7
100
AcDbEntity
  8
2dTransBorder
  6
Continuous
 62
    18
 48
0.0
370
    50
100
AcDbMText
 10
410.8374999925493
 20
109.6250000298023
 30
0.0
 40
3.499999940395355
 41
0.0
 71
     7
 72
     1
  1
B
  7
Text Style10
 73
     1
 44
1.0
1001
ACAD
1000
MTEXTBEGIN
1070
    73
1070
     1
1070
    44
1040
1.0
1070
    74
1070
     0
1000
MTEXTEND
  0
MTEXT
  5
11E
330
B7
100
AcDbEntity
  8
2dTransBorder
  6
Continuous
 48
0.0
370
    50
100
AcDbMText
 10
6.537500052154063
 20
183.8750000298023
 30
0.0
 40
3.499999940395355
 41
0.0
 71
     7
 72
     1
  1
C
  7
Text Style10
 73
     1
 44
1.0
1001
ACAD
1000
MTEXTBEGIN
1070
    73
1070
     1
1070
    44
1040
1.0
1070
    74
1070
     0
1000
MTEXTEND
  0
MTEXT
  5
11F
330
B7
100
AcDbEntity
  8
2dTransBorder
  6
Continuous
 62
    18
 48
0.0
370
    50
100
AcDbMText
 10
410.8374999925493
 20
183.8750000298023
 30
0.0
 40
3.499999940395355
 41
0.0
 71
     7
 72
     1
  1
C
  7
Text Style10
 73
     1
 44
1.0
1001
ACAD
1000
MTEXTBEGIN
1070
    73
1070
     1
1070
    44
1040
1.0
1070
    74
1070
     0
1000
MTEXTEND
  0
MTEXT
  5
120
330
B7
100
AcDbEntity
  8
2dTransBorder
  6
Continuous
 62
    18
 48
0.0
370
    50
100
AcDbMText
 10
6.537500052154063
 20
258.1250000298023
 30
0.0
 40
3.499999940395355
 41
0.0
 71
     7
 72
     1
  1
D
  7
Text Style10
 73
     1
 44
1.0
1001
ACAD
1000
MTEXTBEGIN
1070
    73
1070
     1
1070
    44
1040
1.0
1070
    74
1070
     0
1000
MTEXTEND
  0
MTEXT
  5
121
330
B7
100
AcDbEntity
  8
2dTransBorder
  6
Continuous
 62
   178
 48
0.0
370
    50
100
AcDbMText
 10
410.8374999925493
 20
258.1250000298023
 30
0.0
 40
3.499999940395355
 41
0.0
 71
     7
 72
     1
  1
D
  7
Text Style10
 73
     1
 44
1.0
1001
ACAD
1000
MTEXTBEGIN
1070
    73
1070
     1
1070
    44
1040
1.0
1070
    74
1070
     0
1000
MTEXTEND
  0
ENDBLK
  5
B9
330
B7
100
AcDbEntity
  8
0
100
AcDbBlockEnd
  0
BLOCK
  5
125
330
124
100
AcDbEntity
  8
0
100
AcDbBlockBegin
  2
Title Blocks ISO
 70
     2
 10
185.0
 20
114.363022921185
 30
0.0
  3
Title Blocks ISO
  1

  0
LINE
  5
127
330
124
100
AcDbEntity
  8
2dTransTitleBlock
  6
Continuous
 48
0.0
370
    50
100
AcDbLine
 10
100.0
 20
100.0
 30
0.0
 11
270.0
 21
100.0
 31
0.0
  0
LINE
  5
128
330
124
100
AcDbEntity
  8
2dTransTitleBlock
  6
Continuous
 48
0.0
370
    50
100
AcDbLine
 10
270.0
 20
100.0
 30
0.0
 11
270.0
 21
128.72604584237
 31
0.0
  0
LINE
  5
129
330
124
100
AcDbEntity
  8
2dTransTitleBlock
  6
Continuous
 48
0.0
370
    50
100
AcDbLine
 10
270.0
 20
128.72604584237
 30
0.0
 11
100.0
 21
128.72604584237
 31
0.0
  0
LINE
  5
12A
330
124
100
AcDbEntity
  8
2dTransTitleBlock
  6
Continuous
 48
0.0
370
    50
100
AcDbLine
 10
100.0
 20
128.72604584237
 30
0.0
 11
100.0
 21
100.0
 31
0.0
  0
LINE
  5
12B
330
124
100
AcDbEntity
  8
2dTransTitleBlock
  6
Continuous
 48
0.0
370
    50
100
AcDbLine
 10
100.0
 20
120.0
 30
0.0
 11
270.0
 21
120.0
 31
0.0
  0
LINE
  5
12C
330
124
100
AcDbEntity
  8
2dTransTitleBlock
  6
Continuous
 48
0.0
370
    50
100
AcDbLine
 10
132.0
 20
120.0
 30
0.0
 11
132.0
 21
128.72604584237
 31
0.0
  0
LINE
  5
12D
330
124
100
AcDbEntity
  8
2dTransTitleBlock
  6
Continuous
 48
0.0
370
    50
100
AcDbLine
 10
157.0
 20
120.0
 30
0.0
 11
157.0
 21
128.72604584237
 31
0.0
  0
LINE
  5
12E
330
124
100
AcDbEntity
  8
2dTransTitleBlock
  6
Continuous
 48
0.0
370
    50
100
AcDbLine
 10
175.0
 20
120.0
 30
0.0
 11
175.0
 21
100.0
 31
0.0
  0
LINE
  5
12F
330
124
100
AcDbEntity
  8
2dTransTitleBlock
  6
Continuous
 48
0.0
370
    50
100
AcDbLine
 10
195.0
 20
120.0
 30
0.0
 11
195.0
 21
128.72604584237
 31
0.0
  0
LINE
  5
130
330
124
100
AcDbEntity
  8
2dTransTitleBlock
  6
Continuous
 48
0.0
370
    50
100
AcDbLine
 10
220.0
 20
120.0
 30
0.0
 11
220.0
 21
128.72604584237
 31
0.0
  0
LINE
  5
131
330
124
100
AcDbEntity
  8
2dTransTitleBlock
  6
Continuous
 48
0.0
370
    50
100
AcDbLine
 10
270.0
 20
110.0
 30
0.0
 11
175.0
 21
110.0
 31
0.0
  0
LINE
  5
132
330
124
100
AcDbEntity
  8
2dTransTitleBlock
  6
Continuous
 48
0.0
370
    50
100
AcDbLine
 10
235.0
 20
100.0
 30
0.0
 11
235.0
 21
110.0
 31
0.0
  0
LINE
  5
133
330
124
100
AcDbEntity
  8
2dTransTitleBlock
  6
Continuous
 48
0.0
370
    50
100
AcDbLine
 10
250.0
 20
100.0
 30
0.0
 11
250.0
 21
110.0
 31
0.0
  0
LINE
  5
134
330
124
100
AcDbEntity
  8
2dTransTitleBlock
  6
Continuous
 48
0.0
370
    50
100
AcDbLine
 10
250.0
 20
120.0
 30
0.0
 11
250.0
 21
128.72604584237
 31
0.0
  0
MTEXT
  5
135
330
124
100
AcDbEntity
  8
2dTransTitleBlock
370
     5
100
AcDbMText
 10
100.5
 20
128.32905917081
 30
0.0
 40
2.006599903106689
 41
15.58173775672912
 71
     1
 72
     1
  1
\fArial|b0|i0;\W1.00;\H2.0066;\lDesigned by
  7
Current-ISO
 73
     2
 44
0.7831141948699952
1001
ACAD
1000
MTEXTBEGIN
1070
    73
1070
     2
1070
    44
1040
0.7831141948699952
1070
    74
1070
     0
1000
MTEXTEND
  0
MTEXT
  5
136
330
124
100
AcDbEntity
  8
2dTransTitleBlock
370
     5
100
AcDbMText
 10
132.5
 20
128.32905917081
 30
0.0
 40
2.006599903106689
 41
14.80326294898986
 71
     1
 72
     1
  1
\fArial|b0|i0;\W1.00;\H2.0066;\lChecked by
  7
Current-ISO
 73
     2
 44
0.7831141948699952
1001
ACAD
1000
MTEXTBEGIN
1070
    73
1070
     2
1070
    44
1040
0.7831141948699952
1070
    74
1070
     0
1000
MTEXTEND
  0
MTEXT
  5
137
330
124
100
AcDbEntity
  8
2dTransTitleBlock
370
     5
100
AcDbMText
 10
157.5
 20
128.32905917081
 30
0.0
 40
2.006599903106689
 41
23.68155002593994
 71
     1
 72
     1
  1
\fArial|b0|i0;\W1.00;\H2.0066;\lApproved by - date
  7
Current-ISO
 73
     2
 44
0.7831141948699952
1001
ACAD
1000
MTEXTBEGIN
1070
    73
1070
     2
1070
    44
1040
0.7831141948699952
1070
    74
1070
     0
1000
MTEXTEND
  0
MTEXT
  5
138
330
124
100
AcDbEntity
  8
2dTransTitleBlock
370
     5
100
AcDbMText
 10
220.5
 20
128.32905917081
 30
0.0
 40
2.006599903106689
 41
5.920387506484985
 71
     1
 72
     1
  1
\fArial|b0|i0;\W1.00;\H2.0066;\lDate
  7
Current-ISO
 73
     2
 44
0.7831141948699952
1001
ACAD
1000
MTEXTBEGIN
1070
    73
1070
     2
1070
    44
1040
0.7831141948699952
1070
    74
1070
     0
1000
MTEXTEND
  0
MTEXT
  5
139
330
124
100
AcDbEntity
  8
2dTransTitleBlock
370
     5
100
AcDbMText
 10
242.3773631266445
 20
109.5
 30
0.0
 40
2.006599903106689
 41
8.569344282150268
 71
     2
 72
     1
  1
\fArial|b0|i0;\W1.00;\H2.0066;\lEdition
  7
Current-ISO
 73
     2
 44
0.7831141948699952
1001
ACAD
1000
MTEXTBEGIN
1070
    73
1070
     2
1070
    44
1040
0.7831141948699952
1070
    74
1070
     0
1000
MTEXTEND
  0
MTEXT
  5
13A
330
124
100
AcDbEntity
  8
2dTransTitleBlock
370
     5
100
AcDbMText
 10
260.0
 20
109.5
 30
0.0
 40
2.006599903106689
 41
7.324395775794982
 71
     2
 72
     1
  1
\fArial|b0|i0;\W1.00;\H2.0066;\lSheet
  7
Current-ISO
 73
     2
 44
0.7831141948699952
1001
ACAD
1000
MTEXTBEGIN
1070
    73
1070
     2
1070
    44
1040
0.7831141948699952
1070
    74
1070
     0
1000
MTEXTEND
  0
MTEXT
  5
13B
330
124
100
AcDbEntity
  8
2dTransTitleBlock
370
     5
100
AcDbMText
 10
260.134049959452
 20
103.8433034279967
 30
0.0
 40
2.489199936389923
 41
0.0
 71
     5
 72
     1
  1
/
  7
Current-ISO
 73
     2
 44
0.7831141948699952
1001
ACAD
1000
MTEXTBEGIN
1070
    73
1070
     2
1070
    44
1040
0.7831141948699952
1070
    74
1070
     0
1000
MTEXTEND
  0
ATTDEF
  5
13C
330
124
100
AcDbEntity
  8
2dTransTitleBlock
100
AcDbText
 10
222.5
 20
112.40503706205
 30
0.0
 40
5.003799796104431
  1

  7
Current-ISO
 72
     1
 11
222.5
 21
114.9069369601023
 31
0.0
100
AcDbAttributeDefinition
  3
TITLE
  2
TITLE
 70
     0
 74
     2
  0
ATTDEF
  5
13D
330
124
100
AcDbEntity
  8
2dTransTitleBlock
100
AcDbText
 10
173.9063783434167
 20
103.2500000298023
 30
0.0
 40
3.499999940395355
  1
adjustersandattachment
  7
Current-ISO
 72
     1
 11
200.0
 21
105.0
 31
0.0
100
AcDbAttributeDefinition
  3
PART NUMBER
  2
PART_NUMBER
 70
     0
 74
     2
  0
ATTDEF
  5
13E
330
124
100
AcDbEntity
  8
2dTransTitleBlock
100
AcDbText
 10
137.4584918089563
 20
107.2913144752497
 30
0.0
 40
5.003799796104431
  1

  7
Current-ISO
 72
     1
 11
137.4584918089563
 21
109.7932143733019
 31
0.0
100
AcDbAttributeDefinition
  3
COMPANY
  2
COMPANY
 70
     0
 74
     2
  0
ATTDEF
  5
13F
330
124
100
AcDbEntity
  8
2dTransTitleBlock
100
AcDbText
 10
100.5
 20
121.2369118502
 30
0.0
 40
2.489199936389923
  1
mihara
  7
Current-ISO
 11
100.5
 21
120.5
 31
0.0
100
AcDbAttributeDefinition
  3
AUTHOR
  2
AUTHOR
 70
     0
 74
     1
  0
ATTDEF
  5
140
330
124
100
AcDbEntity
  8
2dTransTitleBlock
100
AcDbText
 10
132.3237301391505
 20
120.8843721287325
 30
0.0
 40
2.489199936389923
  1

  7
Current-ISO
 11
132.3237301391505
 21
120.1474602785324
 31
0.0
100
AcDbAttributeDefinition
  3
CHECKED BY
  2
CHECKED_BY
 70
     0
 74
     1
  0
ATTDEF
  5
141
330
124
100
AcDbEntity
  8
2dTransTitleBlock
100
AcDbText
 10
157.5
 20
121.0606419894663
 30
0.0
 40
2.489199936389923
  1

  7
Current-ISO
 11
157.5
 21
120.3237301392662
 31
0.0
100
AcDbAttributeDefinition
  3
ENG APPROVED BY
  2
ENG_APPROVED_BY
 70
     0
 74
     1
  0
ATTDEF
  5
142
330
124
100
AcDbEntity
  8
2dTransTitleBlock
100
AcDbText
 10
194.4501062276157
 20
121.0137570781239
 30
0.0
 40
2.489199936389923
  1

  7
Current-ISO
 72
     2
 11
194.4501062276157
 21
120.2768452279239
 31
0.0
100
AcDbAttributeDefinition
  3
ENG APPROVAL DATE
  2
ENG_APPROVAL_DATE
 70
     0
 74
     1
  0
ATTDEF
  5
143
330
124
100
AcDbEntity
  8
2dTransTitleBlock
100
AcDbText
 10
220.7342793249953
 20
121.0026325276583
 30
0.0
 40
2.489199936389923
  1
2004/11/11
  7
Current-ISO
 11
220.7342793249953
 21
120.2657206774583
 31
0.0
100
AcDbAttributeDefinition
  3
CREATION DATE
  2
CREATION_DATE
 70
     0
 74
     1
  0
ATTDEF
  5
144
330
124
100
AcDbEntity
  8
2dTransTitleBlock
100
AcDbText
 10
242.3465312428706
 20
101.9582344664777
 30
0.0
 40
3.499999940395355
  1

  7
Current-ISO
 72
     1
 11
242.3465312428706
 21
103.7082344366754
 31
0.0
100
AcDbAttributeDefinition
  3
REVISION NUMBER
  2
REVISION_NUMBER
 70
     0
 74
     2
  0
ATTDEF
  5
145
330
124
100
AcDbEntity
  8
2dTransTitleBlock
100
AcDbText
 10
253.7269041292273
 20
102.5369243922322
 30
0.0
 40
2.489199936389923
  1
1 
  7
Current-ISO
 72
     1
 11
255.1769564796209
 21
103.7815243604272
 31
0.0
100
AcDbAttributeDefinition
  3
Sheet number
  2
Sheet_number
 70
     0
 74
     2
  0
ATTDEF
  5
146
330
124
100
AcDbEntity
  8
2dTransTitleBlock
100
AcDbText
 10
263.6752575223969
 20
102.5936309523524
 30
0.0
 40
2.489199936389923
  1
1 
  7
Current-ISO
 72
     1
 11
265.1253098727905
 21
103.8382309205474
 31
0.0
100
AcDbAttributeDefinition
  3
Number of sheets
  2
Number_of_sheets
 70
     0
 74
     2
  0
ENDBLK
  5
126
330
124
100
AcDbEntity
  8
0
100
AcDbBlockEnd
  0
BLOCK
  5
1AA
330
19F
100
AcDbEntity
  8
0
100
AcDbBlockBegin
  2
*D4
 70
     1
 10
0.0
 20
0.0
 30
0.0
  3
*D4
  1

  0
LINE
  5
22D
330
19F
100
AcDbEntity
  8
Dimensions
  6
Continuous
 62
   250
370
    25
100
AcDbLine
 10
694.4529894847687
 20
2430.688507993457
 30
0.0
 11
433.5937534561168
 21
2430.688507993457
 31
0.0
  0
LINE
  5
22E
330
19F
100
AcDbEntity
  8
Dimensions
  6
Continuous
 62
   250
370
    25
100
AcDbLine
 10
694.4529894847687
 20
2580.356763132055
 30
0.0
 11
433.5937534561168
 21
2580.356763132055
 31
0.0
  0
LINE
  5
22F
330
19F
100
AcDbEntity
  8
Dimensions
  6
Continuous
 62
   250
370
    25
100
AcDbLine
 10
465.3437534561168
 20
2455.688507993457
 30
0.0
 11
465.3437534561168
 21
2555.356763132055
 31
0.0
  0
LINE
  5
230
330
19F
100
AcDbEntity
  8
Dimensions
  6
Continuous
 62
   250
370
    25
100
AcDbLine
 10
465.3437534561168
 20
2580.356763132055
 30
0.0
 11
465.3437534561168
 21
2735.409177866025
 31
0.0
  0
SOLID
  5
231
330
19F
100
AcDbEntity
  8
Dimensions
  6
Continuous
 62
   250
100
AcDbTrace
 10
461.1770867894501
 20
2455.688507993457
 30
0.0
 11
469.5104201227834
 21
2455.688507993457
 31
0.0
 12
465.3437534561168
 22
2430.688507993457
 32
0.0
 13
465.3437534561168
 23
2430.688507993457
 33
0.0
  0
SOLID
  5
232
330
19F
100
AcDbEntity
  8
Dimensions
  6
Continuous
 62
   250
100
AcDbTrace
 10
461.1770867894501
 20
2555.356763132055
 30
0.0
 11
469.5104201227834
 21
2555.356763132055
 31
0.0
 12
465.3437534561168
 22
2580.356763132055
 32
0.0
 13
465.3437534561168
 23
2580.356763132055
 33
0.0
  0
MTEXT
  5
233
330
19F
100
AcDbEntity
  8
Dimensions
  6
Continuous
 62
    18
370
    25
100
AcDbMText
 10
415.6569048885856
 20
2612.976763132055
 30
0.0
 40
35.0
 41
0.0
 71
     1
 72
     1
  1
\A1;14,97
  7
Text Style9
 11
0.0000000000000001
 21
1.0
 31
0.0
 73
     1
 44
1.0
1001
ACAD
1000
MTEXTBEGIN
1070
    73
1070
     1
1070
    44
1040
1.0
1070
    74
1070
     0
1000
MTEXTEND
  0
POINT
  5
234
330
19F
100
AcDbEntity
  8
Defpoints
  6
Continuous
 62
     0
100
AcDbPoint
 10
694.4529894847687
 20
2430.688507993457
 30
0.0
  0
POINT
  5
235
330
19F
100
AcDbEntity
  8
Defpoints
  6
Continuous
 62
     0
100
AcDbPoint
 10
694.4529894847687
 20
2580.356763132055
 30
0.0
  0
POINT
  5
236
330
19F
100
AcDbEntity
  8
Defpoints
  6
Continuous
 62
     0
100
AcDbPoint
 10
465.3437534561168
 20
2580.356763132055
 30
0.0
  0
ENDBLK
  5
1AB
330
19F
100
AcDbEntity
  8
0
100
AcDbBlockEnd
  0
BLOCK
  5
23E
330
238
100
AcDbEntity
  8
0
100
AcDbBlockBegin
  2
*D5
 70
     1
 10
0.0
 20
0.0
 30
0.0
  3
*D5
  1

  0
LINE
  5
29D
330
238
100
AcDbEntity
  8
Dimensions
  6
Continuous
 62
   250
370
    25
100
AcDbLine
 10
983.1462023427787
 20
2196.131810601466
 30
0.0
 11
980.9446120691372
 21
2415.037411114035
 31
0.0
  0
MTEXT
  5
29E
330
238
100
AcDbEntity
  8
Dimensions
  6
Continuous
 62
    18
370
    25
100
AcDbMText
 10
1030.956999144338
 20
2382.918748943685
 30
0.0
 40
35.0
 41
0.0
 71
     1
 72
     1
  1
\A1;R634,00
  7
Text Style9
 11
0.0100567501845821
 21
-0.9999494296091802
 31
0.0
 73
     1
 44
1.0
1001
ACAD
1000
MTEXTBEGIN
1070
    73
1070
     1
1070
    44
1040
1.0
1070
    74
1070
     0
1000
MTEXTEND
  0
SOLID
  5
29F
330
238
100
AcDbEntity
  8
Dimensions
  6
Continuous
 62
   250
100
AcDbTrace
 10
985.1110680258422
 20
2415.079314239804
 30
0.0
 11
976.7781561124321
 21
2414.995507988266
 31
0.0
 12
980.6931933145227
 22
2440.036146854264
 32
0.0
 13
980.6931933145227
 23
2440.036146854264
 33
0.0
  0
POINT
  5
2A0
330
238
100
AcDbEntity
  8
Defpoints
  6
Continuous
 62
     0
100
AcDbPoint
 10
980.6931933145227
 20
2440.036146854264
 30
0.0
  0
POINT
  5
2A1
330
238
100
AcDbEntity
  8
Defpoints
  6
Continuous
 62
     0
100
AcDbPoint
 10
1044.452989484771
 20
-3899.643236867957
 30
0.0
  0
ENDBLK
  5
23F
330
238
100
AcDbEntity
  8
0
100
AcDbBlockEnd
  0
BLOCK
  5
2AE
330
2A3
100
AcDbEntity
  8
0
100
AcDbBlockBegin
  2
*D6
 70
     1
 10
0.0
 20
0.0
 30
0.0
  3
*D6
  1

  0
LINE
  5
32D
330
2A3
100
AcDbEntity
  8
Dimensions
  6
Continuous
 62
   250
370
    25
100
AcDbLine
 10
694.4529894844544
 20
2191.171307852008
 30
0.0
 11
562.7029894844547
 21
2191.171307852008
 31
0.0
  0
LINE
  5
32E
330
2A3
100
AcDbEntity
  8
Dimensions
  6
Continuous
 62
   250
370
    25
100
AcDbLine
 10
694.4529894844544
 20
1701.171307852007
 30
0.0
 11
562.7029894844546
 21
1701.171307852008
 31
0.0
  0
LINE
  5
32F
330
2A3
100
AcDbEntity
  8
Dimensions
  6
Continuous
 62
   250
370
    25
100
AcDbLine
 10
594.4529894844547
 20
2166.171307852008
 30
0.0
 11
594.4529894844546
 21
1726.171307852007
 31
0.0
  0
SOLID
  5
330
330
2A3
100
AcDbEntity
  8
Dimensions
  6
Continuous
 62
   250
100
AcDbTrace
 10
590.2863228177881
 20
2166.171307852008
 30
0.0
 11
598.6196561511214
 21
2166.171307852008
 31
0.0
 12
594.4529894844547
 22
2191.171307852008
 32
0.0
 13
594.4529894844547
 23
2191.171307852008
 33
0.0
  0
SOLID
  5
331
330
2A3
100
AcDbEntity
  8
Dimensions
  6
Continuous
 62
   250
100
AcDbTrace
 10
590.286322817788
 20
1726.171307852007
 30
0.0
 11
598.6196561511213
 21
1726.171307852007
 31
0.0
 12
594.4529894844546
 22
1701.171307852008
 32
0.0
 13
594.4529894844546
 23
1701.171307852008
 33
0.0
  0
MTEXT
  5
332
330
2A3
100
AcDbEntity
  8
Dimensions
  6
Continuous
 62
    18
370
    25
100
AcDbMText
 10
544.7661409169236
 20
1940.616492766483
 30
0.0
 40
35.0
 41
0.0
 71
     1
 72
     1
  1
\A1;49,00
  7
Text Style9
 11
0.0000000000000001
 21
1.0
 31
0.0
 73
     1
 44
1.0
1001
ACAD
1000
MTEXTBEGIN
1070
    73
1070
     1
1070
    44
1040
1.0
1070
    74
1070
     0
1000
MTEXTEND
  0
POINT
  5
333
330
2A3
100
AcDbEntity
  8
Defpoints
  6
Continuous
 62
     0
100
AcDbPoint
 10
694.4529894844544
 20
2191.171307852008
 30
0.0
  0
POINT
  5
334
330
2A3
100
AcDbEntity
  8
Defpoints
  6
Continuous
 62
     0
100
AcDbPoint
 10
694.4529894844544
 20
1701.171307852007
 30
0.0
  0
POINT
  5
335
330
2A3
100
AcDbEntity
  8
Defpoints
  6
Continuous
 62
     0
100
AcDbPoint
 10
594.4529894844546
 20
1701.171307852008
 30
0.0
  0
ENDBLK
  5
2AF
330
2A3
100
AcDbEntity
  8
0
100
AcDbBlockEnd
  0
BLOCK
  5
342
330
337
100
AcDbEntity
  8
0
100
AcDbBlockBegin
  2
*D7
 70
     1
 10
0.0
 20
0.0
 30
0.0
  3
*D7
  1

  0
LINE
  5
3C1
330
337
100
AcDbEntity
  8
Dimensions
  6
Continuous
 62
   250
370
    25
100
AcDbLine
 10
694.4529894844544
 20
1701.171307852007
 30
0.0
 11
694.4529894844544
 21
1569.421307852007
 31
0.0
  0
LINE
  5
3C2
330
337
100
AcDbEntity
  8
Dimensions
  6
Continuous
 62
   250
370
    25
100
AcDbLine
 10
1194.452989484454
 20
1701.171307852007
 30
0.0
 11
1194.452989484454
 21
1569.421307852007
 31
0.0
  0
LINE
  5
3C3
330
337
100
AcDbEntity
  8
Dimensions
  6
Continuous
 62
   250
370
    25
100
AcDbLine
 10
719.4529894844544
 20
1601.171307852007
 30
0.0
 11
1169.452989484454
 21
1601.171307852007
 31
0.0
  0
SOLID
  5
3C4
330
337
100
AcDbEntity
  8
Dimensions
  6
Continuous
 62
   250
100
AcDbTrace
 10
719.4529894844544
 20
1605.337974518674
 30
0.0
 11
719.4529894844544
 21
1597.004641185341
 31
0.0
 12
694.4529894844544
 22
1601.171307852007
 32
0.0
 13
694.4529894844544
 23
1601.171307852007
 33
0.0
  0
SOLID
  5
3C5
330
337
100
AcDbEntity
  8
Dimensions
  6
Continuous
 62
   250
100
AcDbTrace
 10
1169.452989484454
 20
1605.337974518674
 30
0.0
 11
1169.452989484454
 21
1597.004641185341
 31
0.0
 12
1194.452989484454
 22
1601.171307852007
 32
0.0
 13
1194.452989484454
 23
1601.171307852007
 33
0.0
  0
MTEXT
  5
3C6
330
337
100
AcDbEntity
  8
Dimensions
  6
Continuous
 62
    18
370
    25
100
AcDbMText
 10
848.1690417189161
 20
1650.858156419538
 30
0.0
 40
35.0
 41
0.0
 71
     1
 72
     1
  1
\A1;50,00
  7
Text Style9
 73
     1
 44
1.0
1001
ACAD
1000
MTEXTBEGIN
1070
    73
1070
     1
1070
    44
1040
1.0
1070
    74
1070
     0
1000
MTEXTEND
  0
POINT
  5
3C7
330
337
100
AcDbEntity
  8
Defpoints
  6
Continuous
 62
     0
100
AcDbPoint
 10
694.4529894844544
 20
1701.171307852007
 30
0.0
  0
POINT
  5
3C8
330
337
100
AcDbEntity
  8
Defpoints
  6
Continuous
 62
     0
100
AcDbPoint
 10
1194.452989484454
 20
1701.171307852007
 30
0.0
  0
POINT
  5
3C9
330
337
100
AcDbEntity
  8
Defpoints
  6
Continuous
 62
     0
100
AcDbPoint
 10
1194.452989484454
 20
1601.171307852007
 30
0.0
  0
ENDBLK
  5
343
330
337
100
AcDbEntity
  8
0
100
AcDbBlockEnd
  0
BLOCK
  5
3D6
330
3CB
100
AcDbEntity
  8
0
100
AcDbBlockBegin
  2
*D8
 70
     1
 10
0.0
 20
0.0
 30
0.0
  3
*D8
  1

  0
LINE
  5
45A
330
3CB
100
AcDbEntity
  8
Dimensions
  6
Continuous
 62
   250
370
    25
100
AcDbLine
 10
1194.452989484454
 20
1801.171307852007
 30
0.0
 11
1353.247201672524
 21
1801.171307852007
 31
0.0
  0
LINE
  5
45B
330
3CB
100
AcDbEntity
  8
Dimensions
  6
Continuous
 62
   250
370
    25
100
AcDbLine
 10
1194.452989484454
 20
1701.171307852007
 30
0.0
 11
1353.247201672524
 21
1701.171307852007
 31
0.0
  0
LINE
  5
45C
330
3CB
100
AcDbEntity
  8
Dimensions
  6
Continuous
 62
   250
370
    25
100
AcDbLine
 10
1321.497201672524
 20
1726.171307852007
 30
0.0
 11
1321.497201672524
 21
1776.171307852007
 31
0.0
  0
LINE
  5
45D
330
3CB
100
AcDbEntity
  8
Dimensions
  6
Continuous
 62
   250
370
    25
100
AcDbLine
 10
1321.497201672524
 20
1801.171307852007
 30
0.0
 11
1321.497201672524
 21
1956.104350143958
 31
0.0
  0
SOLID
  5
45E
330
3CB
100
AcDbEntity
  8
Dimensions
  6
Continuous
 62
   250
100
AcDbTrace
 10
1317.330535005857
 20
1726.171307852007
 30
0.0
 11
1325.663868339191
 21
1726.171307852007
 31
0.0
 12
1321.497201672524
 22
1701.171307852007
 32
0.0
 13
1321.497201672524
 23
1701.171307852007
 33
0.0
  0
SOLID
  5
45F
330
3CB
100
AcDbEntity
  8
Dimensions
  6
Continuous
 62
   250
100
AcDbTrace
 10
1317.330535005857
 20
1776.171307852007
 30
0.0
 11
1325.663868339191
 21
1776.171307852007
 31
0.0
 12
1321.497201672524
 22
1801.171307852007
 32
0.0
 13
1321.497201672524
 23
1801.171307852007
 33
0.0
  0
MTEXT
  5
460
330
3CB
100
AcDbEntity
  8
Dimensions
  6
Continuous
 62
    18
370
    25
100
AcDbMText
 10
1271.810353104993
 20
1833.791307852008
 30
0.0
 40
35.0
 41
0.0
 71
     1
 72
     1
  1
\A1;10,00
  7
Text Style9
 11
0.0000000000000001
 21
1.0
 31
0.0
 73
     1
 44
1.0
1001
ACAD
1000
MTEXTBEGIN
1070
    73
1070
     1
1070
    44
1040
1.0
1070
    74
1070
     0
1000
MTEXTEND
  0
POINT
  5
461
330
3CB
100
AcDbEntity
  8
Defpoints
  6
Continuous
 62
     0
100
AcDbPoint
 10
1194.452989484454
 20
1801.171307852007
 30
0.0
  0
POINT
  5
462
330
3CB
100
AcDbEntity
  8
Defpoints
  6
Continuous
 62
     0
100
AcDbPoint
 10
1194.452989484454
 20
1701.171307852007
 30
0.0
  0
POINT
  5
463
330
3CB
100
AcDbEntity
  8
Defpoints
  6
Continuous
 62
     0
100
AcDbPoint
 10
1321.497201672524
 20
1701.171307852007
 30
0.0
  0
ENDBLK
  5
3D7
330
3CB
100
AcDbEntity
  8
0
100
AcDbBlockEnd
  0
BLOCK
  5
470
330
465
100
AcDbEntity
  8
0
100
AcDbBlockBegin
  2
*D9
 70
     1
 10
0.0
 20
0.0
 30
0.0
  3
*D9
  1

  0
LINE
  5
4F4
330
465
100
AcDbEntity
  8
Dimensions
  6
Continuous
 62
   250
370
    25
100
AcDbLine
 10
794.4529894844544
 20
2191.171307852008
 30
0.0
 11
794.4529894844544
 21
2248.440524776098
 31
0.0
  0
LINE
  5
4F5
330
465
100
AcDbEntity
  8
Dimensions
  6
Continuous
 62
   250
370
    25
100
AcDbLine
 10
694.4529894844544
 20
2191.171307852008
 30
0.0
 11
694.4529894844544
 21
2248.440524776098
 31
0.0
  0
LINE
  5
4F6
330
465
100
AcDbEntity
  8
Dimensions
  6
Continuous
 62
   250
370
    25
100
AcDbLine
 10
719.4529894844544
 20
2216.690524776097
 30
0.0
 11
769.4529894844544
 21
2216.690524776097
 31
0.0
  0
LINE
  5
4F7
330
465
100
AcDbEntity
  8
Dimensions
  6
Continuous
 62
   250
370
    25
100
AcDbLine
 10
794.4529894844544
 20
2216.690524776097
 30
0.0
 11
949.3860317764053
 21
2216.690524776097
 31
0.0
  0
SOLID
  5
4F8
330
465
100
AcDbEntity
  8
Dimensions
  6
Continuous
 62
   250
100
AcDbTrace
 10
719.4529894844544
 20
2220.857191442764
 30
0.0
 11
719.4529894844544
 21
2212.523858109431
 31
0.0
 12
694.4529894844544
 22
2216.690524776097
 32
0.0
 13
694.4529894844544
 23
2216.690524776097
 33
0.0
  0
SOLID
  5
4F9
330
465
100
AcDbEntity
  8
Dimensions
  6
Continuous
 62
   250
100
AcDbTrace
 10
769.4529894844544
 20
2220.857191442764
 30
0.0
 11
769.4529894844544
 21
2212.523858109431
 31
0.0
 12
794.4529894844544
 22
2216.690524776097
 32
0.0
 13
794.4529894844544
 23
2216.690524776097
 33
0.0
  0
MTEXT
  5
4FA
330
465
100
AcDbEntity
  8
Dimensions
  6
Continuous
 62
    18
370
    25
100
AcDbMText
 10
827.0729894844544
 20
2266.377373343628
 30
0.0
 40
35.0
 41
0.0
 71
     1
 72
     1
  1
\A1;10,00
  7
Text Style9
 73
     1
 44
1.0
1001
ACAD
1000
MTEXTBEGIN
1070
    73
1070
     1
1070
    44
1040
1.0
1070
    74
1070
     0
1000
MTEXTEND
  0
POINT
  5
4FB
330
465
100
AcDbEntity
  8
Defpoints
  6
Continuous
 62
     0
100
AcDbPoint
 10
794.4529894844544
 20
2191.171307852008
 30
0.0
  0
POINT
  5
4FC
330
465
100
AcDbEntity
  8
Defpoints
  6
Continuous
 62
     0
100
AcDbPoint
 10
694.4529894844544
 20
2191.171307852008
 30
0.0
  0
POINT
  5
4FD
330
465
100
AcDbEntity
  8
Defpoints
  6
Continuous
 62
     0
100
AcDbPoint
 10
694.4529894844544
 20
2216.690524776097
 30
0.0
  0
ENDBLK
  5
471
330
465
100
AcDbEntity
  8
0
100
AcDbBlockEnd
  0
BLOCK
  5
505
330
4FF
100
AcDbEntity
  8
0
100
AcDbBlockBegin
  2
*D10
 70
     1
 10
0.0
 20
0.0
 30
0.0
  3
*D10
  1

  0
LINE
  5
564
330
4FF
100
AcDbEntity
  8
Dimensions
  6
Continuous
 62
   250
370
    25
100
AcDbLine
 10
943.1160134736817
 20
1949.834331841206
 30
0.0
 11
826.7753199547884
 21
1833.493638322347
 31
0.0
  0
MTEXT
  5
565
330
4FF
100
AcDbEntity
  8
Dimensions
  6
Continuous
 62
    18
370
    25
100
AcDbMText
 10
814.7072355992118
 20
1891.693369082543
 30
0.0
 40
35.0
 41
0.0
 71
     1
 72
     1
  1
\A1;R5,00
  7
Text Style9
 11
0.7071067811866502
 21
0.7071067811864449
 31
0.0
 73
     1
 44
1.0
1001
ACAD
1000
MTEXTBEGIN
1070
    73
1070
     1
1070
    44
1040
1.0
1070
    74
1070
     0
1000
MTEXTEND
  0
SOLID
  5
566
330
4FF
100
AcDbEntity
  8
Dimensions
  6
Continuous
 62
   250
100
AcDbTrace
 10
823.8290416998449
 20
1836.439916577291
 30
0.0
 11
829.721598209732
 21
1830.547360067402
 31
0.0
 12
809.0976504251225
 22
1815.815968792685
 32
0.0
 13
809.0976504251225
 23
1815.815968792685
 33
0.0
  0
POINT
  5
567
330
4FF
100
AcDbEntity
  8
Defpoints
  6
Continuous
 62
     0
100
AcDbPoint
 10
809.0976504251225
 20
1815.815968792685
 30
0.0
  0
POINT
  5
568
330
4FF
100
AcDbEntity
  8
Defpoints
  6
Continuous
 62
     0
100
AcDbPoint
 10
844.4529894844544
 20
1851.171307852007
 30
0.0
  0
ENDBLK
  5
506
330
4FF
100
AcDbEntity
  8
0
100
AcDbBlockEnd
  0
BLOCK
  5
575
330
56A
100
AcDbEntity
  8
0
100
AcDbBlockBegin
  2
*D11
 70
     1
 10
0.0
 20
0.0
 30
0.0
  3
*D11
  1

  0
LINE
  5
5F8
330
56A
100
AcDbEntity
  8
Dimensions
  6
Continuous
 62
   250
370
    25
100
AcDbLine
 10
1194.452989484768
 20
2580.356763132055
 30
0.0
 11
1607.32407257487
 21
2580.356763132054
 31
0.0
  0
LINE
  5
5F9
330
56A
100
AcDbEntity
  8
Dimensions
  6
Continuous
 62
   250
370
    25
100
AcDbLine
 10
1194.452989484768
 20
2438.582066795534
 30
0.0
 11
1607.32407257487
 21
2438.582066795534
 31
0.0
  0
LINE
  5
5FA
330
56A
100
AcDbEntity
  8
Dimensions
  6
Continuous
 62
   250
370
    25
100
AcDbLine
 10
1575.574072574871
 20
2463.582066795534
 30
0.0
 11
1575.574072574871
 21
2555.356763132055
 31
0.0
  0
LINE
  5
5FB
330
56A
100
AcDbEntity
  8
Dimensions
  6
Continuous
 62
   250
370
    25
100
AcDbLine
 10
1575.574072574871
 20
2580.356763132054
 30
0.0
 11
1575.574072574871
 21
2735.480801331236
 31
0.0
  0
SOLID
  5
5FC
330
56A
100
AcDbEntity
  8
Dimensions
  6
Continuous
 62
   250
100
AcDbTrace
 10
1571.407405908204
 20
2463.582066795534
 30
0.0
 11
1579.740739241537
 21
2463.582066795534
 31
0.0
 12
1575.574072574871
 22
2438.582066795534
 32
0.0
 13
1575.574072574871
 23
2438.582066795534
 33
0.0
  0
SOLID
  5
5FD
330
56A
100
AcDbEntity
  8
Dimensions
  6
Continuous
 62
   250
100
AcDbTrace
 10
1571.407405908204
 20
2555.356763132055
 30
0.0
 11
1579.740739241537
 21
2555.356763132055
 31
0.0
 12
1575.574072574871
 22
2580.356763132054
 32
0.0
 13
1575.574072574871
 23
2580.356763132054
 33
0.0
  0
MTEXT
  5
5FE
330
56A
100
AcDbEntity
  8
Dimensions
  6
Continuous
 62
    18
370
    25
100
AcDbMText
 10
1525.88722400734
 20
2612.976763132055
 30
0.0
 40
35.0
 41
0.0
 71
     1
 72
     1
  1
\A1;14,18
  7
Text Style9
 11
0.0000000000000001
 21
1.0
 31
0.0
 73
     1
 44
1.0
1001
ACAD
1000
MTEXTBEGIN
1070
    73
1070
     1
1070
    44
1040
1.0
1070
    74
1070
     0
1000
MTEXTEND
  0
POINT
  5
5FF
330
56A
100
AcDbEntity
  8
Defpoints
  6
Continuous
 62
     0
100
AcDbPoint
 10
1194.452989484768
 20
2580.356763132055
 30
0.0
  0
POINT
  5
600
330
56A
100
AcDbEntity
  8
Defpoints
  6
Continuous
 62
     0
100
AcDbPoint
 10
1194.452989484768
 20
2438.582066795534
 30
0.0
  0
POINT
  5
601
330
56A
100
AcDbEntity
  8
Defpoints
  6
Continuous
 62
     0
100
AcDbPoint
 10
1575.574072574871
 20
2438.582066795534
 30
0.0
  0
ENDBLK
  5
576
330
56A
100
AcDbEntity
  8
0
100
AcDbBlockEnd
  0
BLOCK
  5
622
330
617
100
AcDbEntity
  8
0
100
AcDbBlockBegin
  2
*D12
 70
     1
 10
0.0
 20
0.0
 30
0.0
  3
*D12
  1

  0
LINE
  5
6A5
330
617
100
AcDbEntity
  8
Dimensions
  6
Continuous
 62
   250
370
    25
100
AcDbLine
 10
965.4034355991051
 20
603.2125159213947
 30
0.0
 11
770.0271834921022
 21
603.2125159213947
 31
0.0
  0
LINE
  5
6A6
330
617
100
AcDbEntity
  8
Dimensions
  6
Continuous
 62
   250
370
    25
100
AcDbLine
 10
965.4034355991051
 20
744.9872122579164
 30
0.0
 11
770.0271834921022
 21
744.9872122579165
 31
0.0
  0
LINE
  5
6A7
330
617
100
AcDbEntity
  8
Dimensions
  6
Continuous
 62
   250
370
    25
100
AcDbLine
 10
801.7771834921022
 20
628.2125159213947
 30
0.0
 11
801.7771834921022
 21
719.9872122579165
 31
0.0
  0
LINE
  5
6A8
330
617
100
AcDbEntity
  8
Dimensions
  6
Continuous
 62
   250
370
    25
100
AcDbLine
 10
801.7771834921022
 20
744.9872122579165
 30
0.0
 11
801.7771834921022
 21
911.8704844230711
 31
0.0
  0
SOLID
  5
6A9
330
617
100
AcDbEntity
  8
Dimensions
  6
Continuous
 62
   250
100
AcDbTrace
 10
797.6105168254355
 20
628.2125159213947
 30
0.0
 11
805.943850158769
 21
628.2125159213947
 31
0.0
 12
801.7771834921022
 22
603.2125159213947
 32
0.0
 13
801.7771834921022
 23
603.2125159213947
 33
0.0
  0
SOLID
  5
6AA
330
617
100
AcDbEntity
  8
Dimensions
  6
Continuous
 62
   250
100
AcDbTrace
 10
797.6105168254355
 20
719.9872122579165
 30
0.0
 11
805.943850158769
 21
719.9872122579165
 31
0.0
 12
801.7771834921022
 22
744.9872122579165
 32
0.0
 13
801.7771834921022
 23
744.9872122579165
 33
0.0
  0
MTEXT
  5
6AB
330
617
100
AcDbEntity
  8
Dimensions
  6
Continuous
 62
    18
370
    25
100
AcDbMText
 10
752.0903349245713
 20
789.3664462238896
 30
0.0
 40
35.0
 41
0.0
 71
     1
 72
     1
  1
\A1;14,18
  7
Text Style9
 11
0.0000000000000001
 21
1.0
 31
0.0
 73
     1
 44
1.0
1001
ACAD
1000
MTEXTBEGIN
1070
    73
1070
     1
1070
    44
1040
1.0
1070
    74
1070
     0
1000
MTEXTEND
  0
POINT
  5
6AC
330
617
100
AcDbEntity
  8
Defpoints
  6
Continuous
 62
     0
100
AcDbPoint
 10
965.4034355991051
 20
603.2125159213947
 30
0.0
  0
POINT
  5
6AD
330
617
100
AcDbEntity
  8
Defpoints
  6
Continuous
 62
     0
100
AcDbPoint
 10
965.4034355991051
 20
744.9872122579164
 30
0.0
  0
POINT
  5
6AE
330
617
100
AcDbEntity
  8
Defpoints
  6
Continuous
 62
     0
100
AcDbPoint
 10
801.7771834921022
 20
744.9872122579165
 30
0.0
  0
ENDBLK
  5
623
330
617
100
AcDbEntity
  8
0
100
AcDbBlockEnd
  0
BLOCK
  5
6BB
330
6B0
100
AcDbEntity
  8
0
100
AcDbBlockBegin
  2
*D13
 70
     1
 10
0.0
 20
0.0
 30
0.0
  3
*D13
  1

  0
LINE
  5
73E
330
6B0
100
AcDbEntity
  8
Dimensions
  6
Continuous
 62
   250
370
    25
100
AcDbLine
 10
1265.403435599105
 20
744.9872122579164
 30
0.0
 11
1546.766055168393
 21
744.9872122579164
 31
0.0
  0
LINE
  5
73F
330
6B0
100
AcDbEntity
  8
Dimensions
  6
Continuous
 62
   250
370
    25
100
AcDbLine
 10
1265.403435599105
 20
603.2125159213953
 30
0.0
 11
1546.766055168393
 21
603.2125159213953
 31
0.0
  0
LINE
  5
740
330
6B0
100
AcDbEntity
  8
Dimensions
  6
Continuous
 62
   250
370
    25
100
AcDbLine
 10
1515.016055168393
 20
628.2125159213953
 30
0.0
 11
1515.016055168393
 21
719.9872122579164
 31
0.0
  0
LINE
  5
741
330
6B0
100
AcDbEntity
  8
Dimensions
  6
Continuous
 62
   250
370
    25
100
AcDbLine
 10
1515.016055168393
 20
744.9872122579164
 30
0.0
 11
1515.016055168393
 21
908.5061500004309
 31
0.0
  0
SOLID
  5
742
330
6B0
100
AcDbEntity
  8
Dimensions
  6
Continuous
 62
   250
100
AcDbTrace
 10
1510.849388501727
 20
628.2125159213953
 30
0.0
 11
1519.18272183506
 21
628.2125159213953
 31
0.0
 12
1515.016055168393
 22
603.2125159213953
 32
0.0
 13
1515.016055168393
 23
603.2125159213953
 33
0.0
  0
SOLID
  5
743
330
6B0
100
AcDbEntity
  8
Dimensions
  6
Continuous
 62
   250
100
AcDbTrace
 10
1510.849388501727
 20
719.9872122579164
 30
0.0
 11
1519.18272183506
 21
719.9872122579164
 31
0.0
 12
1515.016055168393
 22
744.9872122579164
 32
0.0
 13
1515.016055168393
 23
744.9872122579164
 33
0.0
  0
MTEXT
  5
744
330
6B0
100
AcDbEntity
  8
Dimensions
  6
Continuous
 62
    18
370
    25
100
AcDbMText
 10
1465.329206600863
 20
786.0021118012496
 30
0.0
 40
35.0
 41
0.0
 71
     1
 72
     1
  1
\A1;14,18
  7
Text Style9
 11
0.0000000000000001
 21
1.0
 31
0.0
 73
     1
 44
1.0
1001
ACAD
1000
MTEXTBEGIN
1070
    73
1070
     1
1070
    44
1040
1.0
1070
    74
1070
     0
1000
MTEXTEND
  0
POINT
  5
745
330
6B0
100
AcDbEntity
  8
Defpoints
  6
Continuous
 62
     0
100
AcDbPoint
 10
1265.403435599105
 20
744.9872122579164
 30
0.0
  0
POINT
  5
746
330
6B0
100
AcDbEntity
  8
Defpoints
  6
Continuous
 62
     0
100
AcDbPoint
 10
1265.403435599105
 20
603.2125159213953
 30
0.0
  0
POINT
  5
747
330
6B0
100
AcDbEntity
  8
Defpoints
  6
Continuous
 62
     0
100
AcDbPoint
 10
1515.016055168393
 20
603.2125159213953
 30
0.0
  0
ENDBLK
  5
6BC
330
6B0
100
AcDbEntity
  8
0
100
AcDbBlockEnd
  0
BLOCK
  5
74F
330
749
100
AcDbEntity
  8
0
100
AcDbBlockBegin
  2
*D14
 70
     1
 10
0.0
 20
0.0
 30
0.0
  3
*D14
  1

  0
LINE
  5
7AE
330
749
100
AcDbEntity
  8
Dimensions
  6
Continuous
 62
   250
370
    25
100
AcDbLine
 10
1115.403435597225
 20
304.6947688528653
 30
0.0
 11
1115.403435597225
 21
579.9872122579159
 31
0.0
  0
MTEXT
  5
7AF
330
749
100
AcDbEntity
  8
Dimensions
  6
Continuous
 62
    18
370
    25
100
AcDbMText
 10
1065.716587029694
 20
312.3147688528655
 30
0.0
 40
35.0
 41
0.0
 71
     1
 72
     1
  1
\A1;R634,00
  7
Text Style9
 11
0.0000000000000001
 21
1.0
 31
0.0
 73
     1
 44
1.0
1001
ACAD
1000
MTEXTBEGIN
1070
    73
1070
     1
1070
    44
1040
1.0
1070
    74
1070
     0
1000
MTEXTEND
  0
SOLID
  5
7B0
330
749
100
AcDbEntity
  8
Dimensions
  6
Continuous
 62
   250
100
AcDbTrace
 10
1111.236768930559
 20
579.9872122579159
 30
0.0
 11
1119.570102263892
 21
579.9872122579159
 31
0.0
 12
1115.403435597225
 22
604.9872122579159
 32
0.0
 13
1115.403435597225
 23
604.9872122579159
 33
0.0
  0
POINT
  5
7B1
330
749
100
AcDbEntity
  8
Defpoints
  6
Continuous
 62
     0
100
AcDbPoint
 10
1115.403435597225
 20
604.9872122579159
 30
0.0
  0
POINT
  5
7B2
330
749
100
AcDbEntity
  8
Defpoints
  6
Continuous
 62
     0
100
AcDbPoint
 10
1115.403435599105
 20
-5735.012787742085
 30
0.0
  0
ENDBLK
  5
750
330
749
100
AcDbEntity
  8
0
100
AcDbBlockEnd
  0
BLOCK
  5
7BF
330
7B4
100
AcDbEntity
  8
0
100
AcDbBlockBegin
  2
*D15
 70
     1
 10
0.0
 20
0.0
 30
0.0
  3
*D15
  1

  0
LINE
  5
843
330
7B4
100
AcDbEntity
  8
Dimensions
  6
Continuous
 62
   250
370
    25
100
AcDbLine
 10
1265.403435599317
 20
1040.343512088322
 30
0.0
 11
1457.153435599318
 21
1040.343512088322
 31
0.0
  0
LINE
  5
844
330
7B4
100
AcDbEntity
  8
Dimensions
  6
Continuous
 62
   250
370
    25
100
AcDbLine
 10
1265.403435599317
 20
1140.343512088322
 30
0.0
 11
1457.153435599318
 21
1140.343512088322
 31
0.0
  0
LINE
  5
845
330
7B4
100
AcDbEntity
  8
Dimensions
  6
Continuous
 62
   250
370
    25
100
AcDbLine
 10
1425.403435599318
 20
1065.343512088322
 30
0.0
 11
1425.403435599318
 21
1115.343512088322
 31
0.0
  0
LINE
  5
846
330
7B4
100
AcDbEntity
  8
Dimensions
  6
Continuous
 62
   250
370
    25
100
AcDbLine
 10
1425.403435599318
 20
1140.343512088322
 30
0.0
 11
1425.403435599318
 21
1295.276554380273
 31
0.0
  0
SOLID
  5
847
330
7B4
100
AcDbEntity
  8
Dimensions
  6
Continuous
 62
   250
100
AcDbTrace
 10
1421.236768932651
 20
1065.343512088322
 30
0.0
 11
1429.570102265984
 21
1065.343512088322
 31
0.0
 12
1425.403435599318
 22
1040.343512088322
 32
0.0
 13
1425.403435599318
 23
1040.343512088322
 33
0.0
  0
SOLID
  5
848
330
7B4
100
AcDbEntity
  8
Dimensions
  6
Continuous
 62
   250
100
AcDbTrace
 10
1421.236768932651
 20
1115.343512088322
 30
0.0
 11
1429.570102265984
 21
1115.343512088322
 31
0.0
 12
1425.403435599318
 22
1140.343512088322
 32
0.0
 13
1425.403435599318
 23
1140.343512088322
 33
0.0
  0
MTEXT
  5
849
330
7B4
100
AcDbEntity
  8
Dimensions
  6
Continuous
 62
    18
370
    25
100
AcDbMText
 10
1375.716587031787
 20
1172.963512088322
 30
0.0
 40
35.0
 41
0.0
 71
     1
 72
     1
  1
\A1;10,00
  7
Text Style9
 11
0.0000000000000001
 21
1.0
 31
0.0
 73
     1
 44
1.0
1001
ACAD
1000
MTEXTBEGIN
1070
    73
1070
     1
1070
    44
1040
1.0
1070
    74
1070
     0
1000
MTEXTEND
  0
POINT
  5
84A
330
7B4
100
AcDbEntity
  8
Defpoints
  6
Continuous
 62
     0
100
AcDbPoint
 10
1265.403435599317
 20
1040.343512088322
 30
0.0
  0
POINT
  5
84B
330
7B4
100
AcDbEntity
  8
Defpoints
  6
Continuous
 62
     0
100
AcDbPoint
 10
1265.403435599317
 20
1140.343512088322
 30
0.0
  0
POINT
  5
84C
330
7B4
100
AcDbEntity
  8
Defpoints
  6
Continuous
 62
     0
100
AcDbPoint
 10
1425.403435599318
 20
1140.343512088322
 30
0.0
  0
ENDBLK
  5
7C0
330
7B4
100
AcDbEntity
  8
0
100
AcDbBlockEnd
  0
BLOCK
  5
84E
330
84D
100
AcDbEntity
  8
0
100
AcDbBlockBegin
  2
2dTransSymbol1
 70
     0
 10
0.0
 20
0.0
 30
0.0
  3
2dTransSymbol1
  1

  0
MTEXT
  5
850
330
84D
100
AcDbEntity
  8
Dimensions
  6
Continuous
 48
0.0
370
    50
100
AcDbMText
 10
129.0467084108575
 20
52.46654155319399
 30
0.0
 40
3.499999940395355
 41
0.0
 71
     7
 72
     1
  1
M6x1 - 6H
  7
Text Style9
 11
0.5000000000001728
 21
-0.8660254037843388
 31
0.0
 73
     1
 44
1.0
1001
ACAD
1000
MTEXTBEGIN
1070
    73
1070
     1
1070
    44
1040
1.0
1070
    74
1070
     0
1000
MTEXTEND
  0
LINE
  5
851
330
84D
100
AcDbEntity
  8
Dimensions
  6
Continuous
 48
0.0
370
    25
100
AcDbLine
 10
121.2903435599114
 20
62.73558150497776
 30
0.0
 11
120.040343559911
 21
64.9006450144386
 31
0.0
  0
POLYLINE
  5
852
330
84D
100
AcDbEntity
  8
Dimensions
  6
Continuous
 48
0.0
370
    25
100
AcDb2dPolyline
 66
     1
 10
0.0
 20
0.0
 30
0.0
  0
VERTEX
  5
853
330
852
100
AcDbEntity
  8
Dimensions
  6
Continuous
 48
0.0
370
    25
100
AcDbVertex
100
AcDb2dVertex
 10
121.7233562469482
 20
62.98558235168457
 30
0.0
  0
VERTEX
  5
854
330
852
100
AcDbEntity
  8
Dimensions
  6
Continuous
 48
0.0
370
    25
100
AcDbVertex
100
AcDb2dVertex
 10
120.040340423584
 20
64.90064620971679
 30
0.0
  0
VERTEX
  5
856
330
852
100
AcDbEntity
  8
Dimensions
  6
Continuous
 48
0.0
370
    25
100
AcDbVertex
100
AcDb2dVertex
 10
120.8573341369629
 20
62.48558044433593
 30
0.0
  0
VERTEX
  5
857
330
852
100
AcDbEntity
  8
Dimensions
  6
Continuous
 48
0.0
370
    25
100
AcDbVertex
100
AcDb2dVertex
 10
121.7233562469482
 20
62.98558235168457
 30
0.0
  0
SEQEND
  5
855
330
852
100
AcDbEntity
  8
Dimensions
  6
Continuous
 48
0.0
370
    25
  0
SOLID
  5
858
330
84D
100
AcDbEntity
  8
0
 62
    18
100
AcDbTrace
 10
121.7233562469482
 20
62.98558235168457
 30
0.0
 11
120.040340423584
 21
64.90064620971679
 31
0.0
 12
120.8573341369629
 22
62.48558044433593
 32
0.0
 13
121.7233562469482
 23
62.98558235168457
 33
0.0
  0
LINE
  5
859
330
84D
100
AcDbEntity
  8
Dimensions
  6
Continuous
 48
0.0
370
    25
100
AcDbLine
 10
121.7233562618036
 20
62.98558150497783
 30
0.0
 11
120.040343559911
 21
64.9006450144386
 31
0.0
  0
LINE
  5
85A
330
84D
100
AcDbEntity
  8
Dimensions
  6
Continuous
 48
0.0
370
    25
100
AcDbLine
 10
120.040343559911
 20
64.9006450144386
 30
0.0
 11
120.8573308580192
 21
62.48558150497766
 31
0.0
  0
LINE
  5
85B
330
84D
100
AcDbEntity
  8
Dimensions
  6
Continuous
 48
0.0
370
    25
100
AcDbLine
 10
120.8573308580192
 20
62.48558150497766
 30
0.0
 11
121.7233562618036
 21
62.98558150497783
 31
0.0
  0
LINE
  5
85C
330
84D
100
AcDbEntity
  8
Dimensions
  6
Continuous
 48
0.0
370
    25
100
AcDbLine
 10
120.040343559911
 20
64.9006450144386
 30
0.0
 11
133.3135407206293
 21
41.91079315320618
 31
0.0
  0
LINE
  5
85D
330
84D
100
AcDbEntity
  8
Dimensions
  6
Continuous
 48
0.0
370
    25
100
AcDbLine
 10
133.3135407206293
 20
41.91079315320618
 30
0.0
 11
139.3320219332473
 21
31.48647790855779
 31
0.0
  0
ENDBLK
  5
84F
330
84D
100
AcDbEntity
  8
0
100
AcDbBlockEnd
  0
BLOCK
  5
875
330
86A
100
AcDbEntity
  8
0
100
AcDbBlockBegin
  2
*D17
 70
     1
 10
0.0
 20
0.0
 30
0.0
  3
*D17
  1

  0
LINE
  5
962
330
86A
100
AcDbEntity
  8
Dimensions
  6
Continuous
 62
   250
370
    25
100
AcDbLine
 10
3105.957635724999
 20
2213.487438912528
 30
0.0
 11
3006.75665469072
 21
1748.475454073992
 31
0.0
  0
LINE
  5
963
330
86A
100
AcDbEntity
  8
Dimensions
  6
Continuous
 62
   250
370
    25
100
AcDbLine
 10
2234.472431966993
 20
2085.491994000461
 30
0.0
 11
2367.160107936232
 21
1707.636688808852
 31
0.0
  0
ARC
  5
964
330
86A
100
AcDbEntity
  8
Dimensions
  6
Continuous
 62
   250
370
    25
100
AcDbCircle
 10
2759.623034376628
 20
590.018207941743
 30
0.0
 40
1216.274468892839
100
AcDbArc
 50
79.13532146151936
 51
108.1715247229381
  0
SOLID
  5
965
330
86A
100
AcDbEntity
  8
Dimensions
  6
Continuous
 62
   250
100
AcDbTrace
 10
2989.706062048336
 20
1788.574769166024
 30
0.0
 11
2988.051285674596
 21
1780.407385276592
 31
0.0
 12
3013.380825529763
 22
1779.52674810009
 32
0.0
 13
3013.380825529763
 23
1779.52674810009
 33
0.0
  0
SOLID
  5
966
330
86A
100
AcDbEntity
  8
Dimensions
  6
Continuous
 62
   250
100
AcDbTrace
 10
2381.652372496726
 20
1741.688316204111
 30
0.0
 11
2378.972280716024
 21
1749.578915198577
 31
0.0
 12
2356.640529622978
 22
1737.593340359239
 32
0.0
 13
2356.640529622978
 23
1737.593340359239
 33
0.0
  0
MTEXT
  5
967
330
86A
100
AcDbEntity
  8
Dimensions
  6
Continuous
 62
    18
370
    25
100
AcDbMText
 10
2595.785615532617
 20
1847.279252966729
 30
0.0
 40
35.0
 41
0.0
 71
     1
 72
     1
  1
\A1;31,39°
  7
Text Style9
 11
0.9972334876553
 21
0.074332839975655
 31
0.0
 73
     1
 44
1.0
1001
ACAD
1000
MTEXTBEGIN
1070
    73
1070
     1
1070
    44
1040
1.0
1070
    74
1070
     0
1000
MTEXTEND
  0
POINT
  5
968
330
86A
100
AcDbEntity
  8
Defpoints
  6
Continuous
 62
     0
100
AcDbPoint
 10
2759.623034376628
 20
590.018207941743
 30
0.0
  0
POINT
  5
969
330
86A
100
AcDbEntity
  8
Defpoints
  6
Continuous
 62
     0
100
AcDbPoint
 10
3105.957635724999
 20
2213.487438912528
 30
0.0
  0
POINT
  5
96A
330
86A
100
AcDbEntity
  8
Defpoints
  6
Continuous
 62
     0
100
AcDbPoint
 10
2234.472431966993
 20
2085.491994000461
 30
0.0
  0
POINT
  5
96B
330
86A
100
AcDbEntity
  8
Defpoints
  6
Continuous
 62
     0
100
AcDbPoint
 10
2793.127490356005
 20
1805.831119170311
 30
0.0
  0
ENDBLK
  5
876
330
86A
100
AcDbEntity
  8
0
100
AcDbBlockEnd
  0
BLOCK
  5
96F
330
96E
100
AcDbEntity
  8
0
100
AcDbBlockBegin
  2
2dTransSection0
 70
     0
 10
0.0
 20
0.0
 30
0.0
  3
2dTransSection0
  1

  0
LINE
  5
971
330
96E
100
AcDbEntity
  8
Section View Lines
  6
LONG_DASH_DOTTED
 48
24.99156951904297
370
    70
100
AcDbLine
 10
310.5957635724998
 20
221.3487438912527
 30
0.0
 11
309.0309988073717
 21
214.0137925465052
 31
0.0
  0
LINE
  5
972
330
96E
100
AcDbEntity
  8
Section View Lines
  6
LONG_DASH_DOTTED
 48
24.99156951904297
370
   140
100
AcDbLine
 10
310.5957635724998
 20
221.3487438912527
 30
0.0
 11
309.0309988073717
 21
214.0137925465052
 31
0.0
  0
LINE
  5
973
330
96E
100
AcDbEntity
  8
Section View Lines
  6
LONG_DASH_DOTTED
 48
16.66101264953613
370
    70
100
AcDbLine
 10
314.8598252296136
 20
217.3715868432683
 30
0.0
 11
309.9698576664486
 21
218.4147633533537
 31
0.0
  0
POLYLINE
  5
974
330
96E
100
AcDbEntity
  8
Section View Lines
  6
LONG_DASH_DOTTED
 48
0.0
370
    70
100
AcDb2dPolyline
 66
     1
 10
0.0
 20
0.0
 30
0.0
  0
VERTEX
  5
975
330
974
100
AcDbEntity
  8
Section View Lines
  6
LONG_DASH_DOTTED
 48
0.0
370
    70
100
AcDbVertex
100
AcDb2dVertex
 10
315.0684603086704
 20
218.3495804017424
 30
0.0
  0
VERTEX
  5
976
330
974
100
AcDbEntity
  8
Section View Lines
  6
LONG_DASH_DOTTED
 48
0.0
370
    70
100
AcDbVertex
100
AcDb2dVertex
 10
309.9698599210971
 20
218.4147632962107
 30
0.0
  0
VERTEX
  5
978
330
974
100
AcDbEntity
  8
Section View Lines
  6
LONG_DASH_DOTTED
 48
0.0
370
    70
100
AcDbVertex
100
AcDb2dVertex
 10
314.65118964827
 20
216.3935933357119
 30
0.0
  0
VERTEX
  5
979
330
974
100
AcDbEntity
  8
Section View Lines
  6
LONG_DASH_DOTTED
 48
0.0
370
    70
100
AcDbVertex
100
AcDb2dVertex
 10
315.0684603086704
 20
218.3495804017424
 30
0.0
  0
SEQEND
  5
977
330
974
100
AcDbEntity
  8
Section View Lines
  6
LONG_DASH_DOTTED
 48
0.0
370
    70
  0
SOLID
  5
97A
330
96E
100
AcDbEntity
  8
0
100
AcDbTrace
 10
315.0684603086704
 20
218.3495804017424
 30
0.0
 11
309.9698599210971
 21
218.4147632962107
 31
0.0
 12
314.65118964827
 22
216.3935933357119
 32
0.0
 13
315.0684603086704
 23
218.3495804017424
 33
0.0
  0
LINE
  5
97B
330
96E
100
AcDbEntity
  8
Section View Lines
  6
LONG_DASH_DOTTED
 48
16.99096870422363
370
    70
100
AcDbLine
 10
315.0684605316306
 20
218.3495803559013
 30
0.0
 11
309.9698576664486
 21
218.4147633533537
 31
0.0
  0
LINE
  5
97C
330
96E
100
AcDbEntity
  8
Section View Lines
  6
LONG_DASH_DOTTED
 48
16.99096870422363
370
    70
100
AcDbLine
 10
309.9698576664486
 20
218.4147633533537
 30
0.0
 11
314.6511899275965
 21
216.3935933306353
 31
0.0
  0
LINE
  5
97D
330
96E
100
AcDbEntity
  8
Section View Lines
  6
LONG_DASH_DOTTED
 48
6.664345264434814
370
    70
100
AcDbLine
 10
314.6511899275965
 20
216.3935933306353
 30
0.0
 11
315.0684605316306
 21
218.3495803559013
 31
0.0
  0
LINE
  5
97E
330
96E
100
AcDbEntity
  8
Section View Lines
  6
LONG_DASH_DOTTED
 48
8.978178977966308
370
    70
100
AcDbLine
 10
317.4949128149021
 20
216.809443754284
 30
0.0
 11
314.8598252296136
 21
217.3715868432683
 31
0.0
  0
LINE
  5
97F
330
96E
100
AcDbEntity
  8
Section View Lines
  6
LONG_DASH_DOTTED
 48
16.66101264953613
370
    70
100
AcDbLine
 10
314.5468722765879
 20
215.9045965743187
 30
0.0
 11
309.6569047134229
 21
216.9477730844042
 31
0.0
  0
POLYLINE
  5
980
330
96E
100
AcDbEntity
  8
Section View Lines
  6
LONG_DASH_DOTTED
 48
0.0
370
    70
100
AcDb2dPolyline
 66
     1
 10
0.0
 20
0.0
 30
0.0
  0
VERTEX
  5
981
330
980
100
AcDbEntity
  8
Section View Lines
  6
LONG_DASH_DOTTED
 48
0.0
370
    70
100
AcDbVertex
100
AcDb2dVertex
 10
314.75550731337
 20
216.8825900835931
 30
0.0
  0
VERTEX
  5
982
330
980
100
AcDbEntity
  8
Section View Lines
  6
LONG_DASH_DOTTED
 48
0.0
370
    70
100
AcDbVertex
100
AcDb2dVertex
 10
309.6569069257968
 20
216.9477730898201
 30
0.0
  0
VERTEX
  5
984
330
980
100
AcDbEntity
  8
Section View Lines
  6
LONG_DASH_DOTTED
 48
0.0
370
    70
100
AcDbVertex
100
AcDb2dVertex
 10
314.3382366529697
 20
214.9266030734419
 30
0.0
  0
VERTEX
  5
985
330
980
100
AcDbEntity
  8
Section View Lines
  6
LONG_DASH_DOTTED
 48
0.0
370
    70
100
AcDbVertex
100
AcDb2dVertex
 10
314.75550731337
 20
216.8825900835931
 30
0.0
  0
SEQEND
  5
983
330
980
100
AcDbEntity
  8
Section View Lines
  6
LONG_DASH_DOTTED
 48
0.0
370
    70
  0
SOLID
  5
986
330
96E
100
AcDbEntity
  8
0
100
AcDbTrace
 10
314.75550731337
 20
216.8825900835931
 30
0.0
 11
309.6569069257968
 21
216.9477730898201
 31
0.0
 12
314.3382366529697
 22
214.9266030734419
 32
0.0
 13
314.75550731337
 23
216.8825900835931
 33
0.0
  0
LINE
  5
987
330
96E
100
AcDbEntity
  8
Section View Lines
  6
LONG_DASH_DOTTED
 48
16.99096870422363
370
    70
100
AcDbLine
 10
314.755507578605
 20
216.8825900869518
 30
0.0
 11
309.6569047134229
 21
216.9477730844042
 31
0.0
  0
LINE
  5
988
330
96E
100
AcDbEntity
  8
Section View Lines
  6
LONG_DASH_DOTTED
 48
16.99096870422363
370
    70
100
AcDbLine
 10
309.6569047134229
 20
216.9477730844042
 30
0.0
 11
314.3382369745709
 21
214.9266030616858
 31
0.0
  0
LINE
  5
989
330
96E
100
AcDbEntity
  8
Section View Lines
  6
LONG_DASH_DOTTED
 48
6.664345264434814
370
    70
100
AcDbLine
 10
314.3382369745709
 20
214.9266030616858
 30
0.0
 11
314.755507578605
 21
216.8825900869518
 31
0.0
  0
LINE
  5
98A
330
96E
100
AcDbEntity
  8
Section View Lines
  6
LONG_DASH_DOTTED
 48
10.88735294342041
370
    70
100
AcDbLine
 10
317.7422945695602
 20
215.2229173131021
 30
0.0
 11
314.5468722765879
 21
215.9045965743187
 31
0.0
  0
MTEXT
  5
98B
330
96E
100
AcDbEntity
  8
Section View Lines
  6
LONG_DASH_DOTTED
 48
0.0
370
    70
100
AcDbMText
 10
316.5338414576619
 20
223.7219281395477
 30
0.0
 40
5.24999976158142
 41
0.0
 71
     7
 72
     1
  1
A
  7
Text Style12
 73
     1
 44
1.0
1001
ACAD
1000
MTEXTBEGIN
1070
    73
1070
     1
1070
    44
1040
1.0
1070
    74
1070
     0
1000
MTEXTEND
  0
MTEXT
  5
98C
330
96E
100
AcDbEntity
  8
Section View Lines
  6
LONG_DASH_DOTTED
 48
0.0
370
    70
100
AcDbMText
 10
314.3240517533986
 20
205.1834078071133
 30
0.0
 40
5.24999976158142
 41
0.0
 71
     7
 72
     1
  1
A
  7
Text Style12
 73
     1
 44
1.0
1001
ACAD
1000
MTEXTBEGIN
1070
    73
1070
     1
1070
    44
1040
1.0
1070
    74
1070
     0
1000
MTEXTEND
  0
ENDBLK
  5
970
330
96E
100
AcDbEntity
  8
0
100
AcDbBlockEnd
  0
BLOCK
  5
9A3
330
998
100
AcDbEntity
  8
0
100
AcDbBlockBegin
  2
*D19
 70
     1
 10
0.0
 20
0.0
 30
0.0
  3
*D19
  1

  0
LINE
  5
A31
330
998
100
AcDbEntity
  8
Dimensions
  6
Continuous
 62
   250
370
    25
100
AcDbLine
 10
3507.950565604597
 20
2051.042684134507
 30
0.0
 11
3475.137196580901
 21
1897.227573640028
 31
0.0
  0
LINE
  5
A32
330
998
100
AcDbEntity
  8
Dimensions
  6
Continuous
 62
   250
370
    25
100
AcDbLine
 10
3410.151214341296
 20
2071.906214336216
 30
0.0
 11
3377.3378453176
 21
1918.091103841737
 31
0.0
  0
LINE
  5
A33
330
998
100
AcDbEntity
  8
Dimensions
  6
Continuous
 62
   250
370
    25
100
AcDbLine
 10
3408.411853972468
 20
1943.926515317408
 30
0.0
 11
3457.311529604118
 21
1933.494750216554
 31
0.0
  0
LINE
  5
A34
330
998
100
AcDbEntity
  8
Dimensions
  6
Continuous
 62
   250
370
    25
100
AcDbLine
 10
3481.761367419944
 20
1928.278867666126
 30
0.0
 11
3670.354186735699
 21
1888.046371941013
 31
0.0
  0
SOLID
  5
A35
330
998
100
AcDbEntity
  8
Dimensions
  6
Continuous
 62
   250
100
AcDbTrace
 10
3409.281167730873
 20
1948.001488286713
 30
0.0
 11
3407.542540214063
 21
1939.851542348104
 31
0.0
 12
3383.962016156643
 22
1949.142397867835
 32
0.0
 13
3383.962016156643
 23
1949.142397867835
 33
0.0
  0
SOLID
  5
A36
330
998
100
AcDbEntity
  8
Dimensions
  6
Continuous
 62
   250
100
AcDbTrace
 10
3458.180843362523
 20
1937.569723185858
 30
0.0
 11
3456.442215845714
 21
1929.419777247249
 31
0.0
 12
3481.761367419944
 22
1928.278867666126
 32
0.0
 13
3481.761367419944
 23
1928.278867666126
 33
0.0
  0
MTEXT
  5
A37
330
998
100
AcDbEntity
  8
Dimensions
  6
Continuous
 62
    18
370
    25
100
AcDbMText
 10
3556.499483849985
 20
1963.139875058877
 30
0.0
 40
35.0
 41
0.0
 71
     1
 72
     1
  1
\A1;40,00
  7
Text Style9
 11
0.9779935126330027
 21
-0.2086353020170859
 31
0.0
 73
     1
 44
1.0
1001
ACAD
1000
MTEXTBEGIN
1070
    73
1070
     1
1070
    44
1040
1.0
1070
    74
1070
     0
1000
MTEXTEND
  0
POINT
  5
A38
330
998
100
AcDbEntity
  8
Defpoints
  6
Continuous
 62
     0
100
AcDbPoint
 10
3507.950565604597
 20
2051.042684134507
 30
0.0
  0
POINT
  5
A39
330
998
100
AcDbEntity
  8
Defpoints
  6
Continuous
 62
     0
100
AcDbPoint
 10
3410.151214341296
 20
2071.906214336216
 30
0.0
  0
POINT
  5
A3A
330
998
100
AcDbEntity
  8
Defpoints
  6
Continuous
 62
     0
100
AcDbPoint
 10
3383.962016156643
 20
1949.142397867835
 30
0.0
  0
ENDBLK
  5
9A4
330
998
100
AcDbEntity
  8
0
100
AcDbBlockEnd
  0
BLOCK
  5
A47
330
A3C
100
AcDbEntity
  8
0
100
AcDbBlockBegin
  2
*D20
 70
     1
 10
0.0
 20
0.0
 30
0.0
  3
*D20
  1

  0
LINE
  5
AD5
330
A3C
100
AcDbEntity
  8
Dimensions
  6
Continuous
 62
   250
370
    25
100
AcDbLine
 10
3507.950565604597
 20
2051.042684134508
 30
0.0
 11
3853.789192462116
 21
1977.264948974142
 31
0.0
  0
LINE
  5
AD6
330
A3C
100
AcDbEntity
  8
Dimensions
  6
Continuous
 62
   250
370
    25
100
AcDbLine
 10
3523.598213255878
 20
2124.392197581983
 30
0.0
 11
3869.436840113398
 21
2050.614462421618
 31
0.0
  0
LINE
  5
AD7
330
A3C
100
AcDbEntity
  8
Dimensions
  6
Continuous
 62
   250
370
    25
100
AcDbLine
 10
3827.953780986446
 20
2008.33895762901
 30
0.0
 11
3833.169663536873
 21
2032.788795444835
 31
0.0
  0
LINE
  5
AD8
330
A3C
100
AcDbEntity
  8
Dimensions
  6
Continuous
 62
   250
370
    25
100
AcDbLine
 10
3838.3855460873
 20
2057.23863326066
 30
0.0
 11
3874.485938543772
 21
2226.461910839274
 31
0.0
  0
SOLID
  5
AD9
330
A3C
100
AcDbEntity
  8
Dimensions
  6
Continuous
 62
   250
100
AcDbTrace
 10
3823.878808017141
 20
2009.208271387415
 30
0.0
 11
3832.02875395575
 21
2007.469643870606
 31
0.0
 12
3822.737898436019
 22
1983.889119813184
 32
0.0
 13
3822.737898436019
 23
1983.889119813184
 33
0.0
  0
SOLID
  5
ADA
330
A3C
100
AcDbEntity
  8
Dimensions
  6
Continuous
 62
   250
100
AcDbTrace
 10
3829.094690567568
 20
2033.65810920324
 30
0.0
 11
3837.244636506177
 21
2031.919481686431
 31
0.0
 12
3838.3855460873
 22
2057.23863326066
 32
0.0
 13
3838.3855460873
 23
2057.23863326066
 33
0.0
  0
MTEXT
  5
ADB
330
A3C
100
AcDbEntity
  8
Dimensions
  6
Continuous
 62
    18
370
    25
100
AcDbMText
 10
3799.691299091826
 20
2114.00815364014
 30
0.0
 40
35.0
 41
0.0
 71
     1
 72
     1
  1
\A1;30,00
  7
Text Style9
 11
0.2086353020170868
 21
0.9779935126330025
 31
0.0
 73
     1
 44
1.0
1001
ACAD
1000
MTEXTBEGIN
1070
    73
1070
     1
1070
    44
1040
1.0
1070
    74
1070
     0
1000
MTEXTEND
  0
POINT
  5
ADC
330
A3C
100
AcDbEntity
  8
Defpoints
  6
Continuous
 62
     0
100
AcDbPoint
 10
3507.950565604597
 20
2051.042684134508
 30
0.0
  0
POINT
  5
ADD
330
A3C
100
AcDbEntity
  8
Defpoints
  6
Continuous
 62
     0
100
AcDbPoint
 10
3523.598213255878
 20
2124.392197581983
 30
0.0
  0
POINT
  5
ADE
330
A3C
100
AcDbEntity
  8
Defpoints
  6
Continuous
 62
     0
100
AcDbPoint
 10
3838.3855460873
 20
2057.23863326066
 30
0.0
  0
ENDBLK
  5
A48
330
A3C
100
AcDbEntity
  8
0
100
AcDbBlockEnd
  0
BLOCK
  5
AEB
330
AE0
100
AcDbEntity
  8
0
100
AcDbBlockBegin
  2
*D21
 70
     1
 10
0.0
 20
0.0
 30
0.0
  3
*D21
  1

  0
LINE
  5
B79
330
AE0
100
AcDbEntity
  8
Dimensions
  6
Continuous
 62
   250
370
    25
100
AcDbLine
 10
3516.263261911129
 20
2125.956962347105
 30
0.0
 11
3527.182982066125
 21
2177.143963626871
 31
0.0
  0
LINE
  5
B7A
330
AE0
100
AcDbEntity
  8
Dimensions
  6
Continuous
 62
   250
370
    25
100
AcDbLine
 10
3523.598213255878
 20
2124.392197581983
 30
0.0
 11
3534.517933410871
 21
2175.579198861743
 31
0.0
  0
LINE
  5
B7B
330
AE0
100
AcDbEntity
  8
Dimensions
  6
Continuous
 62
   250
370
    25
100
AcDbLine
 10
3496.108973411256
 20
2151.3085521512
 30
0.0
 11
3471.659135595432
 21
2156.524434701627
 31
0.0
  0
LINE
  5
B7C
330
AE0
100
AcDbEntity
  8
Dimensions
  6
Continuous
 62
   250
370
    25
100
AcDbLine
 10
3552.343600387654
 20
2139.312022285217
 30
0.0
 11
3761.796220641862
 21
2094.629506378379
 31
0.0
  0
SOLID
  5
B7D
330
AE0
100
AcDbEntity
  8
Dimensions
  6
Continuous
 62
   250
100
AcDbTrace
 10
3496.978287169662
 20
2155.383525120504
 30
0.0
 11
3495.239659652852
 21
2147.233579181896
 31
0.0
 12
3520.558811227081
 22
2146.092669600772
 32
0.0
 13
3520.558811227081
 23
2146.092669600772
 33
0.0
  0
SOLID
  5
B7E
330
AE0
100
AcDbEntity
  8
Dimensions
  6
Continuous
 62
   250
100
AcDbTrace
 10
3553.212914146059
 20
2143.386995254521
 30
0.0
 11
3551.474286629249
 21
2135.237049315913
 31
0.0
 12
3527.893762571829
 22
2144.527904835644
 32
0.0
 13
3527.893762571829
 23
2144.527904835644
 33
0.0
  0
MTEXT
  5
B7F
330
AE0
100
AcDbEntity
  8
Dimensions
  6
Continuous
 62
    18
370
    25
100
AcDbMText
 10
3675.937082393013
 20
2163.750717238982
 30
0.0
 40
35.0
 41
0.0
 71
     1
 72
     1
  1
\A1;3,00
  7
Text Style9
 11
0.9779935126330014
 21
-0.2086353020170919
 31
0.0
 73
     1
 44
1.0
1001
ACAD
1000
MTEXTBEGIN
1070
    73
1070
     1
1070
    44
1040
1.0
1070
    74
1070
     0
1000
MTEXTEND
  0
POINT
  5
B80
330
AE0
100
AcDbEntity
  8
Defpoints
  6
Continuous
 62
     0
100
AcDbPoint
 10
3516.263261911129
 20
2125.956962347105
 30
0.0
  0
POINT
  5
B81
330
AE0
100
AcDbEntity
  8
Defpoints
  6
Continuous
 62
     0
100
AcDbPoint
 10
3523.598213255878
 20
2124.392197581983
 30
0.0
  0
POINT
  5
B82
330
AE0
100
AcDbEntity
  8
Defpoints
  6
Continuous
 62
     0
100
AcDbPoint
 10
3527.893762571829
 20
2144.527904835644
 30
0.0
  0
ENDBLK
  5
AEC
330
AE0
100
AcDbEntity
  8
0
100
AcDbBlockEnd
  0
BLOCK
  5
B98
330
B8D
100
AcDbEntity
  8
0
100
AcDbBlockBegin
  2
*D22
 70
     1
 10
0.0
 20
0.0
 30
0.0
  3
*D22
  1

  0
LINE
  5
C85
330
B8D
100
AcDbEntity
  8
Dimensions
  6
Continuous
 62
   250
370
    25
100
AcDbLine
 10
3043.390430995744
 20
1106.813426810668
 30
0.0
 11
2978.818168283225
 21
615.9358807029819
 31
0.0
  0
LINE
  5
C86
330
B8D
100
AcDbEntity
  8
Dimensions
  6
Continuous
 62
   250
370
    25
100
AcDbLine
 10
2301.740996856045
 20
956.4657596553626
 30
0.0
 11
2440.93287472238
 21
560.0884088034958
 31
0.0
  0
ARC
  5
C87
330
B8D
100
AcDbEntity
  8
Dimensions
  6
Continuous
 62
   250
370
    25
100
AcDbCircle
 10
2826.891599265677
 20
-539.0080264033664
 30
0.0
 40
1196.643604985245
100
AcDbArc
 50
83.70311189478409
 51
108.1522037517041
  0
SOLID
  5
C88
330
B8D
100
AcDbEntity
  8
Dimensions
  6
Continuous
 62
   250
100
AcDbTrace
 10
2958.640098459439
 20
654.5526538276982
 30
0.0
 11
2957.639621752504
 21
646.2795956988486
 31
0.0
 12
2982.95903449252
 22
647.4146946424667
 32
0.0
 13
2982.95903449252
 23
647.4146946424667
 33
0.0
  0
SOLID
  5
C89
330
B8D
100
AcDbEntity
  8
Dimensions
  6
Continuous
 62
   250
100
AcDbTrace
 10
2455.425829370093
 20
594.1358189617398
 30
0.0
 11
2452.747068039925
 21
602.0268697270336
 31
0.0
 12
2430.413296409128
 22
590.0450603538834
 32
0.0
 13
2430.413296409128
 23
590.0450603538834
 33
0.0
  0
MTEXT
  5
C8A
330
B8D
100
AcDbEntity
  8
Dimensions
  6
Continuous
 62
    18
370
    25
100
AcDbMText
 10
2658.366124616345
 20
697.8720183585219
 30
0.0
 40
35.0
 41
0.0
 71
     1
 72
     1
  1
\A1;26,84°
  7
Text Style9
 11
0.9968716678755477
 21
0.0790371924287775
 31
0.0
 73
     1
 44
1.0
1001
ACAD
1000
MTEXTBEGIN
1070
    73
1070
     1
1070
    44
1040
1.0
1070
    74
1070
     0
1000
MTEXTEND
  0
POINT
  5
C8B
330
B8D
100
AcDbEntity
  8
Defpoints
  6
Continuous
 62
     0
100
AcDbPoint
 10
2826.891599265677
 20
-539.0080264033664
 30
0.0
  0
POINT
  5
C8C
330
B8D
100
AcDbEntity
  8
Defpoints
  6
Continuous
 62
     0
100
AcDbPoint
 10
3043.390430995744
 20
1106.813426810668
 30
0.0
  0
POINT
  5
C8D
330
B8D
100
AcDbEntity
  8
Defpoints
  6
Continuous
 62
     0
100
AcDbPoint
 10
2301.740996856045
 20
956.4657596553626
 30
0.0
  0
POINT
  5
C8E
330
B8D
100
AcDbEntity
  8
Defpoints
  6
Continuous
 62
     0
100
AcDbPoint
 10
2610.84335412525
 20
637.9707640273811
 30
0.0
  0
ENDBLK
  5
B99
330
B8D
100
AcDbEntity
  8
0
100
AcDbBlockEnd
  0
BLOCK
  5
C90
330
C8F
100
AcDbEntity
  8
0
100
AcDbBlockBegin
  2
2dTransSection1
 70
     0
 10
0.0
 20
0.0
 30
0.0
  3
2dTransSection1
  1

  0
LINE
  5
C92
330
C8F
100
AcDbEntity
  8
Section View Lines
  6
LONG_DASH_DOTTED
 48
24.99156951904297
370
    70
100
AcDbLine
 10
304.3390430995744
 20
110.6813426810669
 30
0.0
 11
303.3608857273001
 21
103.2454023804011
 31
0.0
  0
LINE
  5
C93
330
C8F
100
AcDbEntity
  8
Section View Lines
  6
LONG_DASH_DOTTED
 48
24.99156951904297
370
   140
100
AcDbLine
 10
304.3390430995744
 20
110.6813426810669
 30
0.0
 11
303.3608857273001
 21
103.2454023804011
 31
0.0
  0
LINE
  5
C94
330
C8F
100
AcDbEntity
  8
Section View Lines
  6
LONG_DASH_DOTTED
 48
16.66101264953613
370
    70
100
AcDbLine
 10
308.9050736844419
 20
107.0548616459509
 30
0.0
 11
303.9477801506647
 21
107.7069665608005
 31
0.0
  0
POLYLINE
  5
C95
330
C8F
100
AcDbEntity
  8
Section View Lines
  6
LONG_DASH_DOTTED
 48
0.0
370
    70
100
AcDb2dPolyline
 66
     1
 10
0.0
 20
0.0
 30
0.0
  0
VERTEX
  5
C96
330
C95
100
AcDbEntity
  8
Section View Lines
  6
LONG_DASH_DOTTED
 48
0.0
370
    70
100
AcDbVertex
100
AcDb2dVertex
 10
309.0354943353371
 20
108.0463204432706
 30
0.0
  0
VERTEX
  5
C97
330
C95
100
AcDbEntity
  8
Section View Lines
  6
LONG_DASH_DOTTED
 48
0.0
370
    70
100
AcDbVertex
100
AcDb2dVertex
 10
303.9477801400856
 20
107.7069664646367
 30
0.0
  0
VERTEX
  5
C99
330
C95
100
AcDbEntity
  8
Section View Lines
  6
LONG_DASH_DOTTED
 48
0.0
370
    70
100
AcDbVertex
100
AcDb2dVertex
 10
308.7746548730568
 20
106.0634029556493
 30
0.0
  0
VERTEX
  5
C9A
330
C95
100
AcDbEntity
  8
Section View Lines
  6
LONG_DASH_DOTTED
 48
0.0
370
    70
100
AcDbVertex
100
AcDb2dVertex
 10
309.0354943353371
 20
108.0463204432706
 30
0.0
  0
SEQEND
  5
C98
330
C95
100
AcDbEntity
  8
Section View Lines
  6
LONG_DASH_DOTTED
 48
0.0
370
    70
  0
SOLID
  5
C9B
330
C8F
100
AcDbEntity
  8
0
100
AcDbTrace
 10
309.0354943353371
 20
108.0463204432706
 30
0.0
 11
303.9477801400856
 21
107.7069664646367
 31
0.0
 12
308.7746548730568
 22
106.0634029556493
 32
0.0
 13
309.0354943353371
 23
108.0463204432706
 33
0.0
  0
LINE
  5
C9C
330
C8F
100
AcDbEntity
  8
Section View Lines
  6
LONG_DASH_DOTTED
 48
16.99096870422363
370
    70
100
AcDbLine
 10
309.0354946674118
 20
108.0463203527064
 30
0.0
 11
303.9477801506647
 21
107.7069665608005
 31
0.0
  0
LINE
  5
C9D
330
C8F
100
AcDbEntity
  8
Section View Lines
  6
LONG_DASH_DOTTED
 48
16.99096870422363
370
    70
100
AcDbLine
 10
303.9477801506647
 20
107.7069665608005
 30
0.0
 11
308.7746527014719
 21
106.0634029391955
 31
0.0
  0
LINE
  5
C9E
330
C8F
100
AcDbEntity
  8
Section View Lines
  6
LONG_DASH_DOTTED
 48
6.664345264434814
370
    70
100
AcDbLine
 10
308.7746527014719
 20
106.0634029391955
 30
0.0
 11
309.0354946674118
 21
108.0463203527064
 31
0.0
  0
LINE
  5
C9F
330
C8F
100
AcDbEntity
  8
Section View Lines
  6
LONG_DASH_DOTTED
 48
18.12821197509765
370
    70
100
AcDbLine
 10
314.2989129401195
 20
106.3453315234012
 30
0.0
 11
308.9050736844419
 21
107.0548616459509
 31
0.0
  0
LINE
  5
CA0
330
C8F
100
AcDbEntity
  8
Section View Lines
  6
LONG_DASH_DOTTED
 48
16.66101264953613
370
    70
100
AcDbLine
 10
308.709442209987
 20
105.5676735858178
 30
0.0
 11
303.7521486762098
 21
106.2197785006675
 31
0.0
  0
POLYLINE
  5
CA1
330
C8F
100
AcDbEntity
  8
Section View Lines
  6
LONG_DASH_DOTTED
 48
0.0
370
    70
100
AcDb2dPolyline
 66
     1
 10
0.0
 20
0.0
 30
0.0
  0
VERTEX
  5
CA2
330
CA1
100
AcDbEntity
  8
Section View Lines
  6
LONG_DASH_DOTTED
 48
0.0
370
    70
100
AcDbVertex
100
AcDb2dVertex
 10
308.8398623544411
 20
106.5591324020604
 30
0.0
  0
VERTEX
  5
CA3
330
CA1
100
AcDbEntity
  8
Section View Lines
  6
LONG_DASH_DOTTED
 48
0.0
370
    70
100
AcDbVertex
100
AcDb2dVertex
 10
303.7521481591896
 20
106.2197785724381
 30
0.0
  0
VERTEX
  5
CA5
330
CA1
100
AcDbEntity
  8
Section View Lines
  6
LONG_DASH_DOTTED
 48
0.0
370
    70
100
AcDbVertex
100
AcDb2dVertex
 10
308.5790228921608
 20
104.5762149144391
 30
0.0
  0
VERTEX
  5
CA6
330
CA1
100
AcDbEntity
  8
Section View Lines
  6
LONG_DASH_DOTTED
 48
0.0
370
    70
100
AcDbVertex
100
AcDb2dVertex
 10
308.8398623544411
 20
106.5591324020604
 30
0.0
  0
SEQEND
  5
CA4
330
CA1
100
AcDbEntity
  8
Section View Lines
  6
LONG_DASH_DOTTED
 48
0.0
370
    70
  0
SOLID
  5
CA7
330
C8F
100
AcDbEntity
  8
0
100
AcDbTrace
 10
308.8398623544411
 20
106.5591324020604
 30
0.0
 11
303.7521481591896
 21
106.2197785724381
 31
0.0
 12
308.5790228921608
 22
104.5762149144391
 32
0.0
 13
308.8398623544411
 23
106.5591324020604
 33
0.0
  0
LINE
  5
CA8
330
C8F
100
AcDbEntity
  8
Section View Lines
  6
LONG_DASH_DOTTED
 48
16.99096870422363
370
    70
100
AcDbLine
 10
308.8398631929569
 20
106.5591322925733
 30
0.0
 11
303.7521486762098
 21
106.2197785006675
 31
0.0
  0
LINE
  5
CA9
330
C8F
100
AcDbEntity
  8
Section View Lines
  6
LONG_DASH_DOTTED
 48
16.99096870422363
370
    70
100
AcDbLine
 10
303.7521486762098
 20
106.2197785006675
 30
0.0
 11
308.5790212270171
 21
104.5762148790624
 31
0.0
  0
LINE
  5
CAA
330
C8F
100
AcDbEntity
  8
Section View Lines
  6
LONG_DASH_DOTTED
 48
6.664345264434814
370
    70
100
AcDbLine
 10
308.5790212270171
 20
104.5762148790624
 30
0.0
 11
308.8398631929569
 21
106.5591322925733
 31
0.0
  0
LINE
  5
CAB
330
C8F
100
AcDbEntity
  8
Section View Lines
  6
LONG_DASH_DOTTED
 48
18.12821197509765
370
    70
100
AcDbLine
 10
314.1032814656646
 20
104.8581434632681
 30
0.0
 11
308.709442209987
 21
105.5676735858178
 31
0.0
  0
MTEXT
  5
CAC
330
C8F
100
AcDbEntity
  8
Section View Lines
  6
LONG_DASH_DOTTED
 48
0.0
370
    70
100
AcDbMText
 10
313.9440568263409
 20
109.6745636213094
 30
0.0
 40
5.24999976158142
 41
0.0
 71
     7
 72
     1
  1
B
  7
Text Style12
 73
     1
 44
1.0
1001
ACAD
1000
MTEXTBEGIN
1070
    73
1070
     1
1070
    44
1040
1.0
1070
    74
1070
     0
1000
MTEXTEND
  0
MTEXT
  5
CAD
330
C8F
100
AcDbEntity
  8
Section View Lines
  6
LONG_DASH_DOTTED
 48
0.0
370
    70
100
AcDbMText
 10
311.6306654359346
 20
96.32791934042206
 30
0.0
 40
5.24999976158142
 41
0.0
 71
     7
 72
     1
  1
B
  7
Text Style12
 73
     1
 44
1.0
1001
ACAD
1000
MTEXTBEGIN
1070
    73
1070
     1
1070
    44
1040
1.0
1070
    74
1070
     0
1000
MTEXTEND
  0
ENDBLK
  5
C91
330
C8F
100
AcDbEntity
  8
0
100
AcDbBlockEnd
  0
BLOCK
  5
CC4
330
CB9
100
AcDbEntity
  8
0
100
AcDbBlockBegin
  2
*D24
 70
     1
 10
0.0
 20
0.0
 30
0.0
  3
*D24
  1

  0
LINE
  5
D54
330
CB9
100
AcDbEntity
  8
Dimensions
  6
Continuous
 62
   250
370
    25
100
AcDbLine
 10
3491.166686831659
 20
972.2647879941698
 30
0.0
 11
3859.741461067989
 21
923.7807875751011
 31
0.0
  0
LINE
  5
D55
330
CB9
100
AcDbEntity
  8
Dimensions
  6
Continuous
 62
   250
370
    25
100
AcDbLine
 10
3500.948260554403
 20
1046.624191000827
 30
0.0
 11
3869.523034790733
 21
998.1401905817586
 31
0.0
  0
LINE
  5
D56
330
CB9
100
AcDbEntity
  8
Dimensions
  6
Continuous
 62
   250
370
    25
100
AcDbLine
 10
3831.523171702752
 20
952.7081214532822
 30
0.0
 11
3834.783696277
 21
977.494589122168
 31
0.0
  0
LINE
  5
D57
330
CB9
100
AcDbEntity
  8
Dimensions
  6
Continuous
 62
   250
370
    25
100
AcDbLine
 10
3838.044220851248
 20
1002.281056791054
 30
0.0
 11
3858.677322113122
 21
1159.133638542946
 31
0.0
  0
SOLID
  5
D58
330
CB9
100
AcDbEntity
  8
Dimensions
  6
Continuous
 62
   250
100
AcDbTrace
 10
3827.392093757938
 20
953.2515422156569
 30
0.0
 11
3835.654249647566
 21
952.1647006909075
 31
0.0
 12
3828.262647128504
 22
927.9216537843963
 32
0.0
 13
3828.262647128504
 23
927.9216537843963
 33
0.0
  0
SOLID
  5
D59
330
CB9
100
AcDbEntity
  8
Dimensions
  6
Continuous
 62
   250
100
AcDbTrace
 10
3830.652618332186
 20
978.0380098845427
 30
0.0
 11
3838.914774221815
 21
976.9511683597931
 31
0.0
 12
3838.044220851248
 22
1002.281056791054
 32
0.0
 13
3838.044220851248
 23
1002.281056791054
 33
0.0
  0
MTEXT
  5
D5A
330
CB9
100
AcDbEntity
  8
Dimensions
  6
Continuous
 62
    18
370
    25
100
AcDbMText
 10
3793.036094692209
 20
1041.102647436271
 30
0.0
 40
35.0
 41
0.0
 71
     1
 72
     1
  1
\A1;30,00
  7
Text Style9
 11
0.1304209829699236
 21
0.9914587067554347
 31
0.0
 73
     1
 44
1.0
1001
ACAD
1000
MTEXTBEGIN
1070
    73
1070
     1
1070
    44
1040
1.0
1070
    74
1070
     0
1000
MTEXTEND
  0
POINT
  5
D5B
330
CB9
100
AcDbEntity
  8
Defpoints
  6
Continuous
 62
     0
100
AcDbPoint
 10
3491.166686831659
 20
972.2647879941698
 30
0.0
  0
POINT
  5
D5C
330
CB9
100
AcDbEntity
  8
Defpoints
  6
Continuous
 62
     0
100
AcDbPoint
 10
3500.948260554403
 20
1046.624191000827
 30
0.0
  0
POINT
  5
D5D
330
CB9
100
AcDbEntity
  8
Defpoints
  6
Continuous
 62
     0
100
AcDbPoint
 10
3838.044220851248
 20
1002.281056791054
 30
0.0
  0
ENDBLK
  5
CC5
330
CB9
100
AcDbEntity
  8
0
100
AcDbBlockEnd
  0
BLOCK
  5
D6A
330
D5F
100
AcDbEntity
  8
0
100
AcDbBlockBegin
  2
*D25
 70
     1
 10
0.0
 20
0.0
 30
0.0
  3
*D25
  1

  0
LINE
  5
DF8
330
D5F
100
AcDbEntity
  8
Dimensions
  6
Continuous
 62
   250
370
    25
100
AcDbLine
 10
3491.166686831659
 20
972.2647879941701
 30
0.0
 11
3464.474876054469
 21
769.353971103477
 31
0.0
  0
LINE
  5
DF9
330
D5F
100
AcDbEntity
  8
Dimensions
  6
Continuous
 62
   250
370
    25
100
AcDbLine
 10
3392.020816156116
 20
985.3068862911618
 30
0.0
 11
3365.329005378927
 21
782.396069400469
 31
0.0
  0
LINE
  5
DFA
330
D5F
100
AcDbEntity
  8
Dimensions
  6
Continuous
 62
   250
370
    25
100
AcDbLine
 10
3394.256339257108
 20
810.614358765706
 30
0.0
 11
3443.829274594878
 21
804.09330961721
 31
0.0
  0
LINE
  5
DFB
330
D5F
100
AcDbEntity
  8
Dimensions
  6
Continuous
 62
   250
370
    25
100
AcDbLine
 10
3468.615742263764
 20
800.8327850429621
 30
0.0
 11
3626.888558179498
 21
780.0128597263558
 31
0.0
  0
SOLID
  5
DFC
330
D5F
100
AcDbEntity
  8
Dimensions
  6
Continuous
 62
   250
100
AcDbTrace
 10
3394.799760019482
 20
814.7454367105204
 30
0.0
 11
3393.712918494732
 21
806.4832808208915
 31
0.0
 12
3369.469871588221
 22
813.8748833399541
 32
0.0
 13
3369.469871588221
 23
813.8748833399541
 33
0.0
  0
SOLID
  5
DFD
330
D5F
100
AcDbEntity
  8
Dimensions
  6
Continuous
 62
   250
100
AcDbTrace
 10
3444.372695357252
 20
808.2243875620244
 30
0.0
 11
3443.285853832503
 21
799.9622316723957
 31
0.0
 12
3468.615742263764
 22
800.8327850429621
 32
0.0
 13
3468.615742263764
 23
800.8327850429621
 33
0.0
  0
MTEXT
  5
DFE
330
D5F
100
AcDbEntity
  8
Dimensions
  6
Continuous
 62
    18
370
    25
100
AcDbMText
 10
3507.437332908983
 20
845.8409112020003
 30
0.0
 40
35.0
 41
0.0
 71
     1
 72
     1
  1
\A1;40,00
  7
Text Style9
 11
0.991458706755435
 21
-0.13042098296992
 31
0.0
 73
     1
 44
1.0
1001
ACAD
1000
MTEXTBEGIN
1070
    73
1070
     1
1070
    44
1040
1.0
1070
    74
1070
     0
1000
MTEXTEND
  0
POINT
  5
DFF
330
D5F
100
AcDbEntity
  8
Defpoints
  6
Continuous
 62
     0
100
AcDbPoint
 10
3491.166686831659
 20
972.2647879941701
 30
0.0
  0
POINT
  5
E00
330
D5F
100
AcDbEntity
  8
Defpoints
  6
Continuous
 62
     0
100
AcDbPoint
 10
3392.020816156116
 20
985.3068862911618
 30
0.0
  0
POINT
  5
E01
330
D5F
100
AcDbEntity
  8
Defpoints
  6
Continuous
 62
     0
100
AcDbPoint
 10
3369.469871588221
 20
813.8748833399541
 30
0.0
  0
ENDBLK
  5
D6B
330
D5F
100
AcDbEntity
  8
0
100
AcDbBlockEnd
  0
BLOCK
  5
E0E
330
E03
100
AcDbEntity
  8
0
100
AcDbBlockBegin
  2
*D26
 70
     1
 10
0.0
 20
0.0
 30
0.0
  3
*D26
  1

  0
LINE
  5
E9C
330
E03
100
AcDbEntity
  8
Dimensions
  6
Continuous
 62
   250
370
    25
100
AcDbLine
 10
3493.512320253736
 20
1047.602348373097
 30
0.0
 11
3499.415059821759
 21
1092.47490189292
 31
0.0
  0
LINE
  5
E9D
330
E03
100
AcDbEntity
  8
Dimensions
  6
Continuous
 62
   250
370
    25
100
AcDbLine
 10
3500.948260554403
 20
1046.624191000827
 30
0.0
 11
3506.851000122425
 21
1091.496744520646
 31
0.0
  0
LINE
  5
E9E
330
E03
100
AcDbEntity
  8
Dimensions
  6
Continuous
 62
   250
370
    25
100
AcDbLine
 10
3470.487725943578
 20
1064.256612527683
 30
0.0
 11
3445.701258274693
 21
1067.517137101931
 31
0.0
  0
LINE
  5
E9F
330
E03
100
AcDbEntity
  8
Dimensions
  6
Continuous
 62
   250
370
    25
100
AcDbLine
 10
3527.496601582016
 20
1056.757406006912
 30
0.0
 11
3737.32736501313
 21
1029.155314021081
 31
0.0
  0
SOLID
  5
EA0
330
E03
100
AcDbEntity
  8
Dimensions
  6
Continuous
 62
   250
100
AcDbTrace
 10
3471.031146705953
 20
1068.387690472498
 30
0.0
 11
3469.944305181203
 21
1060.125534582869
 31
0.0
 12
3495.274193612464
 22
1060.996087953435
 32
0.0
 13
3495.274193612464
 23
1060.996087953435
 33
0.0
  0
SOLID
  5
EA1
330
E03
100
AcDbEntity
  8
Dimensions
  6
Continuous
 62
   250
100
AcDbTrace
 10
3528.040022344391
 20
1060.888483951726
 30
0.0
 11
3526.953180819642
 21
1052.626328062098
 31
0.0
 12
3502.71013391313
 22
1060.01793058116
 32
0.0
 13
3502.71013391313
 23
1060.01793058116
 33
0.0
  0
MTEXT
  5
EA2
330
E03
100
AcDbEntity
  8
Dimensions
  6
Continuous
 62
    18
370
    25
100
AcDbMText
 10
3646.25715244998
 20
1091.249998136335
 30
0.0
 40
35.0
 41
0.0
 71
     1
 72
     1
  1
\A1;3,00
  7
Text Style9
 11
0.9914587067554339
 21
-0.1304209829699288
 31
0.0
 73
     1
 44
1.0
1001
ACAD
1000
MTEXTBEGIN
1070
    73
1070
     1
1070
    44
1040
1.0
1070
    74
1070
     0
1000
MTEXTEND
  0
POINT
  5
EA3
330
E03
100
AcDbEntity
  8
Defpoints
  6
Continuous
 62
     0
100
AcDbPoint
 10
3493.512320253736
 20
1047.602348373097
 30
0.0
  0
POINT
  5
EA4
330
E03
100
AcDbEntity
  8
Defpoints
  6
Continuous
 62
     0
100
AcDbPoint
 10
3500.948260554403
 20
1046.624191000827
 30
0.0
  0
POINT
  5
EA5
330
E03
100
AcDbEntity
  8
Defpoints
  6
Continuous
 62
     0
100
AcDbPoint
 10
3502.71013391313
 20
1060.01793058116
 30
0.0
  0
ENDBLK
  5
E0F
330
E03
100
AcDbEntity
  8
0
100
AcDbBlockEnd
  0
BLOCK
  5
EBB
330
EB0
100
AcDbEntity
  8
0
100
AcDbBlockBegin
  2
*D27
 70
     1
 10
0.0
 20
0.0
 30
0.0
  3
*D27
  1

  0
LINE
  5
FB7
330
EB0
100
AcDbEntity
  8
Dimensions
  6
Continuous
 62
   250
370
    25
100
AcDbLine
 10
2516.737904995202
 20
2143.6472061023
 30
0.0
 11
2535.013120006354
 21
2026.74871972211
 31
0.0
  0
LINE
  5
FB8
330
EB0
100
AcDbEntity
  8
Dimensions
  6
Continuous
 62
   250
370
    25
100
AcDbLine
 10
2357.784911079461
 20
2187.761107367373
 30
0.0
 11
2404.936775092793
 21
2000.28124531787
 31
0.0
  0
ARC
  5
FB9
330
EB0
100
AcDbEntity
  8
Dimensions
  6
Continuous
 62
   250
370
    25
100
AcDbCircle
 10
2759.623034376625
 20
590.0182079417517
 30
0.0
 40
1485.931617650997
100
AcDbArc
 50
96.95739653689223
 51
97.92137857038527
  0
ARC
  5
FBA
330
EB0
100
AcDbEntity
  8
Dimensions
  6
Continuous
 62
   250
370
    25
100
AcDbCircle
 10
2759.623034376625
 20
590.0182079417517
 30
0.0
 40
1485.931617650997
100
AcDbArc
 50
105.0812801490211
 51
106.0452621825141
  0
SOLID
  5
FBB
330
EB0
100
AcDbEntity
  8
Dimensions
  6
Continuous
 62
   250
100
AcDbTrace
 10
2555.449595233633
 20
2057.649297439007
 30
0.0
 11
2554.231751835289
 21
2065.893161939444
 31
0.0
 12
2530.109080033152
 22
2058.117699494191
 32
0.0
 13
2530.109080033152
 23
2058.117699494191
 33
0.0
  0
SOLID
  5
FBC
330
EB0
100
AcDbEntity
  8
Dimensions
  6
Continuous
 62
   250
100
AcDbTrace
 10
2371.949655591627
 20
2028.803045978033
 30
0.0
 11
2374.050133523903
 21
2020.738776829469
 31
0.0
 12
2397.192702003454
 22
2031.072345200579
 32
0.0
 13
2397.192702003454
 23
2031.072345200579
 33
0.0
  0
MTEXT
  5
FBD
330
EB0
100
AcDbEntity
  8
Dimensions
  6
Continuous
 62
    18
370
    25
100
AcDbMText
 10
2241.922152676316
 20
2036.836957421568
 30
0.0
 40
35.0
 41
0.0
 71
     1
 72
     1
  1
\A1;5,23°
  7
Text Style9
 11
0.953259671546756
 21
0.3021522771758817
 31
0.0
 73
     1
 44
1.0
1001
ACAD
1000
MTEXTBEGIN
1070
    73
1070
     1
1070
    44
1040
1.0
1070
    74
1070
     0
1000
MTEXTEND
  0
POINT
  5
FBE
330
EB0
100
AcDbEntity
  8
Defpoints
  6
Continuous
 62
     0
100
AcDbPoint
 10
2759.623034376625
 20
590.0182079417517
 30
0.0
  0
POINT
  5
FBF
330
EB0
100
AcDbEntity
  8
Defpoints
  6
Continuous
 62
     0
100
AcDbPoint
 10
2516.737904995202
 20
2143.6472061023
 30
0.0
  0
POINT
  5
FC0
330
EB0
100
AcDbEntity
  8
Defpoints
  6
Continuous
 62
     0
100
AcDbPoint
 10
2357.784911079461
 20
2187.761107367373
 30
0.0
  0
POINT
  5
FC1
330
EB0
100
AcDbEntity
  8
Defpoints
  6
Continuous
 62
     0
100
AcDbPoint
 10
2485.536017493486
 20
2050.452759543093
 30
0.0
  0
ENDBLK
  5
EBC
330
EB0
100
AcDbEntity
  8
0
100
AcDbBlockEnd
  0
BLOCK
  5
FC9
330
FC3
100
AcDbEntity
  8
0
100
AcDbBlockBegin
  2
*D28
 70
     1
 10
0.0
 20
0.0
 30
0.0
  3
*D28
  1

  0
LINE
  5
102D
330
FC3
100
AcDbEntity
  8
Dimensions
  6
Continuous
 62
   250
370
    25
100
AcDbLine
 10
2706.852953174893
 20
1899.957765152643
 30
0.0
 11
2696.830357680019
 21
2148.75393915255
 31
0.0
  0
MTEXT
  5
102E
330
FC3
100
AcDbEntity
  8
Dimensions
  6
Continuous
 62
    18
370
    25
100
AcDbMText
 10
2749.000773423779
 20
2088.103437104797
 30
0.0
 40
35.0
 41
0.0
 71
     1
 72
     1
  1
\A1;R634,00
  7
Text Style9
 11
0.0402517158311651
 21
-0.9991895712889757
 31
0.0
 73
     1
 44
1.0
1001
ACAD
1000
MTEXTBEGIN
1070
    73
1070
     1
1070
    44
1040
1.0
1070
    74
1070
     0
1000
MTEXTEND
  0
SOLID
  5
102F
330
FC3
100
AcDbEntity
  8
Dimensions
  6
Continuous
 62
   250
100
AcDbTrace
 10
2700.99364756039
 20
2148.92165463518
 30
0.0
 11
2692.667067799648
 21
2148.58622366992
 31
0.0
 12
2695.82406478424
 22
2173.733678434774
 32
0.0
 13
2695.82406478424
 23
2173.733678434774
 33
0.0
  0
POINT
  5
1030
330
FC3
100
AcDbEntity
  8
Defpoints
  6
Continuous
 62
     0
100
AcDbPoint
 10
2695.82406478424
 20
2173.733678434774
 30
0.0
  0
POINT
  5
1031
330
FC3
100
AcDbEntity
  8
Defpoints
  6
Continuous
 62
     0
100
AcDbPoint
 10
2759.623034376636
 20
590.0182079417452
 30
0.0
  0
ENDBLK
  5
FCA
330
FC3
100
AcDbEntity
  8
0
100
AcDbBlockEnd
  0
BLOCK
  5
1042
330
1037
100
AcDbEntity
  8
0
100
AcDbBlockBegin
  2
*D29
 70
     1
 10
0.0
 20
0.0
 30
0.0
  3
*D29
  1

  0
LINE
  5
113E
330
1037
100
AcDbEntity
  8
Dimensions
  6
Continuous
 62
   250
370
    25
100
AcDbLine
 10
2584.006469884263
 20
1014.620971757201
 30
0.0
 11
2603.197870409316
 21
891.8620509168331
 31
0.0
  0
LINE
  5
113F
330
1037
100
AcDbEntity
  8
Dimensions
  6
Continuous
 62
   250
370
    25
100
AcDbLine
 10
2425.053475968522
 20
1058.734873022274
 30
0.0
 11
2473.652107875633
 21
865.5025375378512
 31
0.0
  0
ARC
  5
1140
330
1037
100
AcDbEntity
  8
Dimensions
  6
Continuous
 62
   250
370
    25
100
AcDbCircle
 10
2826.891599265689
 20
-539.0080264033723
 30
0.0
 40
1480.0
100
AcDbArc
 50
96.94966936318579
 51
97.91751498353207
  0
ARC
  5
1141
330
1037
100
AcDbEntity
  8
Dimensions
  6
Continuous
 62
   250
370
    25
100
AcDbCircle
 10
2826.891599265689
 20
-539.0080264033723
 30
0.0
 40
1480.0
100
AcDbArc
 50
105.0851437358743
 51
106.0529893562206
  0
SOLID
  5
1142
330
1037
100
AcDbEntity
  8
Dimensions
  6
Continuous
 62
   250
100
AcDbTrace
 10
2623.634329829475
 20
922.7617742492386
 30
0.0
 11
2622.416764383242
 21
931.005679805987
 31
0.0
 12
2598.293830436114
 22
923.2310306889143
 32
0.0
 13
2598.293830436114
 23
923.2310306889143
 33
0.0
  0
SOLID
  5
1143
330
1037
100
AcDbEntity
  8
Dimensions
  6
Continuous
 62
   250
100
AcDbTrace
 10
2440.665064900862
 20
894.0234871008199
 30
0.0
 11
2442.765814728098
 21
885.9592887768814
 31
0.0
 12
2465.908034786295
 22
896.2936374205607
 32
0.0
 13
2465.908034786295
 23
896.2936374205607
 33
0.0
  0
MTEXT
  5
1144
330
1037
100
AcDbEntity
  8
Dimensions
  6
Continuous
 62
    18
370
    25
100
AcDbMText
 10
2310.633050913878
 20
902.0310393066507
 30
0.0
 40
35.0
 41
0.0
 71
     1
 72
     1
  1
\A1;5,23°
  7
Text Style9
 11
0.9531862769038319
 21
0.3023837322380476
 31
0.0
 73
     1
 44
1.0
1001
ACAD
1000
MTEXTBEGIN
1070
    73
1070
     1
1070
    44
1040
1.0
1070
    74
1070
     0
1000
MTEXTEND
  0
POINT
  5
1145
330
1037
100
AcDbEntity
  8
Defpoints
  6
Continuous
 62
     0
100
AcDbPoint
 10
2826.891599265689
 20
-539.0080264033723
 30
0.0
  0
POINT
  5
1146
330
1037
100
AcDbEntity
  8
Defpoints
  6
Continuous
 62
     0
100
AcDbPoint
 10
2584.006469884263
 20
1014.620971757201
 30
0.0
  0
POINT
  5
1147
330
1037
100
AcDbEntity
  8
Defpoints
  6
Continuous
 62
     0
100
AcDbPoint
 10
2425.053475968522
 20
1058.734873022274
 30
0.0
  0
POINT
  5
1148
330
1037
100
AcDbEntity
  8
Defpoints
  6
Continuous
 62
     0
100
AcDbPoint
 10
2553.898696921834
 20
915.5966880362166
 30
0.0
  0
ENDBLK
  5
1043
330
1037
100
AcDbEntity
  8
0
100
AcDbBlockEnd
  0
BLOCK
  5
1150
330
114A
100
AcDbEntity
  8
0
100
AcDbBlockBegin
  2
*D30
 70
     1
 10
0.0
 20
0.0
 30
0.0
  3
*D30
  1

  0
LINE
  5
11B4
330
114A
100
AcDbEntity
  8
Dimensions
  6
Continuous
 62
   250
370
    25
100
AcDbLine
 10
2721.987047695689
 20
797.9659934665654
 30
0.0
 11
2704.862567261119
 21
1016.211866521125
 31
0.0
  0
MTEXT
  5
11B5
330
114A
100
AcDbEntity
  8
Dimensions
  6
Continuous
 62
    18
370
    25
100
AcDbMText
 10
2756.948825166849
 20
987.5785108332133
 30
0.0
 40
35.0
 41
0.0
 71
     1
 72
     1
  1
\A1;R634,00
  7
Text Style9
 11
0.0782237384644684
 21
-0.9969358287977428
 31
0.0
 73
     1
 44
1.0
1001
ACAD
1000
MTEXTBEGIN
1070
    73
1070
     1
1070
    44
1040
1.0
1070
    74
1070
     0
1000
MTEXTEND
  0
SOLID
  5
11B6
330
114A
100
AcDbEntity
  8
Dimensions
  6
Continuous
 62
   250
100
AcDbTrace
 10
2709.016466547776
 20
1016.537798764727
 30
0.0
 11
2700.708667974462
 21
1015.885934277523
 31
0.0
 12
2702.906973799507
 22
1041.135262241069
 32
0.0
 13
2702.906973799507
 23
1041.135262241069
 33
0.0
  0
POINT
  5
11B7
330
114A
100
AcDbEntity
  8
Defpoints
  6
Continuous
 62
     0
100
AcDbPoint
 10
2702.906973799507
 20
1041.135262241069
 30
0.0
  0
POINT
  5
11B8
330
114A
100
AcDbEntity
  8
Defpoints
  6
Continuous
 62
     0
100
AcDbPoint
 10
2826.891599265691
 20
-539.0080264033546
 30
0.0
  0
ENDBLK
  5
1151
330
114A
100
AcDbEntity
  8
0
100
AcDbBlockEnd
  0
BLOCK
  5
11BA
330
11B9
100
AcDbEntity
  8
0
100
AcDbBlockBegin
  2
2dTransSymbol2
 70
     0
 10
0.0
 20
0.0
 30
0.0
  3
2dTransSymbol2
  1

  0
MTEXT
  5
11BC
330
11B9
100
AcDbEntity
  8
Dimensions
  6
Continuous
 48
0.0
370
    50
100
AcDbMText
 10
298.4978108175777
 20
228.0613902324903
 30
0.0
 40
3.499999940395355
 41
0.0
 71
     7
 72
     1
  1
\fAIGDT|b0|i0|p0;n
  7
Text Style11
 11
0.5691416304506789
 21
0.8222395055505074
 31
0.0
 73
     1
 44
1.0
1001
ACAD
1000
MTEXTBEGIN
1070
    73
1070
     1
1070
    44
1040
1.0
1070
    74
1070
     0
1000
MTEXTEND
  0
MTEXT
  5
11BF
330
11B9
100
AcDbEntity
  8
Dimensions
  6
Continuous
 48
0.0
370
    50
100
AcDbMText
 10
300.7301535313141
 20
231.2864580731761
 30
0.0
 40
3.499999940395355
 41
0.0
 71
     7
 72
     1
  1
10,00 THRU
  7
Text Style9
 11
0.5691416304506789
 21
0.8222395055505074
 31
0.0
 73
     1
 44
1.0
1001
ACAD
1000
MTEXTBEGIN
1070
    73
1070
     1
1070
    44
1040
1.0
1070
    74
1070
     0
1000
MTEXTEND
  0
LINE
  5
11C0
330
11B9
100
AcDbEntity
  8
Dimensions
  6
Continuous
 48
0.0
370
    25
100
AcDbLine
 10
297.1887862490799
 20
221.9491855939925
 30
0.0
 11
295.7659321729532
 21
219.8935868301163
 31
0.0
  0
POLYLINE
  5
11C1
330
11B9
100
AcDbEntity
  8
Dimensions
  6
Continuous
 48
0.0
370
    25
100
AcDb2dPolyline
 66
     1
 10
0.0
 20
0.0
 30
0.0
  0
VERTEX
  5
11C2
330
11C1
100
AcDbEntity
  8
Dimensions
  6
Continuous
 48
0.0
370
    25
100
AcDbVertex
100
AcDb2dVertex
 10
296.7776679992676
 20
222.2337532043457
 30
0.0
  0
VERTEX
  5
11C3
330
11C1
100
AcDbEntity
  8
Dimensions
  6
Continuous
 48
0.0
370
    25
100
AcDbVertex
100
AcDb2dVertex
 10
295.7659339904785
 20
219.8935890197754
 30
0.0
  0
VERTEX
  5
11C5
330
11C1
100
AcDbEntity
  8
Dimensions
  6
Continuous
 48
0.0
370
    25
100
AcDbVertex
100
AcDb2dVertex
 10
297.5999069213867
 20
221.6646194458008
 30
0.0
  0
VERTEX
  5
11C6
330
11C1
100
AcDbEntity
  8
Dimensions
  6
Continuous
 48
0.0
370
    25
100
AcDbVertex
100
AcDb2dVertex
 10
296.7776679992676
 20
222.2337532043457
 30
0.0
  0
SEQEND
  5
11C4
330
11C1
100
AcDbEntity
  8
Dimensions
  6
Continuous
 48
0.0
370
    25
  0
SOLID
  5
11C7
330
11B9
100
AcDbEntity
  8
0
 62
    18
100
AcDbTrace
 10
296.7776679992676
 20
222.2337532043457
 30
0.0
 11
295.7659339904785
 21
219.8935890197754
 31
0.0
 12
297.5999069213867
 22
221.6646194458008
 32
0.0
 13
296.7776679992676
 23
222.2337532043457
 33
0.0
  0
LINE
  5
11C8
330
11B9
100
AcDbEntity
  8
Dimensions
  6
Continuous
 48
0.0
370
    25
100
AcDbLine
 10
296.7776664963046
 20
222.2337564092178
 30
0.0
 11
295.7659321729532
 21
219.8935868301163
 31
0.0
  0
LINE
  5
11C9
330
11B9
100
AcDbEntity
  8
Dimensions
  6
Continuous
 48
0.0
370
    25
100
AcDbLine
 10
295.7659321729532
 20
219.8935868301163
 30
0.0
 11
297.5999060018551
 21
221.6646147787671
 31
0.0
  0
LINE
  5
11CA
330
11B9
100
AcDbEntity
  8
Dimensions
  6
Continuous
 48
0.0
370
    25
100
AcDbLine
 10
297.5999060018551
 20
221.6646147787671
 30
0.0
 11
296.7776664963046
 21
222.2337564092178
 31
0.0
  0
LINE
  5
11CB
330
11B9
100
AcDbEntity
  8
Dimensions
  6
Continuous
 48
0.0
370
    25
100
AcDbLine
 10
295.7659321729532
 20
219.8935868301163
 30
0.0
 11
309.3219606159339
 21
239.4779952230829
 31
0.0
  0
LINE
  5
11CC
330
11B9
100
AcDbEntity
  8
Dimensions
  6
Continuous
 48
0.0
370
    25
100
AcDbLine
 10
309.3219606159339
 20
239.4779952230829
 30
0.0
 11
318.6044659092218
 21
252.88844027624
 31
0.0
  0
ENDBLK
  5
11BB
330
11B9
100
AcDbEntity
  8
0
100
AcDbBlockEnd
  0
BLOCK
  5
11CF
330
11CE
100
AcDbEntity
  8
0
100
AcDbBlockBegin
  2
2dTransSymbol3
 70
     0
 10
0.0
 20
0.0
 30
0.0
  3
2dTransSymbol3
  1

  0
MTEXT
  5
11D1
330
11CE
100
AcDbEntity
  8
Dimensions
  6
Continuous
 48
0.0
370
    50
100
AcDbMText
 10
291.78714342303
 20
117.5377724166633
 30
0.0
 40
3.499999940395355
 41
0.0
 71
     7
 72
     1
  1
\fAIGDT|b0|i0|p0;n
  7
Text Style11
 11
0.5880179746980098
 21
0.8088478604979126
 31
0.0
 73
     1
 44
1.0
1001
ACAD
1000
MTEXTBEGIN
1070
    73
1070
     1
1070
    44
1040
1.0
1070
    74
1070
     0
1000
MTEXTEND
  0
MTEXT
  5
11D2
330
11CE
100
AcDbEntity
  8
Dimensions
  6
Continuous
 48
0.0
370
    50
100
AcDbMText
 10
294.0935247719461
 20
120.7103142433331
 30
0.0
 40
3.499999940395355
 41
0.0
 71
     7
 72
     1
  1
10,00 THRU
  7
Text Style9
 11
0.5880179746980098
 21
0.8088478604979126
 31
0.0
 73
     1
 44
1.0
1001
ACAD
1000
MTEXTBEGIN
1070
    73
1070
     1
1070
    44
1040
1.0
1070
    74
1070
     0
1000
MTEXTEND
  0
LINE
  5
11D3
330
11CE
100
AcDbEntity
  8
Dimensions
  6
Continuous
 48
0.0
370
    25
100
AcDbLine
 10
289.3292603366872
 20
110.0712797849629
 30
0.0
 11
287.8592153999422
 21
108.0491601337181
 31
0.0
  0
POLYLINE
  5
11D4
330
11CE
100
AcDbEntity
  8
Dimensions
  6
Continuous
 48
0.0
370
    25
100
AcDb2dPolyline
 66
     1
 10
0.0
 20
0.0
 30
0.0
  0
VERTEX
  5
11D5
330
11D4
100
AcDbEntity
  8
Dimensions
  6
Continuous
 48
0.0
370
    25
100
AcDbVertex
100
AcDb2dVertex
 10
288.9248275756836
 20
110.3652858734131
 30
0.0
  0
VERTEX
  5
11D6
330
11D4
100
AcDbEntity
  8
Dimensions
  6
Continuous
 48
0.0
370
    25
100
AcDbVertex
100
AcDb2dVertex
 10
287.8592109680176
 20
108.0491638183594
 30
0.0
  0
VERTEX
  5
11D8
330
11D4
100
AcDbEntity
  8
Dimensions
  6
Continuous
 48
0.0
370
    25
100
AcDbVertex
100
AcDb2dVertex
 10
289.7336769104004
 20
109.7772693634033
 30
0.0
  0
VERTEX
  5
11D9
330
11D4
100
AcDbEntity
  8
Dimensions
  6
Continuous
 48
0.0
370
    25
100
AcDbVertex
100
AcDb2dVertex
 10
288.9248275756836
 20
110.3652858734131
 30
0.0
  0
SEQEND
  5
11D7
330
11D4
100
AcDbEntity
  8
Dimensions
  6
Continuous
 48
0.0
370
    25
  0
SOLID
  5
11DA
330
11CE
100
AcDbEntity
  8
0
 62
    18
100
AcDbTrace
 10
288.9248275756836
 20
110.3652858734131
 30
0.0
 11
287.8592109680176
 21
108.0491638183594
 31
0.0
 12
289.7336769104004
 22
109.7772693634033
 32
0.0
 13
288.9248275756836
 23
110.3652858734131
 33
0.0
  0
LINE
  5
11DB
330
11CE
100
AcDbEntity
  8
Dimensions
  6
Continuous
 48
0.0
370
    25
100
AcDbLine
 10
288.9248364064382
 20
110.3652887723119
 30
0.0
 11
287.8592153999422
 21
108.0491601337181
 31
0.0
  0
LINE
  5
11DC
330
11CE
100
AcDbEntity
  8
Dimensions
  6
Continuous
 48
0.0
370
    25
100
AcDbLine
 10
287.8592153999422
 20
108.0491601337181
 30
0.0
 11
289.7336842669361
 21
109.7772707976139
 31
0.0
  0
LINE
  5
11DD
330
11CE
100
AcDbEntity
  8
Dimensions
  6
Continuous
 48
0.0
370
    25
100
AcDbLine
 10
289.7336842669361
 20
109.7772707976139
 30
0.0
 11
288.9248364064382
 21
110.3652887723119
 31
0.0
  0
LINE
  5
11DE
330
11CE
100
AcDbEntity
  8
Dimensions
  6
Continuous
 48
0.0
370
    25
100
AcDbLine
 10
287.8592153999422
 20
108.0491601337181
 30
0.0
 11
302.8726043654685
 21
128.700820569482
 31
0.0
  0
LINE
  5
11DF
330
11CE
100
AcDbEntity
  8
Dimensions
  6
Continuous
 48
0.0
370
    25
100
AcDbLine
 10
302.8726043654685
 20
128.700820569482
 30
0.0
 11
312.4629763759653
 21
141.8928524730192
 31
0.0
  0
ENDBLK
  5
11D0
330
11CE
100
AcDbEntity
  8
0
100
AcDbBlockEnd
  0
BLOCK
  5
11E8
330
11E2
100
AcDbEntity
  8
0
100
AcDbBlockBegin
  2
*D33
 70
     1
 10
0.0
 20
0.0
 30
0.0
  3
*D33
  1

  0
LINE
  5
124C
330
11E2
100
AcDbEntity
  8
Dimensions
  6
Continuous
 62
   250
370
    25
100
AcDbLine
 10
2257.629218318234
 20
698.4777570822171
 30
0.0
 11
2164.493039169105
 21
900.9409822709049
 31
0.0
  0
MTEXT
  5
124D
330
11E2
100
AcDbEntity
  8
Dimensions
  6
Continuous
 62
    18
370
    25
100
AcDbMText
 10
2224.912424359812
 20
888.490504073418
 30
0.0
 40
35.0
 41
0.0
 71
     1
 72
     1
  1
\A1;R644,00
  7
Text Style9
 11
0.4179170726161358
 21
-0.9084851789742964
 31
0.0
 73
     1
 44
1.0
1001
ACAD
1000
MTEXTBEGIN
1070
    73
1070
     1
1070
    44
1040
1.0
1070
    74
1070
     0
1000
MTEXTEND
  0
SOLID
  5
124E
330
11E2
100
AcDbEntity
  8
Dimensions
  6
Continuous
 62
   250
100
AcDbTrace
 10
2168.278394081498
 20
902.6823034068053
 30
0.0
 11
2160.707684256713
 21
899.1996611350042
 31
0.0
 12
2154.045112353702
 22
923.6531117452623
 32
0.0
 13
2154.045112353702
 23
923.6531117452623
 33
0.0
  0
POINT
  5
124F
330
11E2
100
AcDbEntity
  8
Defpoints
  6
Continuous
 62
     0
100
AcDbPoint
 10
2154.045112353702
 20
923.6531117452623
 30
0.0
  0
POINT
  5
1250
330
11E2
100
AcDbEntity
  8
Defpoints
  6
Continuous
 62
     0
100
AcDbPoint
 10
2826.89159926568
 20
-539.0080264033541
 30
0.0
  0
ENDBLK
  5
11E9
330
11E2
100
AcDbEntity
  8
0
100
AcDbBlockEnd
  0
BLOCK
  5
1258
330
1252
100
AcDbEntity
  8
0
100
AcDbBlockBegin
  2
*D34
 70
     1
 10
0.0
 20
0.0
 30
0.0
  3
*D34
  1

  0
LINE
  5
12BC
330
1252
100
AcDbEntity
  8
Dimensions
  6
Continuous
 62
   250
370
    25
100
AcDbLine
 10
2202.386463327671
 20
1830.57258797572
 30
0.0
 11
2110.176884886785
 21
2035.855231576436
 31
0.0
  0
MTEXT
  5
12BD
330
1252
100
AcDbEntity
  8
Dimensions
  6
Continuous
 62
    18
370
    25
100
AcDbMText
 10
2171.376639645549
 20
2020.871362173727
 30
0.0
 40
35.0
 41
0.0
 71
     1
 72
     1
  1
\A1;R644,00
  7
Text Style9
 11
0.4097452047254546
 21
-0.912200014911475
 31
0.0
 73
     1
 44
1.0
1001
ACAD
1000
MTEXTBEGIN
1070
    73
1070
     1
1070
    44
1040
1.0
1070
    74
1070
     0
1000
MTEXTEND
  0
SOLID
  5
12BE
330
1252
100
AcDbEntity
  8
Dimensions
  6
Continuous
 62
   250
100
AcDbTrace
 10
2113.977718282249
 20
2037.562503262792
 30
0.0
 11
2106.37605149132
 21
2034.14795989008
 31
0.0
 12
2099.933254768648
 22
2058.660231949223
 32
0.0
 13
2099.933254768648
 23
2058.660231949223
 33
0.0
  0
POINT
  5
12BF
330
1252
100
AcDbEntity
  8
Defpoints
  6
Continuous
 62
     0
100
AcDbPoint
 10
2099.933254768648
 20
2058.660231949223
 30
0.0
  0
POINT
  5
12C0
330
1252
100
AcDbEntity
  8
Defpoints
  6
Continuous
 62
     0
100
AcDbPoint
 10
2759.623034376632
 20
590.0182079417446
 30
0.0
  0
ENDBLK
  5
1259
330
1252
100
AcDbEntity
  8
0
100
AcDbBlockEnd
  0
BLOCK
  5
12CF
330
12C4
100
AcDbEntity
  8
0
100
AcDbBlockBegin
  2
*D35
 70
     1
 10
0.0
 20
0.0
 30
0.0
  3
*D35
  1

  0
LINE
  5
1352
330
12C4
100
AcDbEntity
  8
Dimensions
  6
Continuous
 62
   250
370
    25
100
AcDbLine
 10
974.4529894847682
 20
2510.356763132055
 30
0.0
 11
974.4529894847682
 21
2774.267519078878
 31
0.0
  0
LINE
  5
1353
330
12C4
100
AcDbEntity
  8
Dimensions
  6
Continuous
 62
   250
370
    25
100
AcDbLine
 10
1114.452989484768
 20
2510.356763132055
 30
0.0
 11
1114.452989484768
 21
2774.267519078878
 31
0.0
  0
LINE
  5
1354
330
12C4
100
AcDbEntity
  8
Dimensions
  6
Continuous
 62
   250
370
    25
100
AcDbLine
 10
1089.452989484768
 20
2742.517519078878
 30
0.0
 11
999.4529894847682
 21
2742.517519078878
 31
0.0
  0
LINE
  5
1355
330
12C4
100
AcDbEntity
  8
Dimensions
  6
Continuous
 62
   250
370
    25
100
AcDbLine
 10
974.4529894847682
 20
2742.517519078878
 30
0.0
 11
790.7098378227407
 21
2742.517519078878
 31
0.0
  0
SOLID
  5
1356
330
12C4
100
AcDbEntity
  8
Dimensions
  6
Continuous
 62
   250
100
AcDbTrace
 10
1089.452989484768
 20
2746.684185745544
 30
0.0
 11
1089.452989484768
 21
2738.350852412211
 31
0.0
 12
1114.452989484768
 22
2742.517519078878
 32
0.0
 13
1114.452989484768
 23
2742.517519078878
 33
0.0
  0
SOLID
  5
1357
330
12C4
100
AcDbEntity
  8
Dimensions
  6
Continuous
 62
   250
100
AcDbTrace
 10
999.4529894847682
 20
2746.684185745544
 30
0.0
 11
999.4529894847682
 21
2738.350852412211
 31
0.0
 12
974.4529894847682
 22
2742.517519078878
 32
0.0
 13
974.4529894847682
 23
2742.517519078878
 33
0.0
  0
MTEXT
  5
1358
330
12C4
100
AcDbEntity
  8
Dimensions
  6
Continuous
 62
    18
370
    25
100
AcDbMText
 10
798.3298378227408
 20
2792.204367646409
 30
0.0
 40
35.0
 41
0.0
 71
     1
 72
     1
  1
\A1;14,00
  7
Text Style9
 73
     1
 44
1.0
1001
ACAD
1000
MTEXTBEGIN
1070
    73
1070
     1
1070
    44
1040
1.0
1070
    74
1070
     0
1000
MTEXTEND
  0
POINT
  5
1359
330
12C4
100
AcDbEntity
  8
Defpoints
  6
Continuous
 62
     0
100
AcDbPoint
 10
974.4529894847682
 20
2510.356763132055
 30
0.0
  0
POINT
  5
135A
330
12C4
100
AcDbEntity
  8
Defpoints
  6
Continuous
 62
     0
100
AcDbPoint
 10
1114.452989484768
 20
2510.356763132055
 30
0.0
  0
POINT
  5
135B
330
12C4
100
AcDbEntity
  8
Defpoints
  6
Continuous
 62
     0
100
AcDbPoint
 10
1114.452989484768
 20
2742.517519078878
 30
0.0
  0
ENDBLK
  5
12D0
330
12C4
100
AcDbEntity
  8
0
100
AcDbBlockEnd
  0
BLOCK
  5
1368
330
135D
100
AcDbEntity
  8
0
100
AcDbBlockBegin
  2
*D36
 70
     1
 10
0.0
 20
0.0
 30
0.0
  3
*D36
  1

  0
LINE
  5
13EC
330
135D
100
AcDbEntity
  8
Dimensions
  6
Continuous
 62
   250
370
    25
100
AcDbLine
 10
1114.452989484768
 20
2510.356763132055
 30
0.0
 11
1114.452989484768
 21
2774.267519078878
 31
0.0
  0
LINE
  5
13ED
330
135D
100
AcDbEntity
  8
Dimensions
  6
Continuous
 62
   250
370
    25
100
AcDbLine
 10
1194.452989484768
 20
2580.356763132055
 30
0.0
 11
1194.452989484768
 21
2774.267519078878
 31
0.0
  0
LINE
  5
13EE
330
135D
100
AcDbEntity
  8
Dimensions
  6
Continuous
 62
   250
370
    25
100
AcDbLine
 10
1139.452989484768
 20
2742.517519078878
 30
0.0
 11
1169.452989484768
 21
2742.517519078878
 31
0.0
  0
LINE
  5
13EF
330
135D
100
AcDbEntity
  8
Dimensions
  6
Continuous
 62
   250
370
    25
100
AcDbLine
 10
1194.452989484768
 20
2742.517519078878
 30
0.0
 11
1335.654851582519
 21
2742.517519078878
 31
0.0
  0
SOLID
  5
13F0
330
135D
100
AcDbEntity
  8
Dimensions
  6
Continuous
 62
   250
100
AcDbTrace
 10
1139.452989484768
 20
2746.684185745544
 30
0.0
 11
1139.452989484768
 21
2738.350852412211
 31
0.0
 12
1114.452989484768
 22
2742.517519078878
 32
0.0
 13
1114.452989484768
 23
2742.517519078878
 33
0.0
  0
SOLID
  5
13F1
330
135D
100
AcDbEntity
  8
Dimensions
  6
Continuous
 62
   250
100
AcDbTrace
 10
1169.452989484768
 20
2746.684185745544
 30
0.0
 11
1169.452989484768
 21
2738.350852412211
 31
0.0
 12
1194.452989484768
 22
2742.517519078878
 32
0.0
 13
1194.452989484768
 23
2742.517519078878
 33
0.0
  0
MTEXT
  5
13F2
330
135D
100
AcDbEntity
  8
Dimensions
  6
Continuous
 62
    18
370
    25
100
AcDbMText
 10
1237.192423205984
 20
2792.204367646409
 30
0.0
 40
35.0
 41
0.0
 71
     1
 72
     1
  1
\A1;8,00
  7
Text Style9
 73
     1
 44
1.0
1001
ACAD
1000
MTEXTBEGIN
1070
    73
1070
     1
1070
    44
1040
1.0
1070
    74
1070
     0
1000
MTEXTEND
  0
POINT
  5
13F3
330
135D
100
AcDbEntity
  8
Defpoints
  6
Continuous
 62
     0
100
AcDbPoint
 10
1114.452989484768
 20
2510.356763132055
 30
0.0
  0
POINT
  5
13F4
330
135D
100
AcDbEntity
  8
Defpoints
  6
Continuous
 62
     0
100
AcDbPoint
 10
1194.452989484768
 20
2580.356763132055
 30
0.0
  0
POINT
  5
13F5
330
135D
100
AcDbEntity
  8
Defpoints
  6
Continuous
 62
     0
100
AcDbPoint
 10
1194.452989484768
 20
2742.517519078878
 30
0.0
  0
ENDBLK
  5
1369
330
135D
100
AcDbEntity
  8
0
100
AcDbBlockEnd
  0
BLOCK
  5
1402
330
13F7
100
AcDbEntity
  8
0
100
AcDbBlockBegin
  2
*D37
 70
     1
 10
0.0
 20
0.0
 30
0.0
  3
*D37
  1

  0
LINE
  5
1488
330
13F7
100
AcDbEntity
  8
Dimensions
  6
Continuous
 62
   250
370
    25
100
AcDbLine
 10
1114.452989484768
 20
2510.356763132055
 30
0.0
 11
1422.285686055079
 21
2510.356763132055
 31
0.0
  0
LINE
  5
1489
330
13F7
100
AcDbEntity
  8
Dimensions
  6
Continuous
 62
   250
370
    25
100
AcDbLine
 10
1194.452989484768
 20
2580.356763132055
 30
0.0
 11
1422.285686055079
 21
2580.356763132054
 31
0.0
  0
LINE
  5
148A
330
13F7
100
AcDbEntity
  8
Dimensions
  6
Continuous
 62
   250
370
    25
100
AcDbLine
 10
1390.535686055078
 20
2535.356763132055
 30
0.0
 11
1390.535686055078
 21
2555.356763132055
 31
0.0
  0
LINE
  5
148B
330
13F7
100
AcDbEntity
  8
Dimensions
  6
Continuous
 62
   250
370
    25
100
AcDbLine
 10
1390.535686055078
 20
2580.356763132054
 30
0.0
 11
1390.535686055078
 21
2723.151815163862
 31
0.0
  0
SOLID
  5
148C
330
13F7
100
AcDbEntity
  8
Dimensions
  6
Continuous
 62
   250
100
AcDbTrace
 10
1386.369019388412
 20
2535.356763132055
 30
0.0
 11
1394.702352721745
 21
2535.356763132055
 31
0.0
 12
1390.535686055078
 22
2510.356763132055
 32
0.0
 13
1390.535686055078
 23
2510.356763132055
 33
0.0
  0
SOLID
  5
148D
330
13F7
100
AcDbEntity
  8
Dimensions
  6
Continuous
 62
   250
100
AcDbTrace
 10
1386.369019388412
 20
2555.356763132055
 30
0.0
 11
1394.702352721745
 21
2555.356763132055
 31
0.0
 12
1390.535686055078
 22
2580.356763132054
 32
0.0
 13
1390.535686055078
 23
2580.356763132054
 33
0.0
  0
MTEXT
  5
148E
330
13F7
100
AcDbEntity
  8
Dimensions
  6
Continuous
 62
    18
370
    25
100
AcDbMText
 10
1340.848837487548
 20
2625.023629624982
 30
0.0
 40
35.0
 41
0.0
 71
     1
 72
     1
  1
\A1;7,00
  7
Text Style9
 11
0.0000000000000001
 21
1.0
 31
0.0
 73
     1
 44
1.0
1001
ACAD
1000
MTEXTBEGIN
1070
    73
1070
     1
1070
    44
1040
1.0
1070
    74
1070
     0
1000
MTEXTEND
  0
POINT
  5
148F
330
13F7
100
AcDbEntity
  8
Defpoints
  6
Continuous
 62
     0
100
AcDbPoint
 10
1114.452989484768
 20
2510.356763132055
 30
0.0
  0
POINT
  5
1490
330
13F7
100
AcDbEntity
  8
Defpoints
  6
Continuous
 62
     0
100
AcDbPoint
 10
1194.452989484768
 20
2580.356763132055
 30
0.0
  0
POINT
  5
1491
330
13F7
100
AcDbEntity
  8
Defpoints
  6
Continuous
 62
     0
100
AcDbPoint
 10
1390.535686055078
 20
2580.356763132054
 30
0.0
  0
ENDBLK
  5
1403
330
13F7
100
AcDbEntity
  8
0
100
AcDbBlockEnd
  0
BLOCK
  5
149E
330
1493
100
AcDbEntity
  8
0
100
AcDbBlockBegin
  2
*D38
 70
     1
 10
0.0
 20
0.0
 30
0.0
  3
*D38
  1

  0
LINE
  5
1524
330
1493
100
AcDbEntity
  8
Dimensions
  6
Continuous
 62
   250
370
    25
100
AcDbLine
 10
1516.925106831322
 20
2111.171307852008
 30
0.0
 11
1712.168210945022
 21
2111.171307852008
 31
0.0
  0
LINE
  5
1525
330
1493
100
AcDbEntity
  8
Dimensions
  6
Continuous
 62
   250
370
    25
100
AcDbLine
 10
1586.925106831321
 20
2191.171307852008
 30
0.0
 11
1712.168210945022
 21
2191.171307852008
 31
0.0
  0
LINE
  5
1526
330
1493
100
AcDbEntity
  8
Dimensions
  6
Continuous
 62
   250
370
    25
100
AcDbLine
 10
1680.418210945022
 20
2166.171307852008
 30
0.0
 11
1680.418210945022
 21
2136.171307852007
 31
0.0
  0
LINE
  5
1527
330
1493
100
AcDbEntity
  8
Dimensions
  6
Continuous
 62
   250
370
    25
100
AcDbLine
 10
1680.418210945022
 20
2111.171307852008
 30
0.0
 11
1680.418210945022
 21
1964.007191649274
 31
0.0
  0
SOLID
  5
1528
330
1493
100
AcDbEntity
  8
Dimensions
  6
Continuous
 62
   250
100
AcDbTrace
 10
1676.251544278355
 20
2166.171307852008
 30
0.0
 11
1684.584877611689
 21
2166.171307852008
 31
0.0
 12
1680.418210945022
 22
2191.171307852008
 32
0.0
 13
1680.418210945022
 23
2191.171307852008
 33
0.0
  0
SOLID
  5
1529
330
1493
100
AcDbEntity
  8
Dimensions
  6
Continuous
 62
   250
100
AcDbTrace
 10
1676.251544278355
 20
2136.171307852007
 30
0.0
 11
1684.584877611689
 21
2136.171307852007
 31
0.0
 12
1680.418210945022
 22
2111.171307852008
 32
0.0
 13
1680.418210945022
 23
2111.171307852008
 33
0.0
  0
MTEXT
  5
152A
330
1493
100
AcDbEntity
  8
Dimensions
  6
Continuous
 62
    18
370
    25
100
AcDbMText
 10
1630.731362377491
 20
1971.627191649274
 30
0.0
 40
35.0
 41
0.0
 71
     1
 72
     1
  1
\A1;8,00
  7
Text Style9
 11
0.0000000000000001
 21
1.0
 31
0.0
 73
     1
 44
1.0
1001
ACAD
1000
MTEXTBEGIN
1070
    73
1070
     1
1070
    44
1040
1.0
1070
    74
1070
     0
1000
MTEXTEND
  0
POINT
  5
152B
330
1493
100
AcDbEntity
  8
Defpoints
  6
Continuous
 62
     0
100
AcDbPoint
 10
1516.925106831322
 20
2111.171307852008
 30
0.0
  0
POINT
  5
152C
330
1493
100
AcDbEntity
  8
Defpoints
  6
Continuous
 62
     0
100
AcDbPoint
 10
1586.925106831321
 20
2191.171307852008
 30
0.0
  0
POINT
  5
152D
330
1493
100
AcDbEntity
  8
Defpoints
  6
Continuous
 62
     0
100
AcDbPoint
 10
1680.418210945022
 20
2191.171307852008
 30
0.0
  0
ENDBLK
  5
149F
330
1493
100
AcDbEntity
  8
0
100
AcDbBlockEnd
  0
BLOCK
  5
153A
330
152F
100
AcDbEntity
  8
0
100
AcDbBlockBegin
  2
*D39
 70
     1
 10
0.0
 20
0.0
 30
0.0
  3
*D39
  1

  0
LINE
  5
15BE
330
152F
100
AcDbEntity
  8
Dimensions
  6
Continuous
 62
   250
370
    25
100
AcDbLine
 10
1516.925106831322
 20
2111.171307852008
 30
0.0
 11
1516.925106831322
 21
2286.329485569127
 31
0.0
  0
LINE
  5
15BF
330
152F
100
AcDbEntity
  8
Dimensions
  6
Continuous
 62
   250
370
    25
100
AcDbLine
 10
1586.925106831321
 20
2191.171307852008
 30
0.0
 11
1586.925106831321
 21
2286.329485569127
 31
0.0
  0
LINE
  5
15C0
330
152F
100
AcDbEntity
  8
Dimensions
  6
Continuous
 62
   250
370
    25
100
AcDbLine
 10
1541.925106831322
 20
2254.579485569127
 30
0.0
 11
1561.925106831321
 21
2254.579485569127
 31
0.0
  0
LINE
  5
15C1
330
152F
100
AcDbEntity
  8
Dimensions
  6
Continuous
 62
   250
370
    25
100
AcDbLine
 10
1586.925106831321
 20
2254.579485569127
 30
0.0
 11
1796.577473172063
 21
2254.579485569127
 31
0.0
  0
SOLID
  5
15C2
330
152F
100
AcDbEntity
  8
Dimensions
  6
Continuous
 62
   250
100
AcDbTrace
 10
1541.925106831322
 20
2258.746152235794
 30
0.0
 11
1541.925106831322
 21
2250.41281890246
 31
0.0
 12
1516.925106831322
 22
2254.579485569127
 32
0.0
 13
1516.925106831322
 23
2254.579485569127
 33
0.0
  0
SOLID
  5
15C3
330
152F
100
AcDbEntity
  8
Dimensions
  6
Continuous
 62
   250
100
AcDbTrace
 10
1561.925106831321
 20
2258.746152235794
 30
0.0
 11
1561.925106831321
 21
2250.41281890246
 31
0.0
 12
1586.925106831321
 22
2254.579485569127
 32
0.0
 13
1586.925106831321
 23
2254.579485569127
 33
0.0
  0
MTEXT
  5
15C4
330
152F
100
AcDbEntity
  8
Dimensions
  6
Continuous
 62
    18
370
    25
100
AcDbMText
 10
1698.449287633182
 20
2304.266334136657
 30
0.0
 40
35.0
 41
0.0
 71
     1
 72
     1
  1
\A1;7,00
  7
Text Style9
 73
     1
 44
1.0
1001
ACAD
1000
MTEXTBEGIN
1070
    73
1070
     1
1070
    44
1040
1.0
1070
    74
1070
     0
1000
MTEXTEND
  0
POINT
  5
15C5
330
152F
100
AcDbEntity
  8
Defpoints
  6
Continuous
 62
     0
100
AcDbPoint
 10
1516.925106831322
 20
2111.171307852008
 30
0.0
  0
POINT
  5
15C6
330
152F
100
AcDbEntity
  8
Defpoints
  6
Continuous
 62
     0
100
AcDbPoint
 10
1586.925106831321
 20
2191.171307852008
 30
0.0
  0
POINT
  5
15C7
330
152F
100
AcDbEntity
  8
Defpoints
  6
Continuous
 62
     0
100
AcDbPoint
 10
1586.925106831321
 20
2254.579485569127
 30
0.0
  0
ENDBLK
  5
153B
330
152F
100
AcDbEntity
  8
0
100
AcDbBlockEnd
  0
BLOCK
  5
15C9
330
15C8
100
AcDbEntity
  8
0
100
AcDbBlockBegin
  2
2dTransSymbol4
 70
     0
 10
0.0
 20
0.0
 30
0.0
  3
2dTransSymbol4
  1

  0
MTEXT
  5
15CB
330
15C8
100
AcDbEntity
  8
Dimensions
  6
Continuous
 48
0.0
370
    50
100
AcDbMText
 10
165.5910685246945
 20
190.2095005037809
 30
0.0
 40
3.499999940395355
 41
0.0
 71
     7
 72
     1
  1
M8x1.25 - 6H
  7
Text Style9
 11
0.5000000000001731
 21
-0.8660254037843387
 31
0.0
 73
     1
 44
1.0
1001
ACAD
1000
MTEXTBEGIN
1070
    73
1070
     1
1070
    44
1040
1.0
1070
    74
1070
     0
1000
MTEXTEND
  0
LINE
  5
15CC
330
15C8
100
AcDbEntity
  8
Dimensions
  6
Continuous
 48
0.0
370
    25
100
AcDbLine
 10
154.9425106831332
 20
205.4879656606025
 30
0.0
 11
153.6925106831328
 21
207.6530291700634
 31
0.0
  0
POLYLINE
  5
15CD
330
15C8
100
AcDbEntity
  8
Dimensions
  6
Continuous
 48
0.0
370
    25
100
AcDb2dPolyline
 66
     1
 10
0.0
 20
0.0
 30
0.0
  0
VERTEX
  5
15CE
330
15CD
100
AcDbEntity
  8
Dimensions
  6
Continuous
 48
0.0
370
    25
100
AcDbVertex
100
AcDb2dVertex
 10
155.3755187988281
 20
205.7379722595215
 30
0.0
  0
VERTEX
  5
15CF
330
15CD
100
AcDbEntity
  8
Dimensions
  6
Continuous
 48
0.0
370
    25
100
AcDbVertex
100
AcDb2dVertex
 10
153.692512512207
 20
207.6530265808105
 30
0.0
  0
VERTEX
  5
15D1
330
15CD
100
AcDbEntity
  8
Dimensions
  6
Continuous
 48
0.0
370
    25
100
AcDbVertex
100
AcDb2dVertex
 10
154.5094966888427
 20
205.2379608154297
 30
0.0
  0
VERTEX
  5
15D2
330
15CD
100
AcDbEntity
  8
Dimensions
  6
Continuous
 48
0.0
370
    25
100
AcDbVertex
100
AcDb2dVertex
 10
155.3755187988281
 20
205.7379722595215
 30
0.0
  0
SEQEND
  5
15D0
330
15CD
100
AcDbEntity
  8
Dimensions
  6
Continuous
 48
0.0
370
    25
  0
SOLID
  5
15D3
330
15C8
100
AcDbEntity
  8
0
 62
    18
100
AcDbTrace
 10
155.3755187988281
 20
205.7379722595215
 30
0.0
 11
153.692512512207
 21
207.6530265808105
 31
0.0
 12
154.5094966888427
 22
205.2379608154297
 32
0.0
 13
155.3755187988281
 23
205.7379722595215
 33
0.0
  0
LINE
  5
15D4
330
15C8
100
AcDbEntity
  8
Dimensions
  6
Continuous
 48
0.0
370
    25
100
AcDbLine
 10
155.3755233850254
 20
205.7379656606026
 30
0.0
 11
153.6925106831328
 21
207.6530291700634
 31
0.0
  0
LINE
  5
15D5
330
15C8
100
AcDbEntity
  8
Dimensions
  6
Continuous
 48
0.0
370
    25
100
AcDbLine
 10
153.6925106831328
 20
207.6530291700634
 30
0.0
 11
154.509497981241
 21
205.2379656606024
 31
0.0
  0
LINE
  5
15D6
330
15C8
100
AcDbEntity
  8
Dimensions
  6
Continuous
 48
0.0
370
    25
100
AcDbLine
 10
154.509497981241
 20
205.2379656606024
 30
0.0
 11
155.3755233850254
 21
205.7379656606026
 31
0.0
  0
LINE
  5
15D7
330
15C8
100
AcDbEntity
  8
Dimensions
  6
Continuous
 48
0.0
370
    25
100
AcDbLine
 10
153.6925106831328
 20
207.6530291700634
 30
0.0
 11
171.5565479759234
 21
176.7116089506589
 31
0.0
  0
LINE
  5
15D8
330
15C8
100
AcDbEntity
  8
Dimensions
  6
Continuous
 48
0.0
370
    25
100
AcDbLine
 10
171.5565479759234
 20
176.7116089506589
 30
0.0
 11
179.2736763299987
 21
163.3451505528764
 31
0.0
  0
ENDBLK
  5
15CA
330
15C8
100
AcDbEntity
  8
0
100
AcDbBlockEnd
  0
BLOCK
  5
15E6
330
15DB
100
AcDbEntity
  8
0
100
AcDbBlockBegin
  2
*D41
 70
     1
 10
0.0
 20
0.0
 30
0.0
  3
*D41
  1

  0
LINE
  5
1669
330
15DB
100
AcDbEntity
  8
Dimensions
  6
Continuous
 62
   250
370
    25
100
AcDbLine
 10
1045.403435599105
 20
674.9872122579147
 30
0.0
 11
1045.403435599105
 21
834.8221178291584
 31
0.0
  0
LINE
  5
166A
330
15DB
100
AcDbEntity
  8
Dimensions
  6
Continuous
 62
   250
370
    25
100
AcDbLine
 10
1185.403435599105
 20
674.987212257916
 30
0.0
 11
1185.403435599105
 21
834.8221178291584
 31
0.0
  0
LINE
  5
166B
330
15DB
100
AcDbEntity
  8
Dimensions
  6
Continuous
 62
   250
370
    25
100
AcDbLine
 10
1070.403435599105
 20
803.0721178291585
 30
0.0
 11
1160.403435599105
 21
803.0721178291585
 31
0.0
  0
LINE
  5
166C
330
15DB
100
AcDbEntity
  8
Dimensions
  6
Continuous
 62
   250
370
    25
100
AcDbLine
 10
1185.403435599105
 20
803.0721178291585
 30
0.0
 11
1369.146587261132
 21
803.0721178291585
 31
0.0
  0
SOLID
  5
166D
330
15DB
100
AcDbEntity
  8
Dimensions
  6
Continuous
 62
   250
100
AcDbTrace
 10
1070.403435599105
 20
807.2387844958253
 30
0.0
 11
1070.403435599105
 21
798.9054511624918
 31
0.0
 12
1045.403435599105
 22
803.0721178291585
 32
0.0
 13
1045.403435599105
 23
803.0721178291585
 33
0.0
  0
SOLID
  5
166E
330
15DB
100
AcDbEntity
  8
Dimensions
  6
Continuous
 62
   250
100
AcDbTrace
 10
1160.403435599105
 20
807.2387844958253
 30
0.0
 11
1160.403435599105
 21
798.9054511624918
 31
0.0
 12
1185.403435599105
 22
803.0721178291585
 32
0.0
 13
1185.403435599105
 23
803.0721178291585
 33
0.0
  0
MTEXT
  5
166F
330
15DB
100
AcDbEntity
  8
Dimensions
  6
Continuous
 62
    18
370
    25
100
AcDbMText
 10
1246.833544969181
 20
852.7589663966892
 30
0.0
 40
35.0
 41
0.0
 71
     1
 72
     1
  1
\A1;14,00
  7
Text Style9
 73
     1
 44
1.0
1001
ACAD
1000
MTEXTBEGIN
1070
    73
1070
     1
1070
    44
1040
1.0
1070
    74
1070
     0
1000
MTEXTEND
  0
POINT
  5
1670
330
15DB
100
AcDbEntity
  8
Defpoints
  6
Continuous
 62
     0
100
AcDbPoint
 10
1045.403435599105
 20
674.9872122579147
 30
0.0
  0
POINT
  5
1671
330
15DB
100
AcDbEntity
  8
Defpoints
  6
Continuous
 62
     0
100
AcDbPoint
 10
1185.403435599105
 20
674.987212257916
 30
0.0
  0
POINT
  5
1672
330
15DB
100
AcDbEntity
  8
Defpoints
  6
Continuous
 62
     0
100
AcDbPoint
 10
1185.403435599105
 20
803.0721178291585
 30
0.0
  0
ENDBLK
  5
15E7
330
15DB
100
AcDbEntity
  8
0
100
AcDbBlockEnd
  0
BLOCK
  5
167F
330
1674
100
AcDbEntity
  8
0
100
AcDbBlockBegin
  2
*D42
 70
     1
 10
0.0
 20
0.0
 30
0.0
  3
*D42
  1

  0
LINE
  5
16FE
330
1674
100
AcDbEntity
  8
Dimensions
  6
Continuous
 62
   250
370
    25
100
AcDbLine
 10
965.4034355993173
 20
1140.343512088322
 30
0.0
 11
965.4034355993173
 21
1231.813579700695
 31
0.0
  0
LINE
  5
16FF
330
1674
100
AcDbEntity
  8
Dimensions
  6
Continuous
 62
   250
370
    25
100
AcDbLine
 10
1265.403435599317
 20
1140.343512088322
 30
0.0
 11
1265.403435599317
 21
1231.813579700695
 31
0.0
  0
LINE
  5
1700
330
1674
100
AcDbEntity
  8
Dimensions
  6
Continuous
 62
   250
370
    25
100
AcDbLine
 10
990.4034355993173
 20
1200.063579700695
 30
0.0
 11
1240.403435599317
 21
1200.063579700695
 31
0.0
  0
SOLID
  5
1701
330
1674
100
AcDbEntity
  8
Dimensions
  6
Continuous
 62
   250
100
AcDbTrace
 10
990.4034355993173
 20
1204.230246367362
 30
0.0
 11
990.4034355993173
 21
1195.896913034028
 31
0.0
 12
965.4034355993173
 22
1200.063579700695
 32
0.0
 13
965.4034355993173
 23
1200.063579700695
 33
0.0
  0
SOLID
  5
1702
330
1674
100
AcDbEntity
  8
Dimensions
  6
Continuous
 62
   250
100
AcDbTrace
 10
1240.403435599317
 20
1204.230246367362
 30
0.0
 11
1240.403435599317
 21
1195.896913034028
 31
0.0
 12
1265.403435599317
 22
1200.063579700695
 32
0.0
 13
1265.403435599317
 23
1200.063579700695
 33
0.0
  0
MTEXT
  5
1703
330
1674
100
AcDbEntity
  8
Dimensions
  6
Continuous
 62
    18
370
    25
100
AcDbMText
 10
1059.042684124292
 20
1249.750428268226
 30
0.0
 40
35.0
 41
0.0
 71
     1
 72
     1
  1
\A1;30,00
  7
Text Style9
 73
     1
 44
1.0
1001
ACAD
1000
MTEXTBEGIN
1070
    73
1070
     1
1070
    44
1040
1.0
1070
    74
1070
     0
1000
MTEXTEND
  0
POINT
  5
1704
330
1674
100
AcDbEntity
  8
Defpoints
  6
Continuous
 62
     0
100
AcDbPoint
 10
965.4034355993173
 20
1140.343512088322
 30
0.0
  0
POINT
  5
1705
330
1674
100
AcDbEntity
  8
Defpoints
  6
Continuous
 62
     0
100
AcDbPoint
 10
1265.403435599317
 20
1140.343512088322
 30
0.0
  0
POINT
  5
1706
330
1674
100
AcDbEntity
  8
Defpoints
  6
Continuous
 62
     0
100
AcDbPoint
 10
1265.403435599317
 20
1200.063579700695
 30
0.0
  0
ENDBLK
  5
1680
330
1674
100
AcDbEntity
  8
0
100
AcDbBlockEnd
  0
BLOCK
  5
1708
330
1707
100
AcDbEntity
  8
0
100
AcDbBlockBegin
  2
2dTransSymbol5
 70
     0
 10
0.0
 20
0.0
 30
0.0
  3
2dTransSymbol5
  1

  0
MTEXT
  5
170A
330
1707
100
AcDbEntity
  8
Dimensions
  6
Continuous
 48
0.0
370
    50
100
AcDbMText
 10
120.2915060136582
 20
238.8789742741337
 30
0.0
 40
3.499999940395355
 41
0.0
 71
     7
 72
     1
  1
M6x1 - 6H
  7
Text Style9
 11
0.5000000000001728
 21
-0.8660254037843388
 31
0.0
 73
     1
 44
1.0
1001
ACAD
1000
MTEXTBEGIN
1070
    73
1070
     1
1070
    44
1040
1.0
1070
    74
1070
     0
1000
MTEXTEND
  0
LINE
  5
170B
330
1707
100
AcDbEntity
  8
Dimensions
  6
Continuous
 48
0.0
370
    25
100
AcDbLine
 10
114.1952989484777
 20
246.2725365923916
 30
0.0
 11
112.9452989484773
 21
248.4376001018524
 31
0.0
  0
POLYLINE
  5
170C
330
1707
100
AcDbEntity
  8
Dimensions
  6
Continuous
 48
0.0
370
    25
100
AcDb2dPolyline
 66
     1
 10
0.0
 20
0.0
 30
0.0
  0
VERTEX
  5
170D
330
170C
100
AcDbEntity
  8
Dimensions
  6
Continuous
 48
0.0
370
    25
100
AcDbVertex
100
AcDb2dVertex
 10
114.6283149719238
 20
246.5225410461426
 30
0.0
  0
VERTEX
  5
170E
330
170C
100
AcDbEntity
  8
Dimensions
  6
Continuous
 48
0.0
370
    25
100
AcDbVertex
100
AcDb2dVertex
 10
112.9452991485595
 20
248.4375953674316
 30
0.0
  0
VERTEX
  5
1710
330
170C
100
AcDbEntity
  8
Dimensions
  6
Continuous
 48
0.0
370
    25
100
AcDbVertex
100
AcDb2dVertex
 10
113.7622833251953
 20
246.0225296020508
 30
0.0
  0
VERTEX
  5
1711
330
170C
100
AcDbEntity
  8
Dimensions
  6
Continuous
 48
0.0
370
    25
100
AcDbVertex
100
AcDb2dVertex
 10
114.6283149719238
 20
246.5225410461426
 30
0.0
  0
SEQEND
  5
170F
330
170C
100
AcDbEntity
  8
Dimensions
  6
Continuous
 48
0.0
370
    25
  0
SOLID
  5
1712
330
1707
100
AcDbEntity
  8
0
 62
    18
100
AcDbTrace
 10
114.6283149719238
 20
246.5225410461426
 30
0.0
 11
112.9452991485595
 21
248.4375953674316
 31
0.0
 12
113.7622833251953
 22
246.0225296020508
 32
0.0
 13
114.6283149719238
 23
246.5225410461426
 33
0.0
  0
LINE
  5
1713
330
1707
100
AcDbEntity
  8
Dimensions
  6
Continuous
 48
0.0
370
    25
100
AcDbLine
 10
114.6283116503699
 20
246.5225365923917
 30
0.0
 11
112.9452989484773
 21
248.4376001018524
 31
0.0
  0
LINE
  5
1714
330
1707
100
AcDbEntity
  8
Dimensions
  6
Continuous
 48
0.0
370
    25
100
AcDbLine
 10
112.9452989484773
 20
248.4376001018524
 30
0.0
 11
113.7622862465856
 21
246.0225365923915
 31
0.0
  0
LINE
  5
1715
330
1707
100
AcDbEntity
  8
Dimensions
  6
Continuous
 48
0.0
370
    25
100
AcDbLine
 10
113.7622862465856
 20
246.0225365923915
 30
0.0
 11
114.6283116503699
 21
246.5225365923917
 31
0.0
  0
LINE
  5
1716
330
1707
100
AcDbEntity
  8
Dimensions
  6
Continuous
 48
0.0
370
    25
100
AcDbLine
 10
112.9452989484773
 20
248.4376001018524
 30
0.0
 11
124.5583383234299
 21
228.3232258741459
 31
0.0
  0
LINE
  5
1717
330
1707
100
AcDbEntity
  8
Dimensions
  6
Continuous
 48
0.0
370
    25
100
AcDbLine
 10
124.5583383234299
 20
228.3232258741459
 30
0.0
 11
130.5768195360479
 21
217.8989106294975
 31
0.0
  0
ENDBLK
  5
1709
330
1707
100
AcDbEntity
  8
0
100
AcDbBlockEnd
  0
BLOCK
  5
1724
330
1719
100
AcDbEntity
  8
0
100
AcDbBlockBegin
  2
*D44
 70
     1
 10
0.0
 20
0.0
 30
0.0
  3
*D44
  1

  0
LINE
  5
171A
330
1719
100
AcDbEntity
  8
Dimensions
  6
Continuous
 62
   250
370
    25
100
AcDbLine
 10
69.44529894847687
 20
243.0688507993457
 30
0.0
 11
43.35937534561168
 21
243.0688507993457
 31
0.0
  0
LINE
  5
171B
330
1719
100
AcDbEntity
  8
Dimensions
  6
Continuous
 62
   250
370
    25
100
AcDbLine
 10
69.44529894847687
 20
258.0356763132055
 30
0.0
 11
43.35937534561168
 21
258.0356763132055
 31
0.0
  0
LINE
  5
171C
330
1719
100
AcDbEntity
  8
Dimensions
  6
Continuous
 62
   250
370
    25
100
AcDbLine
 10
46.53437534561168
 20
245.5688507993457
 30
0.0
 11
46.53437534561168
 21
255.5356763132055
 31
0.0
  0
LINE
  5
171D
330
1719
100
AcDbEntity
  8
Dimensions
  6
Continuous
 62
   250
370
    25
100
AcDbLine
 10
46.53437534561168
 20
258.0356763132055
 30
0.0
 11
46.53437534561168
 21
273.5409177866025
 31
0.0
  0
SOLID
  5
171E
330
1719
100
AcDbEntity
  8
Dimensions
  6
Continuous
 62
   250
100
AcDbTrace
 10
46.11770867894501
 20
245.5688507993457
 30
0.0
 11
46.95104201227834
 21
245.5688507993457
 31
0.0
 12
46.53437534561168
 22
243.0688507993457
 32
0.0
 13
46.53437534561168
 23
243.0688507993457
 33
0.0
  0
SOLID
  5
171F
330
1719
100
AcDbEntity
  8
Dimensions
  6
Continuous
 62
   250
100
AcDbTrace
 10
46.11770867894501
 20
255.5356763132055
 30
0.0
 11
46.95104201227834
 21
255.5356763132055
 31
0.0
 12
46.53437534561168
 22
258.0356763132055
 32
0.0
 13
46.53437534561168
 23
258.0356763132055
 33
0.0
  0
MTEXT
  5
1720
330
1719
100
AcDbEntity
  8
Dimensions
  6
Continuous
 62
    18
370
    25
100
AcDbMText
 10
41.56569048885856
 20
261.2976763132055
 30
0.0
 40
3.5
 41
0.0
 71
     1
 72
     1
  1
\A1;14,97
  7
Text Style9
 11
0.0000000000000001
 21
1.0
 31
0.0
 73
     1
 44
1.0
1001
ACAD
1000
MTEXTBEGIN
1070
    73
1070
     1
1070
    44
1040
1.0
1070
    74
1070
     0
1000
MTEXTEND
  0
POINT
  5
1721
330
1719
100
AcDbEntity
  8
Defpoints
  6
Continuous
 62
     0
100
AcDbPoint
 10
69.44529894847687
 20
243.0688507993457
 30
0.0
  0
POINT
  5
1722
330
1719
100
AcDbEntity
  8
Defpoints
  6
Continuous
 62
     0
100
AcDbPoint
 10
69.44529894847687
 20
258.0356763132055
 30
0.0
  0
POINT
  5
1723
330
1719
100
AcDbEntity
  8
Defpoints
  6
Continuous
 62
     0
100
AcDbPoint
 10
46.53437534561168
 20
258.0356763132055
 30
0.0
  0
ENDBLK
  5
1725
330
1719
100
AcDbEntity
  8
0
100
AcDbBlockEnd
  0
BLOCK
  5
172C
330
1726
100
AcDbEntity
  8
0
100
AcDbBlockBegin
  2
*D45
 70
     1
 10
0.0
 20
0.0
 30
0.0
  3
*D45
  1

  0
LINE
  5
1727
330
1726
100
AcDbEntity
  8
Dimensions
  6
Continuous
 62
   250
370
    25
100
AcDbLine
 10
98.31462023427789
 20
219.6131810601466
 30
0.0
 11
98.09446120691374
 21
241.5037411114035
 31
0.0
  0
MTEXT
  5
1728
330
1726
100
AcDbEntity
  8
Dimensions
  6
Continuous
 62
    18
370
    25
100
AcDbMText
 10
103.0956999144338
 20
238.2918748943685
 30
0.0
 40
3.5
 41
0.0
 71
     1
 72
     1
  1
\A1;R634,00
  7
Text Style9
 11
0.0100567501845821
 21
-0.9999494296091803
 31
0.0
 73
     1
 44
1.0
1001
ACAD
1000
MTEXTBEGIN
1070
    73
1070
     1
1070
    44
1040
1.0
1070
    74
1070
     0
1000
MTEXTEND
  0
SOLID
  5
1729
330
1726
100
AcDbEntity
  8
Dimensions
  6
Continuous
 62
   250
100
AcDbTrace
 10
98.51110680258424
 20
241.5079314239804
 30
0.0
 11
97.67781561124323
 21
241.4995507988266
 31
0.0
 12
98.06931933145229
 22
244.0036146854264
 32
0.0
 13
98.06931933145229
 23
244.0036146854264
 33
0.0
  0
POINT
  5
172A
330
1726
100
AcDbEntity
  8
Defpoints
  6
Continuous
 62
     0
100
AcDbPoint
 10
98.06931933145229
 20
244.0036146854264
 30
0.0
  0
POINT
  5
172B
330
1726
100
AcDbEntity
  8
Defpoints
  6
Continuous
 62
     0
100
AcDbPoint
 10
104.4452989484771
 20
-389.9643236867957
 30
0.0
  0
ENDBLK
  5
172D
330
1726
100
AcDbEntity
  8
0
100
AcDbBlockEnd
  0
BLOCK
  5
1738
330
172E
100
AcDbEntity
  8
0
100
AcDbBlockBegin
  2
*D46
 70
     1
 10
0.0
 20
0.0
 30
0.0
  3
*D46
  1

  0
LINE
  5
172F
330
172E
100
AcDbEntity
  8
Dimensions
  6
Continuous
 62
   250
370
    25
100
AcDbLine
 10
69.44529894844544
 20
219.1171307852008
 30
0.0
 11
56.27029894844548
 21
219.1171307852008
 31
0.0
  0
LINE
  5
1730
330
172E
100
AcDbEntity
  8
Dimensions
  6
Continuous
 62
   250
370
    25
100
AcDbLine
 10
69.44529894844544
 20
170.1171307852007
 30
0.0
 11
56.27029894844547
 21
170.1171307852007
 31
0.0
  0
LINE
  5
1731
330
172E
100
AcDbEntity
  8
Dimensions
  6
Continuous
 62
   250
370
    25
100
AcDbLine
 10
59.44529894844547
 20
216.6171307852008
 30
0.0
 11
59.44529894844546
 21
172.6171307852007
 31
0.0
  0
SOLID
  5
1732
330
172E
100
AcDbEntity
  8
Dimensions
  6
Continuous
 62
   250
100
AcDbTrace
 10
59.02863228177881
 20
216.6171307852008
 30
0.0
 11
59.86196561511214
 21
216.6171307852008
 31
0.0
 12
59.44529894844547
 22
219.1171307852008
 32
0.0
 13
59.44529894844547
 23
219.1171307852008
 33
0.0
  0
SOLID
  5
1733
330
172E
100
AcDbEntity
  8
Dimensions
  6
Continuous
 62
   250
100
AcDbTrace
 10
59.0286322817788
 20
172.6171307852007
 30
0.0
 11
59.86196561511213
 21
172.6171307852007
 31
0.0
 12
59.44529894844546
 22
170.1171307852007
 32
0.0
 13
59.44529894844546
 23
170.1171307852007
 33
0.0
  0
MTEXT
  5
1734
330
172E
100
AcDbEntity
  8
Dimensions
  6
Continuous
 62
    18
370
    25
100
AcDbMText
 10
54.47661409169237
 20
194.0616492766483
 30
0.0
 40
3.5
 41
0.0
 71
     1
 72
     1
  1
\A1;49,00
  7
Text Style9
 11
0.0000000000000001
 21
1.0
 31
0.0
 73
     1
 44
1.0
1001
ACAD
1000
MTEXTBEGIN
1070
    73
1070
     1
1070
    44
1040
1.0
1070
    74
1070
     0
1000
MTEXTEND
  0
POINT
  5
1735
330
172E
100
AcDbEntity
  8
Defpoints
  6
Continuous
 62
     0
100
AcDbPoint
 10
69.44529894844544
 20
219.1171307852008
 30
0.0
  0
POINT
  5
1736
330
172E
100
AcDbEntity
  8
Defpoints
  6
Continuous
 62
     0
100
AcDbPoint
 10
69.44529894844544
 20
170.1171307852007
 30
0.0
  0
POINT
  5
1737
330
172E
100
AcDbEntity
  8
Defpoints
  6
Continuous
 62
     0
100
AcDbPoint
 10
59.44529894844546
 20
170.1171307852007
 30
0.0
  0
ENDBLK
  5
1739
330
172E
100
AcDbEntity
  8
0
100
AcDbBlockEnd
  0
BLOCK
  5
1744
330
173A
100
AcDbEntity
  8
0
100
AcDbBlockBegin
  2
*D47
 70
     1
 10
0.0
 20
0.0
 30
0.0
  3
*D47
  1

  0
LINE
  5
173B
330
173A
100
AcDbEntity
  8
Dimensions
  6
Continuous
 62
   250
370
    25
100
AcDbLine
 10
69.44529894844544
 20
170.1171307852007
 30
0.0
 11
69.44529894844544
 21
156.9421307852007
 31
0.0
  0
LINE
  5
173C
330
173A
100
AcDbEntity
  8
Dimensions
  6
Continuous
 62
   250
370
    25
100
AcDbLine
 10
119.4452989484453
 20
170.1171307852007
 30
0.0
 11
119.4452989484453
 21
156.9421307852007
 31
0.0
  0
LINE
  5
173D
330
173A
100
AcDbEntity
  8
Dimensions
  6
Continuous
 62
   250
370
    25
100
AcDbLine
 10
71.94529894844544
 20
160.1171307852007
 30
0.0
 11
116.9452989484454
 21
160.1171307852007
 31
0.0
  0
SOLID
  5
173E
330
173A
100
AcDbEntity
  8
Dimensions
  6
Continuous
 62
   250
100
AcDbTrace
 10
71.94529894844544
 20
160.5337974518674
 30
0.0
 11
71.94529894844544
 21
159.7004641185341
 31
0.0
 12
69.44529894844544
 22
160.1171307852007
 32
0.0
 13
69.44529894844544
 23
160.1171307852007
 33
0.0
  0
SOLID
  5
173F
330
173A
100
AcDbEntity
  8
Dimensions
  6
Continuous
 62
   250
100
AcDbTrace
 10
116.9452989484454
 20
160.5337974518674
 30
0.0
 11
116.9452989484454
 21
159.7004641185341
 31
0.0
 12
119.4452989484453
 22
160.1171307852007
 32
0.0
 13
119.4452989484453
 23
160.1171307852007
 33
0.0
  0
MTEXT
  5
1740
330
173A
100
AcDbEntity
  8
Dimensions
  6
Continuous
 62
    18
370
    25
100
AcDbMText
 10
84.81690417189161
 20
165.0858156419538
 30
0.0
 40
3.5
 41
0.0
 71
     1
 72
     1
  1
\A1;50,00
  7
Text Style9
 73
     1
 44
1.0
1001
ACAD
1000
MTEXTBEGIN
1070
    73
1070
     1
1070
    44
1040
1.0
1070
    74
1070
     0
1000
MTEXTEND
  0
POINT
  5
1741
330
173A
100
AcDbEntity
  8
Defpoints
  6
Continuous
 62
     0
100
AcDbPoint
 10
69.44529894844544
 20
170.1171307852007
 30
0.0
  0
POINT
  5
1742
330
173A
100
AcDbEntity
  8
Defpoints
  6
Continuous
 62
     0
100
AcDbPoint
 10
119.4452989484453
 20
170.1171307852007
 30
0.0
  0
POINT
  5
1743
330
173A
100
AcDbEntity
  8
Defpoints
  6
Continuous
 62
     0
100
AcDbPoint
 10
119.4452989484453
 20
160.1171307852007
 30
0.0
  0
ENDBLK
  5
1745
330
173A
100
AcDbEntity
  8
0
100
AcDbBlockEnd
  0
BLOCK
  5
1751
330
1746
100
AcDbEntity
  8
0
100
AcDbBlockBegin
  2
*D48
 70
     1
 10
0.0
 20
0.0
 30
0.0
  3
*D48
  1

  0
LINE
  5
1747
330
1746
100
AcDbEntity
  8
Dimensions
  6
Continuous
 62
   250
370
    25
100
AcDbLine
 10
119.4452989484454
 20
180.1171307852007
 30
0.0
 11
135.3247201672524
 21
180.1171307852007
 31
0.0
  0
LINE
  5
1748
330
1746
100
AcDbEntity
  8
Dimensions
  6
Continuous
 62
   250
370
    25
100
AcDbLine
 10
119.4452989484453
 20
170.1171307852007
 30
0.0
 11
135.3247201672524
 21
170.1171307852007
 31
0.0
  0
LINE
  5
1749
330
1746
100
AcDbEntity
  8
Dimensions
  6
Continuous
 62
   250
370
    25
100
AcDbLine
 10
132.1497201672524
 20
172.6171307852007
 30
0.0
 11
132.1497201672524
 21
177.6171307852007
 31
0.0
  0
LINE
  5
174A
330
1746
100
AcDbEntity
  8
Dimensions
  6
Continuous
 62
   250
370
    25
100
AcDbLine
 10
132.1497201672524
 20
180.1171307852007
 30
0.0
 11
132.1497201672524
 21
195.6104350143958
 31
0.0
  0
SOLID
  5
174B
330
1746
100
AcDbEntity
  8
Dimensions
  6
Continuous
 62
   250
100
AcDbTrace
 10
131.7330535005857
 20
172.6171307852007
 30
0.0
 11
132.5663868339191
 21
172.6171307852007
 31
0.0
 12
132.1497201672524
 22
170.1171307852007
 32
0.0
 13
132.1497201672524
 23
170.1171307852007
 33
0.0
  0
SOLID
  5
174C
330
1746
100
AcDbEntity
  8
Dimensions
  6
Continuous
 62
   250
100
AcDbTrace
 10
131.7330535005857
 20
177.6171307852007
 30
0.0
 11
132.5663868339191
 21
177.6171307852007
 31
0.0
 12
132.1497201672524
 22
180.1171307852007
 32
0.0
 13
132.1497201672524
 23
180.1171307852007
 33
0.0
  0
MTEXT
  5
174D
330
1746
100
AcDbEntity
  8
Dimensions
  6
Continuous
 62
    18
370
    25
100
AcDbMText
 10
127.1810353104993
 20
183.3791307852008
 30
0.0
 40
3.5
 41
0.0
 71
     1
 72
     1
  1
\A1;10,00
  7
Text Style9
 11
0.0000000000000001
 21
1.0
 31
0.0
 73
     1
 44
1.0
1001
ACAD
1000
MTEXTBEGIN
1070
    73
1070
     1
1070
    44
1040
1.0
1070
    74
1070
     0
1000
MTEXTEND
  0
POINT
  5
174E
330
1746
100
AcDbEntity
  8
Defpoints
  6
Continuous
 62
     0
100
AcDbPoint
 10
119.4452989484454
 20
180.1171307852007
 30
0.0
  0
POINT
  5
174F
330
1746
100
AcDbEntity
  8
Defpoints
  6
Continuous
 62
     0
100
AcDbPoint
 10
119.4452989484453
 20
170.1171307852007
 30
0.0
  0
POINT
  5
1750
330
1746
100
AcDbEntity
  8
Defpoints
  6
Continuous
 62
     0
100
AcDbPoint
 10
132.1497201672524
 20
170.1171307852007
 30
0.0
  0
ENDBLK
  5
1752
330
1746
100
AcDbEntity
  8
0
100
AcDbBlockEnd
  0
BLOCK
  5
175E
330
1753
100
AcDbEntity
  8
0
100
AcDbBlockBegin
  2
*D49
 70
     1
 10
0.0
 20
0.0
 30
0.0
  3
*D49
  1

  0
LINE
  5
1754
330
1753
100
AcDbEntity
  8
Dimensions
  6
Continuous
 62
   250
370
    25
100
AcDbLine
 10
79.44529894844544
 20
219.1171307852008
 30
0.0
 11
79.44529894844544
 21
224.8440524776098
 31
0.0
  0
LINE
  5
1755
330
1753
100
AcDbEntity
  8
Dimensions
  6
Continuous
 62
   250
370
    25
100
AcDbLine
 10
69.44529894844544
 20
219.1171307852008
 30
0.0
 11
69.44529894844544
 21
224.8440524776098
 31
0.0
  0
LINE
  5
1756
330
1753
100
AcDbEntity
  8
Dimensions
  6
Continuous
 62
   250
370
    25
100
AcDbLine
 10
71.94529894844544
 20
221.6690524776097
 30
0.0
 11
76.94529894844544
 21
221.6690524776097
 31
0.0
  0
LINE
  5
1757
330
1753
100
AcDbEntity
  8
Dimensions
  6
Continuous
 62
   250
370
    25
100
AcDbLine
 10
79.44529894844544
 20
221.6690524776097
 30
0.0
 11
94.93860317764053
 21
221.6690524776097
 31
0.0
  0
SOLID
  5
1758
330
1753
100
AcDbEntity
  8
Dimensions
  6
Continuous
 62
   250
100
AcDbTrace
 10
71.94529894844544
 20
222.0857191442764
 30
0.0
 11
71.94529894844544
 21
221.2523858109431
 31
0.0
 12
69.44529894844544
 22
221.6690524776097
 32
0.0
 13
69.44529894844544
 23
221.6690524776097
 33
0.0
  0
SOLID
  5
1759
330
1753
100
AcDbEntity
  8
Dimensions
  6
Continuous
 62
   250
100
AcDbTrace
 10
76.94529894844544
 20
222.0857191442764
 30
0.0
 11
76.94529894844544
 21
221.2523858109431
 31
0.0
 12
79.44529894844544
 22
221.6690524776097
 32
0.0
 13
79.44529894844544
 23
221.6690524776097
 33
0.0
  0
MTEXT
  5
175A
330
1753
100
AcDbEntity
  8
Dimensions
  6
Continuous
 62
    18
370
    25
100
AcDbMText
 10
82.70729894844544
 20
226.6377373343628
 30
0.0
 40
3.5
 41
0.0
 71
     1
 72
     1
  1
\A1;10,00
  7
Text Style9
 73
     1
 44
1.0
1001
ACAD
1000
MTEXTBEGIN
1070
    73
1070
     1
1070
    44
1040
1.0
1070
    74
1070
     0
1000
MTEXTEND
  0
POINT
  5
175B
330
1753
100
AcDbEntity
  8
Defpoints
  6
Continuous
 62
     0
100
AcDbPoint
 10
79.44529894844544
 20
219.1171307852008
 30
0.0
  0
POINT
  5
175C
330
1753
100
AcDbEntity
  8
Defpoints
  6
Continuous
 62
     0
100
AcDbPoint
 10
69.44529894844544
 20
219.1171307852008
 30
0.0
  0
POINT
  5
175D
330
1753
100
AcDbEntity
  8
Defpoints
  6
Continuous
 62
     0
100
AcDbPoint
 10
69.44529894844544
 20
221.6690524776097
 30
0.0
  0
ENDBLK
  5
175F
330
1753
100
AcDbEntity
  8
0
100
AcDbBlockEnd
  0
BLOCK
  5
1766
330
1760
100
AcDbEntity
  8
0
100
AcDbBlockBegin
  2
*D50
 70
     1
 10
0.0
 20
0.0
 30
0.0
  3
*D50
  1

  0
LINE
  5
1761
330
1760
100
AcDbEntity
  8
Dimensions
  6
Continuous
 62
   250
370
    25
100
AcDbLine
 10
94.31160134736805
 20
194.9834331841207
 30
0.0
 11
82.67753199547886
 21
183.3493638322346
 31
0.0
  0
MTEXT
  5
1762
330
1760
100
AcDbEntity
  8
Dimensions
  6
Continuous
 62
    18
370
    25
100
AcDbMText
 10
81.47072355992115
 20
189.1693369082543
 30
0.0
 40
3.5
 41
0.0
 71
     1
 72
     1
  1
\A1;R5,00
  7
Text Style9
 11
0.7071067811866443
 21
0.7071067811864508
 31
0.0
 73
     1
 44
1.0
1001
ACAD
1000
MTEXTBEGIN
1070
    73
1070
     1
1070
    44
1040
1.0
1070
    74
1070
     0
1000
MTEXTEND
  0
SOLID
  5
1763
330
1760
100
AcDbEntity
  8
Dimensions
  6
Continuous
 62
   250
100
AcDbTrace
 10
82.3829041699845
 20
183.6439916577291
 30
0.0
 11
82.97215982097322
 21
183.0547360067402
 31
0.0
 12
80.90976504251225
 22
181.5815968792685
 32
0.0
 13
80.90976504251225
 23
181.5815968792685
 33
0.0
  0
POINT
  5
1764
330
1760
100
AcDbEntity
  8
Defpoints
  6
Continuous
 62
     0
100
AcDbPoint
 10
80.90976504251225
 20
181.5815968792685
 30
0.0
  0
POINT
  5
1765
330
1760
100
AcDbEntity
  8
Defpoints
  6
Continuous
 62
     0
100
AcDbPoint
 10
84.44529894844544
 20
185.1171307852008
 30
0.0
  0
ENDBLK
  5
1767
330
1760
100
AcDbEntity
  8
0
100
AcDbBlockEnd
  0
BLOCK
  5
1773
330
1768
100
AcDbEntity
  8
0
100
AcDbBlockBegin
  2
*D51
 70
     1
 10
0.0
 20
0.0
 30
0.0
  3
*D51
  1

  0
LINE
  5
1769
330
1768
100
AcDbEntity
  8
Dimensions
  6
Continuous
 62
   250
370
    25
100
AcDbLine
 10
119.4452989484768
 20
258.0356763132055
 30
0.0
 11
160.732407257487
 21
258.0356763132054
 31
0.0
  0
LINE
  5
176A
330
1768
100
AcDbEntity
  8
Dimensions
  6
Continuous
 62
   250
370
    25
100
AcDbLine
 10
119.4452989484768
 20
243.8582066795533
 30
0.0
 11
160.732407257487
 21
243.8582066795533
 31
0.0
  0
LINE
  5
176B
330
1768
100
AcDbEntity
  8
Dimensions
  6
Continuous
 62
   250
370
    25
100
AcDbLine
 10
157.5574072574871
 20
246.3582066795534
 30
0.0
 11
157.5574072574871
 21
255.5356763132055
 31
0.0
  0
LINE
  5
176C
330
1768
100
AcDbEntity
  8
Dimensions
  6
Continuous
 62
   250
370
    25
100
AcDbLine
 10
157.5574072574871
 20
258.0356763132054
 30
0.0
 11
157.5574072574871
 21
273.5480801331235
 31
0.0
  0
SOLID
  5
176D
330
1768
100
AcDbEntity
  8
Dimensions
  6
Continuous
 62
   250
100
AcDbTrace
 10
157.1407405908204
 20
246.3582066795534
 30
0.0
 11
157.9740739241537
 21
246.3582066795534
 31
0.0
 12
157.5574072574871
 22
243.8582066795533
 32
0.0
 13
157.5574072574871
 23
243.8582066795533
 33
0.0
  0
SOLID
  5
176E
330
1768
100
AcDbEntity
  8
Dimensions
  6
Continuous
 62
   250
100
AcDbTrace
 10
157.1407405908204
 20
255.5356763132055
 30
0.0
 11
157.9740739241537
 21
255.5356763132055
 31
0.0
 12
157.5574072574871
 22
258.0356763132054
 32
0.0
 13
157.5574072574871
 23
258.0356763132054
 33
0.0
  0
MTEXT
  5
176F
330
1768
100
AcDbEntity
  8
Dimensions
  6
Continuous
 62
    18
370
    25
100
AcDbMText
 10
152.588722400734
 20
261.2976763132055
 30
0.0
 40
3.5
 41
0.0
 71
     1
 72
     1
  1
\A1;14,18
  7
Text Style9
 11
0.0000000000000001
 21
1.0
 31
0.0
 73
     1
 44
1.0
1001
ACAD
1000
MTEXTBEGIN
1070
    73
1070
     1
1070
    44
1040
1.0
1070
    74
1070
     0
1000
MTEXTEND
  0
POINT
  5
1770
330
1768
100
AcDbEntity
  8
Defpoints
  6
Continuous
 62
     0
100
AcDbPoint
 10
119.4452989484768
 20
258.0356763132055
 30
0.0
  0
POINT
  5
1771
330
1768
100
AcDbEntity
  8
Defpoints
  6
Continuous
 62
     0
100
AcDbPoint
 10
119.4452989484768
 20
243.8582066795533
 30
0.0
  0
POINT
  5
1772
330
1768
100
AcDbEntity
  8
Defpoints
  6
Continuous
 62
     0
100
AcDbPoint
 10
157.5574072574871
 20
243.8582066795533
 30
0.0
  0
ENDBLK
  5
1774
330
1768
100
AcDbEntity
  8
0
100
AcDbBlockEnd
  0
BLOCK
  5
1780
330
1775
100
AcDbEntity
  8
0
100
AcDbBlockBegin
  2
*D52
 70
     1
 10
0.0
 20
0.0
 30
0.0
  3
*D52
  1

  0
LINE
  5
1776
330
1775
100
AcDbEntity
  8
Dimensions
  6
Continuous
 62
   250
370
    25
100
AcDbLine
 10
96.54034355991051
 20
60.32125159213947
 30
0.0
 11
77.00271834921022
 21
60.32125159213947
 31
0.0
  0
LINE
  5
1777
330
1775
100
AcDbEntity
  8
Dimensions
  6
Continuous
 62
   250
370
    25
100
AcDbLine
 10
96.54034355991051
 20
74.49872122579164
 30
0.0
 11
77.00271834921022
 21
74.49872122579165
 31
0.0
  0
LINE
  5
1778
330
1775
100
AcDbEntity
  8
Dimensions
  6
Continuous
 62
   250
370
    25
100
AcDbLine
 10
80.17771834921022
 20
62.82125159213947
 30
0.0
 11
80.17771834921022
 21
71.99872122579165
 31
0.0
  0
LINE
  5
1779
330
1775
100
AcDbEntity
  8
Dimensions
  6
Continuous
 62
   250
370
    25
100
AcDbLine
 10
80.17771834921022
 20
74.49872122579165
 30
0.0
 11
80.17771834921022
 21
91.18704844230711
 31
0.0
  0
SOLID
  5
177A
330
1775
100
AcDbEntity
  8
Dimensions
  6
Continuous
 62
   250
100
AcDbTrace
 10
79.76105168254355
 20
62.82125159213947
 30
0.0
 11
80.5943850158769
 21
62.82125159213947
 31
0.0
 12
80.17771834921022
 22
60.32125159213947
 32
0.0
 13
80.17771834921022
 23
60.32125159213947
 33
0.0
  0
SOLID
  5
177B
330
1775
100
AcDbEntity
  8
Dimensions
  6
Continuous
 62
   250
100
AcDbTrace
 10
79.76105168254355
 20
71.99872122579165
 30
0.0
 11
80.5943850158769
 21
71.99872122579165
 31
0.0
 12
80.17771834921022
 22
74.49872122579165
 32
0.0
 13
80.17771834921022
 23
74.49872122579165
 33
0.0
  0
MTEXT
  5
177C
330
1775
100
AcDbEntity
  8
Dimensions
  6
Continuous
 62
    18
370
    25
100
AcDbMText
 10
75.20903349245713
 20
78.93664462238897
 30
0.0
 40
3.5
 41
0.0
 71
     1
 72
     1
  1
\A1;14,18
  7
Text Style9
 11
0.0000000000000001
 21
1.0
 31
0.0
 73
     1
 44
1.0
1001
ACAD
1000
MTEXTBEGIN
1070
    73
1070
     1
1070
    44
1040
1.0
1070
    74
1070
     0
1000
MTEXTEND
  0
POINT
  5
177D
330
1775
100
AcDbEntity
  8
Defpoints
  6
Continuous
 62
     0
100
AcDbPoint
 10
96.54034355991051
 20
60.32125159213947
 30
0.0
  0
POINT
  5
177E
330
1775
100
AcDbEntity
  8
Defpoints
  6
Continuous
 62
     0
100
AcDbPoint
 10
96.54034355991051
 20
74.49872122579164
 30
0.0
  0
POINT
  5
177F
330
1775
100
AcDbEntity
  8
Defpoints
  6
Continuous
 62
     0
100
AcDbPoint
 10
80.17771834921022
 20
74.49872122579165
 30
0.0
  0
ENDBLK
  5
1781
330
1775
100
AcDbEntity
  8
0
100
AcDbBlockEnd
  0
BLOCK
  5
178D
330
1782
100
AcDbEntity
  8
0
100
AcDbBlockBegin
  2
*D53
 70
     1
 10
0.0
 20
0.0
 30
0.0
  3
*D53
  1

  0
LINE
  5
1783
330
1782
100
AcDbEntity
  8
Dimensions
  6
Continuous
 62
   250
370
    25
100
AcDbLine
 10
126.5403435599105
 20
74.49872122579164
 30
0.0
 11
154.6766055168393
 21
74.49872122579164
 31
0.0
  0
LINE
  5
1784
330
1782
100
AcDbEntity
  8
Dimensions
  6
Continuous
 62
   250
370
    25
100
AcDbLine
 10
126.5403435599105
 20
60.32125159213954
 30
0.0
 11
154.6766055168393
 21
60.32125159213953
 31
0.0
  0
LINE
  5
1785
330
1782
100
AcDbEntity
  8
Dimensions
  6
Continuous
 62
   250
370
    25
100
AcDbLine
 10
151.5016055168393
 20
62.82125159213953
 30
0.0
 11
151.5016055168393
 21
71.99872122579164
 31
0.0
  0
LINE
  5
1786
330
1782
100
AcDbEntity
  8
Dimensions
  6
Continuous
 62
   250
370
    25
100
AcDbLine
 10
151.5016055168393
 20
74.49872122579164
 30
0.0
 11
151.5016055168393
 21
90.85061500004309
 31
0.0
  0
SOLID
  5
1787
330
1782
100
AcDbEntity
  8
Dimensions
  6
Continuous
 62
   250
100
AcDbTrace
 10
151.0849388501727
 20
62.82125159213953
 30
0.0
 11
151.918272183506
 21
62.82125159213953
 31
0.0
 12
151.5016055168393
 22
60.32125159213953
 32
0.0
 13
151.5016055168393
 23
60.32125159213953
 33
0.0
  0
SOLID
  5
1788
330
1782
100
AcDbEntity
  8
Dimensions
  6
Continuous
 62
   250
100
AcDbTrace
 10
151.0849388501727
 20
71.99872122579164
 30
0.0
 11
151.918272183506
 21
71.99872122579164
 31
0.0
 12
151.5016055168393
 22
74.49872122579164
 32
0.0
 13
151.5016055168393
 23
74.49872122579164
 33
0.0
  0
MTEXT
  5
1789
330
1782
100
AcDbEntity
  8
Dimensions
  6
Continuous
 62
    18
370
    25
100
AcDbMText
 10
146.5329206600863
 20
78.60021118012496
 30
0.0
 40
3.5
 41
0.0
 71
     1
 72
     1
  1
\A1;14,18
  7
Text Style9
 11
0.0000000000000001
 21
1.0
 31
0.0
 73
     1
 44
1.0
1001
ACAD
1000
MTEXTBEGIN
1070
    73
1070
     1
1070
    44
1040
1.0
1070
    74
1070
     0
1000
MTEXTEND
  0
POINT
  5
178A
330
1782
100
AcDbEntity
  8
Defpoints
  6
Continuous
 62
     0
100
AcDbPoint
 10
126.5403435599105
 20
74.49872122579164
 30
0.0
  0
POINT
  5
178B
330
1782
100
AcDbEntity
  8
Defpoints
  6
Continuous
 62
     0
100
AcDbPoint
 10
126.5403435599105
 20
60.32125159213954
 30
0.0
  0
POINT
  5
178C
330
1782
100
AcDbEntity
  8
Defpoints
  6
Continuous
 62
     0
100
AcDbPoint
 10
151.5016055168393
 20
60.32125159213953
 30
0.0
  0
ENDBLK
  5
178E
330
1782
100
AcDbEntity
  8
0
100
AcDbBlockEnd
  0
BLOCK
  5
1795
330
178F
100
AcDbEntity
  8
0
100
AcDbBlockBegin
  2
*D54
 70
     1
 10
0.0
 20
0.0
 30
0.0
  3
*D54
  1

  0
LINE
  5
1790
330
178F
100
AcDbEntity
  8
Dimensions
  6
Continuous
 62
   250
370
    25
100
AcDbLine
 10
111.5403435597225
 20
30.46947688528653
 30
0.0
 11
111.5403435597225
 21
57.99872122579159
 31
0.0
  0
MTEXT
  5
1791
330
178F
100
AcDbEntity
  8
Dimensions
  6
Continuous
 62
    18
370
    25
100
AcDbMText
 10
106.5716587029694
 20
31.23147688528655
 30
0.0
 40
3.5
 41
0.0
 71
     1
 72
     1
  1
\A1;R634,00
  7
Text Style9
 11
0.0000000000000001
 21
1.0
 31
0.0
 73
     1
 44
1.0
1001
ACAD
1000
MTEXTBEGIN
1070
    73
1070
     1
1070
    44
1040
1.0
1070
    74
1070
     0
1000
MTEXTEND
  0
SOLID
  5
1792
330
178F
100
AcDbEntity
  8
Dimensions
  6
Continuous
 62
   250
100
AcDbTrace
 10
111.1236768930558
 20
57.99872122579159
 30
0.0
 11
111.9570102263892
 21
57.99872122579159
 31
0.0
 12
111.5403435597225
 22
60.49872122579159
 32
0.0
 13
111.5403435597225
 23
60.49872122579159
 33
0.0
  0
POINT
  5
1793
330
178F
100
AcDbEntity
  8
Defpoints
  6
Continuous
 62
     0
100
AcDbPoint
 10
111.5403435597225
 20
60.49872122579159
 30
0.0
  0
POINT
  5
1794
330
178F
100
AcDbEntity
  8
Defpoints
  6
Continuous
 62
     0
100
AcDbPoint
 10
111.5403435599105
 20
-573.5012787742085
 30
0.0
  0
ENDBLK
  5
1796
330
178F
100
AcDbEntity
  8
0
100
AcDbBlockEnd
  0
BLOCK
  5
17A2
330
1797
100
AcDbEntity
  8
0
100
AcDbBlockBegin
  2
*D55
 70
     1
 10
0.0
 20
0.0
 30
0.0
  3
*D55
  1

  0
LINE
  5
1798
330
1797
100
AcDbEntity
  8
Dimensions
  6
Continuous
 62
   250
370
    25
100
AcDbLine
 10
126.5403435599317
 20
104.0343512088322
 30
0.0
 11
145.7153435599318
 21
104.0343512088322
 31
0.0
  0
LINE
  5
1799
330
1797
100
AcDbEntity
  8
Dimensions
  6
Continuous
 62
   250
370
    25
100
AcDbLine
 10
126.5403435599317
 20
114.0343512088322
 30
0.0
 11
145.7153435599318
 21
114.0343512088322
 31
0.0
  0
LINE
  5
179A
330
1797
100
AcDbEntity
  8
Dimensions
  6
Continuous
 62
   250
370
    25
100
AcDbLine
 10
142.5403435599318
 20
106.5343512088322
 30
0.0
 11
142.5403435599318
 21
111.5343512088322
 31
0.0
  0
LINE
  5
179B
330
1797
100
AcDbEntity
  8
Dimensions
  6
Continuous
 62
   250
370
    25
100
AcDbLine
 10
142.5403435599318
 20
114.0343512088322
 30
0.0
 11
142.5403435599318
 21
129.5276554380273
 31
0.0
  0
SOLID
  5
179C
330
1797
100
AcDbEntity
  8
Dimensions
  6
Continuous
 62
   250
100
AcDbTrace
 10
142.1236768932651
 20
106.5343512088322
 30
0.0
 11
142.9570102265984
 21
106.5343512088322
 31
0.0
 12
142.5403435599318
 22
104.0343512088322
 32
0.0
 13
142.5403435599318
 23
104.0343512088322
 33
0.0
  0
SOLID
  5
179D
330
1797
100
AcDbEntity
  8
Dimensions
  6
Continuous
 62
   250
100
AcDbTrace
 10
142.1236768932651
 20
111.5343512088322
 30
0.0
 11
142.9570102265984
 21
111.5343512088322
 31
0.0
 12
142.5403435599318
 22
114.0343512088322
 32
0.0
 13
142.5403435599318
 23
114.0343512088322
 33
0.0
  0
MTEXT
  5
179E
330
1797
100
AcDbEntity
  8
Dimensions
  6
Continuous
 62
    18
370
    25
100
AcDbMText
 10
137.5716587031787
 20
117.2963512088322
 30
0.0
 40
3.5
 41
0.0
 71
     1
 72
     1
  1
\A1;10,00
  7
Text Style9
 11
0.0000000000000001
 21
1.0
 31
0.0
 73
     1
 44
1.0
1001
ACAD
1000
MTEXTBEGIN
1070
    73
1070
     1
1070
    44
1040
1.0
1070
    74
1070
     0
1000
MTEXTEND
  0
POINT
  5
179F
330
1797
100
AcDbEntity
  8
Defpoints
  6
Continuous
 62
     0
100
AcDbPoint
 10
126.5403435599317
 20
104.0343512088322
 30
0.0
  0
POINT
  5
17A0
330
1797
100
AcDbEntity
  8
Defpoints
  6
Continuous
 62
     0
100
AcDbPoint
 10
126.5403435599317
 20
114.0343512088322
 30
0.0
  0
POINT
  5
17A1
330
1797
100
AcDbEntity
  8
Defpoints
  6
Continuous
 62
     0
100
AcDbPoint
 10
142.5403435599318
 20
114.0343512088322
 30
0.0
  0
ENDBLK
  5
17A3
330
1797
100
AcDbEntity
  8
0
100
AcDbBlockEnd
  0
BLOCK
  5
17AF
330
17A4
100
AcDbEntity
  8
0
100
AcDbBlockBegin
  2
*D56
 70
     1
 10
0.0
 20
0.0
 30
0.0
  3
*D56
  1

  0
LINE
  5
17A5
330
17A4
100
AcDbEntity
  8
Dimensions
  6
Continuous
 62
   250
370
    25
100
AcDbLine
 10
310.5957635724999
 20
221.3487438912528
 30
0.0
 11
300.675665469072
 21
174.8475454073993
 31
0.0
  0
LINE
  5
17A6
330
17A4
100
AcDbEntity
  8
Dimensions
  6
Continuous
 62
   250
370
    25
100
AcDbLine
 10
223.4472431966993
 20
208.5491994000461
 30
0.0
 11
236.7160107936231
 21
170.7636688808852
 31
0.0
  0
ARC
  5
17A7
330
17A4
100
AcDbEntity
  8
Dimensions
  6
Continuous
 62
   250
370
    25
100
AcDbCircle
 10
275.9623034376628
 20
59.0018207941743
 30
0.0
 40
121.627446889284
100
AcDbArc
 50
79.13532146151936
 51
108.1715247229381
  0
SOLID
  5
17A8
330
17A4
100
AcDbEntity
  8
Dimensions
  6
Continuous
 62
   250
100
AcDbTrace
 10
298.9706062048335
 20
178.8574769166024
 30
0.0
 11
298.8051285674596
 21
178.0407385276592
 31
0.0
 12
301.3380825529763
 22
177.952674810009
 32
0.0
 13
301.3380825529763
 23
177.952674810009
 33
0.0
  0
SOLID
  5
17A9
330
17A4
100
AcDbEntity
  8
Dimensions
  6
Continuous
 62
   250
100
AcDbTrace
 10
238.1652372496726
 20
174.1688316204111
 30
0.0
 11
237.8972280716024
 21
174.9578915198577
 31
0.0
 12
235.6640529622978
 22
173.759334035924
 32
0.0
 13
235.6640529622978
 23
173.759334035924
 33
0.0
  0
MTEXT
  5
17AA
330
17A4
100
AcDbEntity
  8
Dimensions
  6
Continuous
 62
    18
370
    25
100
AcDbMText
 10
259.5785615532616
 20
184.7279252966729
 30
0.0
 40
3.5
 41
0.0
 71
     1
 72
     1
  1
\A1;31,39°
  7
Text Style9
 11
0.9972334876553002
 21
0.074332839975655
 31
0.0
 73
     1
 44
1.0
1001
ACAD
1000
MTEXTBEGIN
1070
    73
1070
     1
1070
    44
1040
1.0
1070
    74
1070
     0
1000
MTEXTEND
  0
POINT
  5
17AB
330
17A4
100
AcDbEntity
  8
Defpoints
  6
Continuous
 62
     0
100
AcDbPoint
 10
275.9623034376628
 20
59.0018207941743
 30
0.0
  0
POINT
  5
17AC
330
17A4
100
AcDbEntity
  8
Defpoints
  6
Continuous
 62
     0
100
AcDbPoint
 10
310.5957635724999
 20
221.3487438912528
 30
0.0
  0
POINT
  5
17AD
330
17A4
100
AcDbEntity
  8
Defpoints
  6
Continuous
 62
     0
100
AcDbPoint
 10
223.4472431966993
 20
208.5491994000461
 30
0.0
  0
POINT
  5
17AE
330
17A4
100
AcDbEntity
  8
Defpoints
  6
Continuous
 62
     0
100
AcDbPoint
 10
279.3127490356005
 20
180.5831119170311
 30
0.0
  0
ENDBLK
  5
17B0
330
17A4
100
AcDbEntity
  8
0
100
AcDbBlockEnd
  0
BLOCK
  5
17BC
330
17B1
100
AcDbEntity
  8
0
100
AcDbBlockBegin
  2
*D57
 70
     1
 10
0.0
 20
0.0
 30
0.0
  3
*D57
  1

  0
LINE
  5
17B2
330
17B1
100
AcDbEntity
  8
Dimensions
  6
Continuous
 62
   250
370
    25
100
AcDbLine
 10
350.7950565604597
 20
205.1042684134507
 30
0.0
 11
347.5137196580901
 21
189.7227573640028
 31
0.0
  0
LINE
  5
17B3
330
17B1
100
AcDbEntity
  8
Dimensions
  6
Continuous
 62
   250
370
    25
100
AcDbLine
 10
341.0151214341296
 20
207.1906214336216
 30
0.0
 11
337.73378453176
 21
191.8091103841737
 31
0.0
  0
LINE
  5
17B4
330
17B1
100
AcDbEntity
  8
Dimensions
  6
Continuous
 62
   250
370
    25
100
AcDbLine
 10
340.8411853972467
 20
194.3926515317408
 30
0.0
 11
345.7311529604118
 21
193.3494750216554
 31
0.0
  0
LINE
  5
17B5
330
17B1
100
AcDbEntity
  8
Dimensions
  6
Continuous
 62
   250
370
    25
100
AcDbLine
 10
348.1761367419943
 20
192.8278867666126
 30
0.0
 11
367.0354186735699
 21
188.8046371941013
 31
0.0
  0
SOLID
  5
17B6
330
17B1
100
AcDbEntity
  8
Dimensions
  6
Continuous
 62
   250
100
AcDbTrace
 10
340.9281167730873
 20
194.8001488286712
 30
0.0
 11
340.7542540214063
 21
193.9851542348104
 31
0.0
 12
338.3962016156643
 22
194.9142397867835
 32
0.0
 13
338.3962016156643
 23
194.9142397867835
 33
0.0
  0
SOLID
  5
17B7
330
17B1
100
AcDbEntity
  8
Dimensions
  6
Continuous
 62
   250
100
AcDbTrace
 10
345.8180843362522
 20
193.7569723185858
 30
0.0
 11
345.6442215845714
 21
192.9419777247249
 31
0.0
 12
348.1761367419943
 22
192.8278867666126
 32
0.0
 13
348.1761367419943
 23
192.8278867666126
 33
0.0
  0
MTEXT
  5
17B8
330
17B1
100
AcDbEntity
  8
Dimensions
  6
Continuous
 62
    18
370
    25
100
AcDbMText
 10
355.6499483849984
 20
196.3139875058877
 30
0.0
 40
3.5
 41
0.0
 71
     1
 72
     1
  1
\A1;40,00
  7
Text Style9
 11
0.9779935126330027
 21
-0.2086353020170859
 31
0.0
 73
     1
 44
1.0
1001
ACAD
1000
MTEXTBEGIN
1070
    73
1070
     1
1070
    44
1040
1.0
1070
    74
1070
     0
1000
MTEXTEND
  0
POINT
  5
17B9
330
17B1
100
AcDbEntity
  8
Defpoints
  6
Continuous
 62
     0
100
AcDbPoint
 10
350.7950565604597
 20
205.1042684134507
 30
0.0
  0
POINT
  5
17BA
330
17B1
100
AcDbEntity
  8
Defpoints
  6
Continuous
 62
     0
100
AcDbPoint
 10
341.0151214341296
 20
207.1906214336216
 30
0.0
  0
POINT
  5
17BB
330
17B1
100
AcDbEntity
  8
Defpoints
  6
Continuous
 62
     0
100
AcDbPoint
 10
338.3962016156643
 20
194.9142397867835
 30
0.0
  0
ENDBLK
  5
17BD
330
17B1
100
AcDbEntity
  8
0
100
AcDbBlockEnd
  0
BLOCK
  5
17C9
330
17BE
100
AcDbEntity
  8
0
100
AcDbBlockBegin
  2
*D58
 70
     1
 10
0.0
 20
0.0
 30
0.0
  3
*D58
  1

  0
LINE
  5
17BF
330
17BE
100
AcDbEntity
  8
Dimensions
  6
Continuous
 62
   250
370
    25
100
AcDbLine
 10
350.7950565604597
 20
205.1042684134507
 30
0.0
 11
385.3789192462116
 21
197.7264948974142
 31
0.0
  0
LINE
  5
17C0
330
17BE
100
AcDbEntity
  8
Dimensions
  6
Continuous
 62
   250
370
    25
100
AcDbLine
 10
352.3598213255878
 20
212.4392197581983
 30
0.0
 11
386.9436840113398
 21
205.0614462421618
 31
0.0
  0
LINE
  5
17C1
330
17BE
100
AcDbEntity
  8
Dimensions
  6
Continuous
 62
   250
370
    25
100
AcDbLine
 10
382.7953780986446
 20
200.833895762901
 30
0.0
 11
383.3169663536872
 21
203.2788795444835
 31
0.0
  0
LINE
  5
17C2
330
17BE
100
AcDbEntity
  8
Dimensions
  6
Continuous
 62
   250
370
    25
100
AcDbLine
 10
383.83855460873
 20
205.723863326066
 30
0.0
 11
387.4485938543772
 21
222.6461910839274
 31
0.0
  0
SOLID
  5
17C3
330
17BE
100
AcDbEntity
  8
Dimensions
  6
Continuous
 62
   250
100
AcDbTrace
 10
382.3878808017141
 20
200.9208271387414
 30
0.0
 11
383.202875395575
 21
200.7469643870606
 31
0.0
 12
382.2737898436018
 22
198.3889119813184
 32
0.0
 13
382.2737898436018
 23
198.3889119813184
 33
0.0
  0
SOLID
  5
17C4
330
17BE
100
AcDbEntity
  8
Dimensions
  6
Continuous
 62
   250
100
AcDbTrace
 10
382.9094690567568
 20
203.365810920324
 30
0.0
 11
383.7244636506177
 21
203.191948168643
 31
0.0
 12
383.83855460873
 22
205.723863326066
 32
0.0
 13
383.83855460873
 23
205.723863326066
 33
0.0
  0
MTEXT
  5
17C5
330
17BE
100
AcDbEntity
  8
Dimensions
  6
Continuous
 62
    18
370
    25
100
AcDbMText
 10
379.9691299091826
 20
211.4008153640141
 30
0.0
 40
3.5
 41
0.0
 71
     1
 72
     1
  1
\A1;30,00
  7
Text Style9
 11
0.2086353020170868
 21
0.9779935126330025
 31
0.0
 73
     1
 44
1.0
1001
ACAD
1000
MTEXTBEGIN
1070
    73
1070
     1
1070
    44
1040
1.0
1070
    74
1070
     0
1000
MTEXTEND
  0
POINT
  5
17C6
330
17BE
100
AcDbEntity
  8
Defpoints
  6
Continuous
 62
     0
100
AcDbPoint
 10
350.7950565604597
 20
205.1042684134507
 30
0.0
  0
POINT
  5
17C7
330
17BE
100
AcDbEntity
  8
Defpoints
  6
Continuous
 62
     0
100
AcDbPoint
 10
352.3598213255878
 20
212.4392197581983
 30
0.0
  0
POINT
  5
17C8
330
17BE
100
AcDbEntity
  8
Defpoints
  6
Continuous
 62
     0
100
AcDbPoint
 10
383.83855460873
 20
205.723863326066
 30
0.0
  0
ENDBLK
  5
17CA
330
17BE
100
AcDbEntity
  8
0
100
AcDbBlockEnd
  0
BLOCK
  5
17D6
330
17CB
100
AcDbEntity
  8
0
100
AcDbBlockBegin
  2
*D59
 70
     1
 10
0.0
 20
0.0
 30
0.0
  3
*D59
  1

  0
LINE
  5
17CC
330
17CB
100
AcDbEntity
  8
Dimensions
  6
Continuous
 62
   250
370
    25
100
AcDbLine
 10
351.6263261911129
 20
212.5956962347105
 30
0.0
 11
352.7182982066124
 21
217.714396362687
 31
0.0
  0
LINE
  5
17CD
330
17CB
100
AcDbEntity
  8
Dimensions
  6
Continuous
 62
   250
370
    25
100
AcDbLine
 10
352.3598213255878
 20
212.4392197581982
 30
0.0
 11
353.4517933410872
 21
217.5579198861743
 31
0.0
  0
LINE
  5
17CE
330
17CB
100
AcDbEntity
  8
Dimensions
  6
Continuous
 62
   250
370
    25
100
AcDbLine
 10
349.6108973411256
 20
215.13085521512
 30
0.0
 11
347.1659135595431
 21
215.6524434701627
 31
0.0
  0
LINE
  5
17CF
330
17CB
100
AcDbEntity
  8
Dimensions
  6
Continuous
 62
   250
370
    25
100
AcDbLine
 10
355.2343600387654
 20
213.9312022285217
 30
0.0
 11
376.1796220641862
 21
209.4629506378379
 31
0.0
  0
SOLID
  5
17D0
330
17CB
100
AcDbEntity
  8
Dimensions
  6
Continuous
 62
   250
100
AcDbTrace
 10
349.6978287169661
 20
215.5383525120504
 30
0.0
 11
349.5239659652852
 21
214.7233579181896
 31
0.0
 12
352.0558811227081
 22
214.6092669600772
 32
0.0
 13
352.0558811227081
 23
214.6092669600772
 33
0.0
  0
SOLID
  5
17D1
330
17CB
100
AcDbEntity
  8
Dimensions
  6
Continuous
 62
   250
100
AcDbTrace
 10
355.3212914146059
 20
214.3386995254521
 30
0.0
 11
355.1474286629249
 21
213.5237049315913
 31
0.0
 12
352.7893762571829
 22
214.4527904835644
 32
0.0
 13
352.7893762571829
 23
214.4527904835644
 33
0.0
  0
MTEXT
  5
17D2
330
17CB
100
AcDbEntity
  8
Dimensions
  6
Continuous
 62
    18
370
    25
100
AcDbMText
 10
367.5937082393013
 20
216.3750717238982
 30
0.0
 40
3.5
 41
0.0
 71
     1
 72
     1
  1
\A1;3,00
  7
Text Style9
 11
0.9779935126330014
 21
-0.2086353020170919
 31
0.0
 73
     1
 44
1.0
1001
ACAD
1000
MTEXTBEGIN
1070
    73
1070
     1
1070
    44
1040
1.0
1070
    74
1070
     0
1000
MTEXTEND
  0
POINT
  5
17D3
330
17CB
100
AcDbEntity
  8
Defpoints
  6
Continuous
 62
     0
100
AcDbPoint
 10
351.6263261911129
 20
212.5956962347105
 30
0.0
  0
POINT
  5
17D4
330
17CB
100
AcDbEntity
  8
Defpoints
  6
Continuous
 62
     0
100
AcDbPoint
 10
352.3598213255878
 20
212.4392197581982
 30
0.0
  0
POINT
  5
17D5
330
17CB
100
AcDbEntity
  8
Defpoints
  6
Continuous
 62
     0
100
AcDbPoint
 10
352.7893762571829
 20
214.4527904835644
 30
0.0
  0
ENDBLK
  5
17D7
330
17CB
100
AcDbEntity
  8
0
100
AcDbBlockEnd
  0
BLOCK
  5
17E3
330
17D8
100
AcDbEntity
  8
0
100
AcDbBlockBegin
  2
*D60
 70
     1
 10
0.0
 20
0.0
 30
0.0
  3
*D60
  1

  0
LINE
  5
17D9
330
17D8
100
AcDbEntity
  8
Dimensions
  6
Continuous
 62
   250
370
    25
100
AcDbLine
 10
304.3390430995744
 20
110.6813426810668
 30
0.0
 11
297.8818168283225
 21
61.5935880702982
 31
0.0
  0
LINE
  5
17DA
330
17D8
100
AcDbEntity
  8
Dimensions
  6
Continuous
 62
   250
370
    25
100
AcDbLine
 10
230.1740996856045
 20
95.64657596553626
 30
0.0
 11
244.093287472238
 21
56.00884088034959
 31
0.0
  0
ARC
  5
17DB
330
17D8
100
AcDbEntity
  8
Dimensions
  6
Continuous
 62
   250
370
    25
100
AcDbCircle
 10
282.6891599265677
 20
-53.90080264033664
 30
0.0
 40
119.6643604985245
100
AcDbArc
 50
83.70311189478409
 51
108.1522037517041
  0
SOLID
  5
17DC
330
17D8
100
AcDbEntity
  8
Dimensions
  6
Continuous
 62
   250
100
AcDbTrace
 10
295.8640098459439
 20
65.45526538276982
 30
0.0
 11
295.7639621752504
 21
64.62795956988486
 31
0.0
 12
298.295903449252
 22
64.74146946424667
 32
0.0
 13
298.295903449252
 23
64.74146946424667
 33
0.0
  0
SOLID
  5
17DD
330
17D8
100
AcDbEntity
  8
Dimensions
  6
Continuous
 62
   250
100
AcDbTrace
 10
245.5425829370092
 20
59.41358189617398
 30
0.0
 11
245.2747068039925
 21
60.20268697270336
 31
0.0
 12
243.0413296409128
 22
59.00450603538835
 32
0.0
 13
243.0413296409128
 23
59.00450603538835
 33
0.0
  0
MTEXT
  5
17DE
330
17D8
100
AcDbEntity
  8
Dimensions
  6
Continuous
 62
    18
370
    25
100
AcDbMText
 10
265.8366124616344
 20
69.78720183585217
 30
0.0
 40
3.5
 41
0.0
 71
     1
 72
     1
  1
\A1;26,84°
  7
Text Style9
 11
0.9968716678755479
 21
0.0790371924287775
 31
0.0
 73
     1
 44
1.0
1001
ACAD
1000
MTEXTBEGIN
1070
    73
1070
     1
1070
    44
1040
1.0
1070
    74
1070
     0
1000
MTEXTEND
  0
POINT
  5
17DF
330
17D8
100
AcDbEntity
  8
Defpoints
  6
Continuous
 62
     0
100
AcDbPoint
 10
282.6891599265677
 20
-53.90080264033664
 30
0.0
  0
POINT
  5
17E0
330
17D8
100
AcDbEntity
  8
Defpoints
  6
Continuous
 62
     0
100
AcDbPoint
 10
304.3390430995744
 20
110.6813426810668
 30
0.0
  0
POINT
  5
17E1
330
17D8
100
AcDbEntity
  8
Defpoints
  6
Continuous
 62
     0
100
AcDbPoint
 10
230.1740996856045
 20
95.64657596553626
 30
0.0
  0
POINT
  5
17E2
330
17D8
100
AcDbEntity
  8
Defpoints
  6
Continuous
 62
     0
100
AcDbPoint
 10
261.084335412525
 20
63.79707640273811
 30
0.0
  0
ENDBLK
  5
17E4
330
17D8
100
AcDbEntity
  8
0
100
AcDbBlockEnd
  0
BLOCK
  5
17F0
330
17E5
100
AcDbEntity
  8
0
100
AcDbBlockBegin
  2
*D61
 70
     1
 10
0.0
 20
0.0
 30
0.0
  3
*D61
  1

  0
LINE
  5
17E6
330
17E5
100
AcDbEntity
  8
Dimensions
  6
Continuous
 62
   250
370
    25
100
AcDbLine
 10
349.1166686831659
 20
97.22647879941698
 30
0.0
 11
385.9741461067989
 21
92.37807875751011
 31
0.0
  0
LINE
  5
17E7
330
17E5
100
AcDbEntity
  8
Dimensions
  6
Continuous
 62
   250
370
    25
100
AcDbLine
 10
350.0948260554403
 20
104.6624191000827
 30
0.0
 11
386.9523034790733
 21
99.81401905817586
 31
0.0
  0
LINE
  5
17E8
330
17E5
100
AcDbEntity
  8
Dimensions
  6
Continuous
 62
   250
370
    25
100
AcDbLine
 10
383.1523171702751
 20
95.27081214532822
 30
0.0
 11
383.4783696277
 21
97.7494589122168
 31
0.0
  0
LINE
  5
17E9
330
17E5
100
AcDbEntity
  8
Dimensions
  6
Continuous
 62
   250
370
    25
100
AcDbLine
 10
383.8044220851248
 20
100.2281056791053
 30
0.0
 11
385.8677322113122
 21
115.9133638542946
 31
0.0
  0
SOLID
  5
17EA
330
17E5
100
AcDbEntity
  8
Dimensions
  6
Continuous
 62
   250
100
AcDbTrace
 10
382.7392093757937
 20
95.32515422156569
 30
0.0
 11
383.5654249647566
 21
95.21647006909075
 31
0.0
 12
382.8262647128503
 22
92.79216537843963
 32
0.0
 13
382.8262647128503
 23
92.79216537843963
 33
0.0
  0
SOLID
  5
17EB
330
17E5
100
AcDbEntity
  8
Dimensions
  6
Continuous
 62
   250
100
AcDbTrace
 10
383.0652618332185
 20
97.80380098845427
 30
0.0
 11
383.8914774221814
 21
97.69511683597933
 31
0.0
 12
383.8044220851248
 22
100.2281056791053
 32
0.0
 13
383.8044220851248
 23
100.2281056791053
 33
0.0
  0
MTEXT
  5
17EC
330
17E5
100
AcDbEntity
  8
Dimensions
  6
Continuous
 62
    18
370
    25
100
AcDbMText
 10
379.3036094692209
 20
104.1102647436271
 30
0.0
 40
3.5
 41
0.0
 71
     1
 72
     1
  1
\A1;30,00
  7
Text Style9
 11
0.1304209829699236
 21
0.9914587067554345
 31
0.0
 73
     1
 44
1.0
1001
ACAD
1000
MTEXTBEGIN
1070
    73
1070
     1
1070
    44
1040
1.0
1070
    74
1070
     0
1000
MTEXTEND
  0
POINT
  5
17ED
330
17E5
100
AcDbEntity
  8
Defpoints
  6
Continuous
 62
     0
100
AcDbPoint
 10
349.1166686831659
 20
97.22647879941698
 30
0.0
  0
POINT
  5
17EE
330
17E5
100
AcDbEntity
  8
Defpoints
  6
Continuous
 62
     0
100
AcDbPoint
 10
350.0948260554403
 20
104.6624191000827
 30
0.0
  0
POINT
  5
17EF
330
17E5
100
AcDbEntity
  8
Defpoints
  6
Continuous
 62
     0
100
AcDbPoint
 10
383.8044220851248
 20
100.2281056791053
 30
0.0
  0
ENDBLK
  5
17F1
330
17E5
100
AcDbEntity
  8
0
100
AcDbBlockEnd
  0
BLOCK
  5
17FD
330
17F2
100
AcDbEntity
  8
0
100
AcDbBlockBegin
  2
*D62
 70
     1
 10
0.0
 20
0.0
 30
0.0
  3
*D62
  1

  0
LINE
  5
17F3
330
17F2
100
AcDbEntity
  8
Dimensions
  6
Continuous
 62
   250
370
    25
100
AcDbLine
 10
349.1166686831659
 20
97.22647879941703
 30
0.0
 11
346.4474876054469
 21
76.93539711034772
 31
0.0
  0
LINE
  5
17F4
330
17F2
100
AcDbEntity
  8
Dimensions
  6
Continuous
 62
   250
370
    25
100
AcDbLine
 10
339.2020816156116
 20
98.53068862911619
 30
0.0
 11
336.5329005378926
 21
78.23960694004691
 31
0.0
  0
LINE
  5
17F5
330
17F2
100
AcDbEntity
  8
Dimensions
  6
Continuous
 62
   250
370
    25
100
AcDbLine
 10
339.4256339257107
 20
81.06143587657061
 30
0.0
 11
344.3829274594878
 21
80.40933096172102
 31
0.0
  0
LINE
  5
17F6
330
17F2
100
AcDbEntity
  8
Dimensions
  6
Continuous
 62
   250
370
    25
100
AcDbLine
 10
346.8615742263764
 20
80.08327850429621
 30
0.0
 11
362.6888558179498
 21
78.0012859726356
 31
0.0
  0
SOLID
  5
17F7
330
17F2
100
AcDbEntity
  8
Dimensions
  6
Continuous
 62
   250
100
AcDbTrace
 10
339.4799760019481
 20
81.47454367105204
 30
0.0
 11
339.3712918494732
 21
80.64832808208917
 31
0.0
 12
336.9469871588221
 22
81.38748833399541
 32
0.0
 13
336.9469871588221
 23
81.38748833399541
 33
0.0
  0
SOLID
  5
17F8
330
17F2
100
AcDbEntity
  8
Dimensions
  6
Continuous
 62
   250
100
AcDbTrace
 10
344.4372695357253
 20
80.82243875620244
 30
0.0
 11
344.3285853832504
 21
79.99622316723957
 31
0.0
 12
346.8615742263764
 22
80.08327850429621
 32
0.0
 13
346.8615742263764
 23
80.08327850429621
 33
0.0
  0
MTEXT
  5
17F9
330
17F2
100
AcDbEntity
  8
Dimensions
  6
Continuous
 62
    18
370
    25
100
AcDbMText
 10
350.7437332908984
 20
84.58409112020003
 30
0.0
 40
3.5
 41
0.0
 71
     1
 72
     1
  1
\A1;40,00
  7
Text Style9
 11
0.991458706755435
 21
-0.13042098296992
 31
0.0
 73
     1
 44
1.0
1001
ACAD
1000
MTEXTBEGIN
1070
    73
1070
     1
1070
    44
1040
1.0
1070
    74
1070
     0
1000
MTEXTEND
  0
POINT
  5
17FA
330
17F2
100
AcDbEntity
  8
Defpoints
  6
Continuous
 62
     0
100
AcDbPoint
 10
349.1166686831659
 20
97.22647879941703
 30
0.0
  0
POINT
  5
17FB
330
17F2
100
AcDbEntity
  8
Defpoints
  6
Continuous
 62
     0
100
AcDbPoint
 10
339.2020816156116
 20
98.53068862911619
 30
0.0
  0
POINT
  5
17FC
330
17F2
100
AcDbEntity
  8
Defpoints
  6
Continuous
 62
     0
100
AcDbPoint
 10
336.9469871588221
 20
81.38748833399541
 30
0.0
  0
ENDBLK
  5
17FE
330
17F2
100
AcDbEntity
  8
0
100
AcDbBlockEnd
  0
BLOCK
  5
180A
330
17FF
100
AcDbEntity
  8
0
100
AcDbBlockBegin
  2
*D63
 70
     1
 10
0.0
 20
0.0
 30
0.0
  3
*D63
  1

  0
LINE
  5
1800
330
17FF
100
AcDbEntity
  8
Dimensions
  6
Continuous
 62
   250
370
    25
100
AcDbLine
 10
349.3512320253736
 20
104.7602348373097
 30
0.0
 11
349.9415059821759
 21
109.247490189292
 31
0.0
  0
LINE
  5
1801
330
17FF
100
AcDbEntity
  8
Dimensions
  6
Continuous
 62
   250
370
    25
100
AcDbLine
 10
350.0948260554403
 20
104.6624191000827
 30
0.0
 11
350.6851000122425
 21
109.1496744520645
 31
0.0
  0
LINE
  5
1802
330
17FF
100
AcDbEntity
  8
Dimensions
  6
Continuous
 62
   250
370
    25
100
AcDbLine
 10
347.0487725943578
 20
106.4256612527683
 30
0.0
 11
344.5701258274693
 21
106.7517137101931
 31
0.0
  0
LINE
  5
1803
330
17FF
100
AcDbEntity
  8
Dimensions
  6
Continuous
 62
   250
370
    25
100
AcDbLine
 10
352.7496601582016
 20
105.6757406006912
 30
0.0
 11
373.732736501313
 21
102.9155314021081
 31
0.0
  0
SOLID
  5
1804
330
17FF
100
AcDbEntity
  8
Dimensions
  6
Continuous
 62
   250
100
AcDbTrace
 10
347.1031146705953
 20
106.8387690472497
 30
0.0
 11
346.9944305181203
 21
106.0125534582869
 31
0.0
 12
349.5274193612464
 22
106.0996087953435
 32
0.0
 13
349.5274193612464
 23
106.0996087953435
 33
0.0
  0
SOLID
  5
1805
330
17FF
100
AcDbEntity
  8
Dimensions
  6
Continuous
 62
   250
100
AcDbTrace
 10
352.8040022344391
 20
106.0888483951726
 30
0.0
 11
352.6953180819641
 21
105.2626328062097
 31
0.0
 12
350.271013391313
 22
106.001793058116
 32
0.0
 13
350.271013391313
 23
106.001793058116
 33
0.0
  0
MTEXT
  5
1806
330
17FF
100
AcDbEntity
  8
Dimensions
  6
Continuous
 62
    18
370
    25
100
AcDbMText
 10
364.6257152449978
 20
109.1249998136335
 30
0.0
 40
3.5
 41
0.0
 71
     1
 72
     1
  1
\A1;3,00
  7
Text Style9
 11
0.9914587067554339
 21
-0.1304209829699288
 31
0.0
 73
     1
 44
1.0
1001
ACAD
1000
MTEXTBEGIN
1070
    73
1070
     1
1070
    44
1040
1.0
1070
    74
1070
     0
1000
MTEXTEND
  0
POINT
  5
1807
330
17FF
100
AcDbEntity
  8
Defpoints
  6
Continuous
 62
     0
100
AcDbPoint
 10
349.3512320253736
 20
104.7602348373097
 30
0.0
  0
POINT
  5
1808
330
17FF
100
AcDbEntity
  8
Defpoints
  6
Continuous
 62
     0
100
AcDbPoint
 10
350.0948260554403
 20
104.6624191000827
 30
0.0
  0
POINT
  5
1809
330
17FF
100
AcDbEntity
  8
Defpoints
  6
Continuous
 62
     0
100
AcDbPoint
 10
350.271013391313
 20
106.001793058116
 30
0.0
  0
ENDBLK
  5
180B
330
17FF
100
AcDbEntity
  8
0
100
AcDbBlockEnd
  0
BLOCK
  5
1818
330
180C
100
AcDbEntity
  8
0
100
AcDbBlockBegin
  2
*D64
 70
     1
 10
0.0
 20
0.0
 30
0.0
  3
*D64
  1

  0
LINE
  5
180D
330
180C
100
AcDbEntity
  8
Dimensions
  6
Continuous
 62
   250
370
    25
100
AcDbLine
 10
251.6737904995202
 20
214.36472061023
 30
0.0
 11
253.5013120006354
 21
202.674871972211
 31
0.0
  0
LINE
  5
180E
330
180C
100
AcDbEntity
  8
Dimensions
  6
Continuous
 62
   250
370
    25
100
AcDbLine
 10
235.7784911079461
 20
218.7761107367373
 30
0.0
 11
240.4936775092792
 21
200.0281245317869
 31
0.0
  0
ARC
  5
180F
330
180C
100
AcDbEntity
  8
Dimensions
  6
Continuous
 62
   250
370
    25
100
AcDbCircle
 10
275.9623034376625
 20
59.00182079417518
 30
0.0
 40
148.5931617650996
100
AcDbArc
 50
96.95739653689223
 51
97.92137857038529
  0
ARC
  5
1810
330
180C
100
AcDbEntity
  8
Dimensions
  6
Continuous
 62
   250
370
    25
100
AcDbCircle
 10
275.9623034376625
 20
59.00182079417518
 30
0.0
 40
148.5931617650996
100
AcDbArc
 50
105.0812801490211
 51
106.0452621825142
  0
SOLID
  5
1811
330
180C
100
AcDbEntity
  8
Dimensions
  6
Continuous
 62
   250
100
AcDbTrace
 10
255.5449595233633
 20
205.7649297439007
 30
0.0
 11
255.4231751835288
 21
206.5893161939443
 31
0.0
 12
253.0109080033152
 22
205.8117699494191
 32
0.0
 13
253.0109080033152
 23
205.8117699494191
 33
0.0
  0
SOLID
  5
1812
330
180C
100
AcDbEntity
  8
Dimensions
  6
Continuous
 62
   250
100
AcDbTrace
 10
237.1949655591627
 20
202.8803045978032
 30
0.0
 11
237.4050133523903
 21
202.0738776829469
 31
0.0
 12
239.7192702003454
 22
203.1072345200579
 32
0.0
 13
239.7192702003454
 23
203.1072345200579
 33
0.0
  0
MTEXT
  5
1813
330
180C
100
AcDbEntity
  8
Dimensions
  6
Continuous
 62
    18
370
    25
100
AcDbMText
 10
224.1922152676316
 20
203.6836957421568
 30
0.0
 40
3.5
 41
0.0
 71
     1
 72
     1
  1
\A1;5,23°
  7
Text Style9
 11
0.953259671546756
 21
0.3021522771758817
 31
0.0
 73
     1
 44
1.0
1001
ACAD
1000
MTEXTBEGIN
1070
    73
1070
     1
1070
    44
1040
1.0
1070
    74
1070
     0
1000
MTEXTEND
  0
POINT
  5
1814
330
180C
100
AcDbEntity
  8
Defpoints
  6
Continuous
 62
     0
100
AcDbPoint
 10
275.9623034376625
 20
59.00182079417518
 30
0.0
  0
POINT
  5
1815
330
180C
100
AcDbEntity
  8
Defpoints
  6
Continuous
 62
     0
100
AcDbPoint
 10
251.6737904995202
 20
214.36472061023
 30
0.0
  0
POINT
  5
1816
330
180C
100
AcDbEntity
  8
Defpoints
  6
Continuous
 62
     0
100
AcDbPoint
 10
235.7784911079461
 20
218.7761107367373
 30
0.0
  0
POINT
  5
1817
330
180C
100
AcDbEntity
  8
Defpoints
  6
Continuous
 62
     0
100
AcDbPoint
 10
248.5536017493486
 20
205.0452759543093
 30
0.0
  0
ENDBLK
  5
1819
330
180C
100
AcDbEntity
  8
0
100
AcDbBlockEnd
  0
BLOCK
  5
1820
330
181A
100
AcDbEntity
  8
0
100
AcDbBlockBegin
  2
*D65
 70
     1
 10
0.0
 20
0.0
 30
0.0
  3
*D65
  1

  0
LINE
  5
181B
330
181A
100
AcDbEntity
  8
Dimensions
  6
Continuous
 62
   250
370
    25
100
AcDbLine
 10
270.6852953174893
 20
189.9957765152643
 30
0.0
 11
269.683035768002
 21
214.875393915255
 31
0.0
  0
MTEXT
  5
181C
330
181A
100
AcDbEntity
  8
Dimensions
  6
Continuous
 62
    18
370
    25
100
AcDbMText
 10
274.9000773423779
 20
208.8103437104797
 30
0.0
 40
3.5
 41
0.0
 71
     1
 72
     1
  1
\A1;R634,00
  7
Text Style9
 11
0.0402517158311651
 21
-0.9991895712889757
 31
0.0
 73
     1
 44
1.0
1001
ACAD
1000
MTEXTBEGIN
1070
    73
1070
     1
1070
    44
1040
1.0
1070
    74
1070
     0
1000
MTEXTEND
  0
SOLID
  5
181D
330
181A
100
AcDbEntity
  8
Dimensions
  6
Continuous
 62
   250
100
AcDbTrace
 10
270.0993647560391
 20
214.892165463518
 30
0.0
 11
269.2667067799649
 21
214.858622366992
 31
0.0
 12
269.5824064784241
 22
217.3733678434774
 32
0.0
 13
269.5824064784241
 23
217.3733678434774
 33
0.0
  0
POINT
  5
181E
330
181A
100
AcDbEntity
  8
Defpoints
  6
Continuous
 62
     0
100
AcDbPoint
 10
269.5824064784241
 20
217.3733678434774
 30
0.0
  0
POINT
  5
181F
330
181A
100
AcDbEntity
  8
Defpoints
  6
Continuous
 62
     0
100
AcDbPoint
 10
275.9623034376636
 20
59.00182079417453
 30
0.0
  0
ENDBLK
  5
1821
330
181A
100
AcDbEntity
  8
0
100
AcDbBlockEnd
  0
BLOCK
  5
182E
330
1822
100
AcDbEntity
  8
0
100
AcDbBlockBegin
  2
*D66
 70
     1
 10
0.0
 20
0.0
 30
0.0
  3
*D66
  1

  0
LINE
  5
1823
330
1822
100
AcDbEntity
  8
Dimensions
  6
Continuous
 62
   250
370
    25
100
AcDbLine
 10
258.4006469884263
 20
101.4620971757201
 30
0.0
 11
260.3197870409316
 21
89.18620509168331
 31
0.0
  0
LINE
  5
1824
330
1822
100
AcDbEntity
  8
Dimensions
  6
Continuous
 62
   250
370
    25
100
AcDbLine
 10
242.5053475968521
 20
105.8734873022274
 30
0.0
 11
247.3652107875633
 21
86.55025375378512
 31
0.0
  0
ARC
  5
1825
330
1822
100
AcDbEntity
  8
Dimensions
  6
Continuous
 62
   250
370
    25
100
AcDbCircle
 10
282.6891599265689
 20
-53.90080264033723
 30
0.0
 40
148.0
100
AcDbArc
 50
96.94966936318579
 51
97.91751498353207
  0
ARC
  5
1826
330
1822
100
AcDbEntity
  8
Dimensions
  6
Continuous
 62
   250
370
    25
100
AcDbCircle
 10
282.6891599265689
 20
-53.90080264033723
 30
0.0
 40
148.0
100
AcDbArc
 50
105.0851437358743
 51
106.0529893562206
  0
SOLID
  5
1827
330
1822
100
AcDbEntity
  8
Dimensions
  6
Continuous
 62
   250
100
AcDbTrace
 10
262.3634329829475
 20
92.27617742492387
 30
0.0
 11
262.2416764383242
 21
93.1005679805987
 31
0.0
 12
259.8293830436114
 22
92.32310306889143
 32
0.0
 13
259.8293830436114
 23
92.32310306889143
 33
0.0
  0
SOLID
  5
1828
330
1822
100
AcDbEntity
  8
Dimensions
  6
Continuous
 62
   250
100
AcDbTrace
 10
244.0665064900862
 20
89.40234871008199
 30
0.0
 11
244.2765814728098
 21
88.59592887768814
 31
0.0
 12
246.5908034786294
 22
89.62936374205607
 32
0.0
 13
246.5908034786294
 23
89.62936374205607
 33
0.0
  0
MTEXT
  5
1829
330
1822
100
AcDbEntity
  8
Dimensions
  6
Continuous
 62
    18
370
    25
100
AcDbMText
 10
231.0633050913878
 20
90.20310393066507
 30
0.0
 40
3.5
 41
0.0
 71
     1
 72
     1
  1
\A1;5,23°
  7
Text Style9
 11
0.9531862769038321
 21
0.3023837322380476
 31
0.0
 73
     1
 44
1.0
1001
ACAD
1000
MTEXTBEGIN
1070
    73
1070
     1
1070
    44
1040
1.0
1070
    74
1070
     0
1000
MTEXTEND
  0
POINT
  5
182A
330
1822
100
AcDbEntity
  8
Defpoints
  6
Continuous
 62
     0
100
AcDbPoint
 10
282.6891599265689
 20
-53.90080264033723
 30
0.0
  0
POINT
  5
182B
330
1822
100
AcDbEntity
  8
Defpoints
  6
Continuous
 62
     0
100
AcDbPoint
 10
258.4006469884263
 20
101.4620971757201
 30
0.0
  0
POINT
  5
182C
330
1822
100
AcDbEntity
  8
Defpoints
  6
Continuous
 62
     0
100
AcDbPoint
 10
242.5053475968521
 20
105.8734873022274
 30
0.0
  0
POINT
  5
182D
330
1822
100
AcDbEntity
  8
Defpoints
  6
Continuous
 62
     0
100
AcDbPoint
 10
255.3898696921834
 20
91.55966880362166
 30
0.0
  0
ENDBLK
  5
182F
330
1822
100
AcDbEntity
  8
0
100
AcDbBlockEnd
  0
BLOCK
  5
1836
330
1830
100
AcDbEntity
  8
0
100
AcDbBlockBegin
  2
*D67
 70
     1
 10
0.0
 20
0.0
 30
0.0
  3
*D67
  1

  0
LINE
  5
1831
330
1830
100
AcDbEntity
  8
Dimensions
  6
Continuous
 62
   250
370
    25
100
AcDbLine
 10
272.1987047695689
 20
79.79659934665654
 30
0.0
 11
270.4862567261119
 21
101.6211866521125
 31
0.0
  0
MTEXT
  5
1832
330
1830
100
AcDbEntity
  8
Dimensions
  6
Continuous
 62
    18
370
    25
100
AcDbMText
 10
275.6948825166849
 20
98.75785108332133
 30
0.0
 40
3.5
 41
0.0
 71
     1
 72
     1
  1
\A1;R634,00
  7
Text Style9
 11
0.0782237384644684
 21
-0.9969358287977428
 31
0.0
 73
     1
 44
1.0
1001
ACAD
1000
MTEXTBEGIN
1070
    73
1070
     1
1070
    44
1040
1.0
1070
    74
1070
     0
1000
MTEXTEND
  0
SOLID
  5
1833
330
1830
100
AcDbEntity
  8
Dimensions
  6
Continuous
 62
   250
100
AcDbTrace
 10
270.9016466547776
 20
101.6537798764727
 30
0.0
 11
270.0708667974461
 21
101.5885934277523
 31
0.0
 12
270.2906973799507
 22
104.1135262241069
 32
0.0
 13
270.2906973799507
 23
104.1135262241069
 33
0.0
  0
POINT
  5
1834
330
1830
100
AcDbEntity
  8
Defpoints
  6
Continuous
 62
     0
100
AcDbPoint
 10
270.2906973799507
 20
104.1135262241069
 30
0.0
  0
POINT
  5
1835
330
1830
100
AcDbEntity
  8
Defpoints
  6
Continuous
 62
     0
100
AcDbPoint
 10
282.689159926569
 20
-53.90080264033546
 30
0.0
  0
ENDBLK
  5
1837
330
1830
100
AcDbEntity
  8
0
100
AcDbBlockEnd
  0
BLOCK
  5
183E
330
1838
100
AcDbEntity
  8
0
100
AcDbBlockBegin
  2
*D68
 70
     1
 10
0.0
 20
0.0
 30
0.0
  3
*D68
  1

  0
LINE
  5
1839
330
1838
100
AcDbEntity
  8
Dimensions
  6
Continuous
 62
   250
370
    25
100
AcDbLine
 10
225.7629218318233
 20
69.84777570822171
 30
0.0
 11
216.4493039169105
 21
90.0940982270905
 31
0.0
  0
MTEXT
  5
183A
330
1838
100
AcDbEntity
  8
Dimensions
  6
Continuous
 62
    18
370
    25
100
AcDbMText
 10
222.4912424359811
 20
88.8490504073418
 30
0.0
 40
3.5
 41
0.0
 71
     1
 72
     1
  1
\A1;R644,00
  7
Text Style9
 11
0.4179170726161358
 21
-0.9084851789742964
 31
0.0
 73
     1
 44
1.0
1001
ACAD
1000
MTEXTBEGIN
1070
    73
1070
     1
1070
    44
1040
1.0
1070
    74
1070
     0
1000
MTEXTEND
  0
SOLID
  5
183B
330
1838
100
AcDbEntity
  8
Dimensions
  6
Continuous
 62
   250
100
AcDbTrace
 10
216.8278394081498
 20
90.26823034068055
 30
0.0
 11
216.0707684256713
 21
89.91996611350044
 31
0.0
 12
215.4045112353702
 22
92.36531117452623
 32
0.0
 13
215.4045112353702
 23
92.36531117452623
 33
0.0
  0
POINT
  5
183C
330
1838
100
AcDbEntity
  8
Defpoints
  6
Continuous
 62
     0
100
AcDbPoint
 10
215.4045112353702
 20
92.36531117452623
 30
0.0
  0
POINT
  5
183D
330
1838
100
AcDbEntity
  8
Defpoints
  6
Continuous
 62
     0
100
AcDbPoint
 10
282.6891599265679
 20
-53.90080264033539
 30
0.0
  0
ENDBLK
  5
183F
330
1838
100
AcDbEntity
  8
0
100
AcDbBlockEnd
  0
BLOCK
  5
1846
330
1840
100
AcDbEntity
  8
0
100
AcDbBlockBegin
  2
*D69
 70
     1
 10
0.0
 20
0.0
 30
0.0
  3
*D69
  1

  0
LINE
  5
1841
330
1840
100
AcDbEntity
  8
Dimensions
  6
Continuous
 62
   250
370
    25
100
AcDbLine
 10
220.2386463327672
 20
183.057258797572
 30
0.0
 11
211.0176884886785
 21
203.5855231576436
 31
0.0
  0
MTEXT
  5
1842
330
1840
100
AcDbEntity
  8
Dimensions
  6
Continuous
 62
    18
370
    25
100
AcDbMText
 10
217.1376639645549
 20
202.0871362173727
 30
0.0
 40
3.5
 41
0.0
 71
     1
 72
     1
  1
\A1;R644,00
  7
Text Style9
 11
0.4097452047254546
 21
-0.912200014911475
 31
0.0
 73
     1
 44
1.0
1001
ACAD
1000
MTEXTBEGIN
1070
    73
1070
     1
1070
    44
1040
1.0
1070
    74
1070
     0
1000
MTEXTEND
  0
SOLID
  5
1843
330
1840
100
AcDbEntity
  8
Dimensions
  6
Continuous
 62
   250
100
AcDbTrace
 10
211.3977718282249
 20
203.7562503262792
 30
0.0
 11
210.637605149132
 21
203.414795989008
 31
0.0
 12
209.9933254768649
 22
205.8660231949223
 32
0.0
 13
209.9933254768649
 23
205.8660231949223
 33
0.0
  0
POINT
  5
1844
330
1840
100
AcDbEntity
  8
Defpoints
  6
Continuous
 62
     0
100
AcDbPoint
 10
209.9933254768649
 20
205.8660231949223
 30
0.0
  0
POINT
  5
1845
330
1840
100
AcDbEntity
  8
Defpoints
  6
Continuous
 62
     0
100
AcDbPoint
 10
275.9623034376631
 20
59.00182079417446
 30
0.0
  0
ENDBLK
  5
1847
330
1840
100
AcDbEntity
  8
0
100
AcDbBlockEnd
  0
BLOCK
  5
1853
330
1848
100
AcDbEntity
  8
0
100
AcDbBlockBegin
  2
*D70
 70
     1
 10
0.0
 20
0.0
 30
0.0
  3
*D70
  1

  0
LINE
  5
1849
330
1848
100
AcDbEntity
  8
Dimensions
  6
Continuous
 62
   250
370
    25
100
AcDbLine
 10
97.44529894847682
 20
251.0356763132055
 30
0.0
 11
97.44529894847682
 21
277.4267519078878
 31
0.0
  0
LINE
  5
184A
330
1848
100
AcDbEntity
  8
Dimensions
  6
Continuous
 62
   250
370
    25
100
AcDbLine
 10
111.4452989484768
 20
251.0356763132055
 30
0.0
 11
111.4452989484768
 21
277.4267519078878
 31
0.0
  0
LINE
  5
184B
330
1848
100
AcDbEntity
  8
Dimensions
  6
Continuous
 62
   250
370
    25
100
AcDbLine
 10
108.9452989484768
 20
274.2517519078877
 30
0.0
 11
99.94529894847682
 21
274.2517519078877
 31
0.0
  0
LINE
  5
184C
330
1848
100
AcDbEntity
  8
Dimensions
  6
Continuous
 62
   250
370
    25
100
AcDbLine
 10
97.44529894847682
 20
274.2517519078877
 30
0.0
 11
79.07098378227407
 21
274.2517519078877
 31
0.0
  0
SOLID
  5
184D
330
1848
100
AcDbEntity
  8
Dimensions
  6
Continuous
 62
   250
100
AcDbTrace
 10
108.9452989484768
 20
274.6684185745544
 30
0.0
 11
108.9452989484768
 21
273.8350852412211
 31
0.0
 12
111.4452989484768
 22
274.2517519078877
 32
0.0
 13
111.4452989484768
 23
274.2517519078877
 33
0.0
  0
SOLID
  5
184E
330
1848
100
AcDbEntity
  8
Dimensions
  6
Continuous
 62
   250
100
AcDbTrace
 10
99.94529894847682
 20
274.6684185745544
 30
0.0
 11
99.94529894847682
 21
273.8350852412211
 31
0.0
 12
97.44529894847682
 22
274.2517519078877
 32
0.0
 13
97.44529894847682
 23
274.2517519078877
 33
0.0
  0
MTEXT
  5
184F
330
1848
100
AcDbEntity
  8
Dimensions
  6
Continuous
 62
    18
370
    25
100
AcDbMText
 10
79.83298378227408
 20
279.2204367646409
 30
0.0
 40
3.5
 41
0.0
 71
     1
 72
     1
  1
\A1;14,00
  7
Text Style9
 73
     1
 44
1.0
1001
ACAD
1000
MTEXTBEGIN
1070
    73
1070
     1
1070
    44
1040
1.0
1070
    74
1070
     0
1000
MTEXTEND
  0
POINT
  5
1850
330
1848
100
AcDbEntity
  8
Defpoints
  6
Continuous
 62
     0
100
AcDbPoint
 10
97.44529894847682
 20
251.0356763132055
 30
0.0
  0
POINT
  5
1851
330
1848
100
AcDbEntity
  8
Defpoints
  6
Continuous
 62
     0
100
AcDbPoint
 10
111.4452989484768
 20
251.0356763132055
 30
0.0
  0
POINT
  5
1852
330
1848
100
AcDbEntity
  8
Defpoints
  6
Continuous
 62
     0
100
AcDbPoint
 10
111.4452989484768
 20
274.2517519078877
 30
0.0
  0
ENDBLK
  5
1854
330
1848
100
AcDbEntity
  8
0
100
AcDbBlockEnd
  0
BLOCK
  5
1860
330
1855
100
AcDbEntity
  8
0
100
AcDbBlockBegin
  2
*D71
 70
     1
 10
0.0
 20
0.0
 30
0.0
  3
*D71
  1

  0
LINE
  5
1856
330
1855
100
AcDbEntity
  8
Dimensions
  6
Continuous
 62
   250
370
    25
100
AcDbLine
 10
111.4452989484768
 20
251.0356763132055
 30
0.0
 11
111.4452989484768
 21
277.4267519078878
 31
0.0
  0
LINE
  5
1857
330
1855
100
AcDbEntity
  8
Dimensions
  6
Continuous
 62
   250
370
    25
100
AcDbLine
 10
119.4452989484768
 20
258.0356763132055
 30
0.0
 11
119.4452989484768
 21
277.4267519078878
 31
0.0
  0
LINE
  5
1858
330
1855
100
AcDbEntity
  8
Dimensions
  6
Continuous
 62
   250
370
    25
100
AcDbLine
 10
113.9452989484768
 20
274.2517519078877
 30
0.0
 11
116.9452989484768
 21
274.2517519078877
 31
0.0
  0
LINE
  5
1859
330
1855
100
AcDbEntity
  8
Dimensions
  6
Continuous
 62
   250
370
    25
100
AcDbLine
 10
119.4452989484768
 20
274.2517519078877
 30
0.0
 11
133.5654851582519
 21
274.2517519078877
 31
0.0
  0
SOLID
  5
185A
330
1855
100
AcDbEntity
  8
Dimensions
  6
Continuous
 62
   250
100
AcDbTrace
 10
113.9452989484768
 20
274.6684185745544
 30
0.0
 11
113.9452989484768
 21
273.8350852412211
 31
0.0
 12
111.4452989484768
 22
274.2517519078877
 32
0.0
 13
111.4452989484768
 23
274.2517519078877
 33
0.0
  0
SOLID
  5
185B
330
1855
100
AcDbEntity
  8
Dimensions
  6
Continuous
 62
   250
100
AcDbTrace
 10
116.9452989484768
 20
274.6684185745544
 30
0.0
 11
116.9452989484768
 21
273.8350852412211
 31
0.0
 12
119.4452989484768
 22
274.2517519078877
 32
0.0
 13
119.4452989484768
 23
274.2517519078877
 33
0.0
  0
MTEXT
  5
185C
330
1855
100
AcDbEntity
  8
Dimensions
  6
Continuous
 62
    18
370
    25
100
AcDbMText
 10
123.7192423205984
 20
279.2204367646409
 30
0.0
 40
3.5
 41
0.0
 71
     1
 72
     1
  1
\A1;8,00
  7
Text Style9
 73
     1
 44
1.0
1001
ACAD
1000
MTEXTBEGIN
1070
    73
1070
     1
1070
    44
1040
1.0
1070
    74
1070
     0
1000
MTEXTEND
  0
POINT
  5
185D
330
1855
100
AcDbEntity
  8
Defpoints
  6
Continuous
 62
     0
100
AcDbPoint
 10
111.4452989484768
 20
251.0356763132055
 30
0.0
  0
POINT
  5
185E
330
1855
100
AcDbEntity
  8
Defpoints
  6
Continuous
 62
     0
100
AcDbPoint
 10
119.4452989484768
 20
258.0356763132055
 30
0.0
  0
POINT
  5
185F
330
1855
100
AcDbEntity
  8
Defpoints
  6
Continuous
 62
     0
100
AcDbPoint
 10
119.4452989484768
 20
274.2517519078877
 30
0.0
  0
ENDBLK
  5
1861
330
1855
100
AcDbEntity
  8
0
100
AcDbBlockEnd
  0
BLOCK
  5
186D
330
1862
100
AcDbEntity
  8
0
100
AcDbBlockBegin
  2
*D72
 70
     1
 10
0.0
 20
0.0
 30
0.0
  3
*D72
  1

  0
LINE
  5
1863
330
1862
100
AcDbEntity
  8
Dimensions
  6
Continuous
 62
   250
370
    25
100
AcDbLine
 10
111.4452989484768
 20
251.0356763132055
 30
0.0
 11
142.2285686055078
 21
251.0356763132055
 31
0.0
  0
LINE
  5
1864
330
1862
100
AcDbEntity
  8
Dimensions
  6
Continuous
 62
   250
370
    25
100
AcDbLine
 10
119.4452989484768
 20
258.0356763132055
 30
0.0
 11
142.2285686055078
 21
258.0356763132054
 31
0.0
  0
LINE
  5
1865
330
1862
100
AcDbEntity
  8
Dimensions
  6
Continuous
 62
   250
370
    25
100
AcDbLine
 10
139.0535686055078
 20
253.5356763132055
 30
0.0
 11
139.0535686055078
 21
255.5356763132055
 31
0.0
  0
LINE
  5
1866
330
1862
100
AcDbEntity
  8
Dimensions
  6
Continuous
 62
   250
370
    25
100
AcDbLine
 10
139.0535686055078
 20
258.0356763132054
 30
0.0
 11
139.0535686055078
 21
272.3151815163862
 31
0.0
  0
SOLID
  5
1867
330
1862
100
AcDbEntity
  8
Dimensions
  6
Continuous
 62
   250
100
AcDbTrace
 10
138.6369019388412
 20
253.5356763132055
 30
0.0
 11
139.4702352721745
 21
253.5356763132055
 31
0.0
 12
139.0535686055078
 22
251.0356763132055
 32
0.0
 13
139.0535686055078
 23
251.0356763132055
 33
0.0
  0
SOLID
  5
1868
330
1862
100
AcDbEntity
  8
Dimensions
  6
Continuous
 62
   250
100
AcDbTrace
 10
138.6369019388412
 20
255.5356763132055
 30
0.0
 11
139.4702352721745
 21
255.5356763132055
 31
0.0
 12
139.0535686055078
 22
258.0356763132054
 32
0.0
 13
139.0535686055078
 23
258.0356763132054
 33
0.0
  0
MTEXT
  5
1869
330
1862
100
AcDbEntity
  8
Dimensions
  6
Continuous
 62
    18
370
    25
100
AcDbMText
 10
134.0848837487548
 20
262.5023629624981
 30
0.0
 40
3.5
 41
0.0
 71
     1
 72
     1
  1
\A1;7,00
  7
Text Style9
 11
0.0000000000000001
 21
1.0
 31
0.0
 73
     1
 44
1.0
1001
ACAD
1000
MTEXTBEGIN
1070
    73
1070
     1
1070
    44
1040
1.0
1070
    74
1070
     0
1000
MTEXTEND
  0
POINT
  5
186A
330
1862
100
AcDbEntity
  8
Defpoints
  6
Continuous
 62
     0
100
AcDbPoint
 10
111.4452989484768
 20
251.0356763132055
 30
0.0
  0
POINT
  5
186B
330
1862
100
AcDbEntity
  8
Defpoints
  6
Continuous
 62
     0
100
AcDbPoint
 10
119.4452989484768
 20
258.0356763132055
 30
0.0
  0
POINT
  5
186C
330
1862
100
AcDbEntity
  8
Defpoints
  6
Continuous
 62
     0
100
AcDbPoint
 10
139.0535686055078
 20
258.0356763132054
 30
0.0
  0
ENDBLK
  5
186E
330
1862
100
AcDbEntity
  8
0
100
AcDbBlockEnd
  0
BLOCK
  5
187A
330
186F
100
AcDbEntity
  8
0
100
AcDbBlockBegin
  2
*D73
 70
     1
 10
0.0
 20
0.0
 30
0.0
  3
*D73
  1

  0
LINE
  5
1870
330
186F
100
AcDbEntity
  8
Dimensions
  6
Continuous
 62
   250
370
    25
100
AcDbLine
 10
151.6925106831322
 20
211.1171307852008
 30
0.0
 11
171.2168210945022
 21
211.1171307852008
 31
0.0
  0
LINE
  5
1871
330
186F
100
AcDbEntity
  8
Dimensions
  6
Continuous
 62
   250
370
    25
100
AcDbLine
 10
158.6925106831321
 20
219.1171307852008
 30
0.0
 11
171.2168210945022
 21
219.1171307852008
 31
0.0
  0
LINE
  5
1872
330
186F
100
AcDbEntity
  8
Dimensions
  6
Continuous
 62
   250
370
    25
100
AcDbLine
 10
168.0418210945022
 20
216.6171307852007
 30
0.0
 11
168.0418210945022
 21
213.6171307852007
 31
0.0
  0
LINE
  5
1873
330
186F
100
AcDbEntity
  8
Dimensions
  6
Continuous
 62
   250
370
    25
100
AcDbLine
 10
168.0418210945022
 20
211.1171307852008
 30
0.0
 11
168.0418210945022
 21
196.4007191649274
 31
0.0
  0
SOLID
  5
1874
330
186F
100
AcDbEntity
  8
Dimensions
  6
Continuous
 62
   250
100
AcDbTrace
 10
167.6251544278355
 20
216.6171307852007
 30
0.0
 11
168.4584877611689
 21
216.6171307852007
 31
0.0
 12
168.0418210945022
 22
219.1171307852008
 32
0.0
 13
168.0418210945022
 23
219.1171307852008
 33
0.0
  0
SOLID
  5
1875
330
186F
100
AcDbEntity
  8
Dimensions
  6
Continuous
 62
   250
100
AcDbTrace
 10
167.6251544278355
 20
213.6171307852007
 30
0.0
 11
168.4584877611689
 21
213.6171307852007
 31
0.0
 12
168.0418210945022
 22
211.1171307852008
 32
0.0
 13
168.0418210945022
 23
211.1171307852008
 33
0.0
  0
MTEXT
  5
1876
330
186F
100
AcDbEntity
  8
Dimensions
  6
Continuous
 62
    18
370
    25
100
AcDbMText
 10
163.0731362377491
 20
197.1627191649274
 30
0.0
 40
3.5
 41
0.0
 71
     1
 72
     1
  1
\A1;8,00
  7
Text Style9
 11
0.0000000000000001
 21
1.0
 31
0.0
 73
     1
 44
1.0
1001
ACAD
1000
MTEXTBEGIN
1070
    73
1070
     1
1070
    44
1040
1.0
1070
    74
1070
     0
1000
MTEXTEND
  0
POINT
  5
1877
330
186F
100
AcDbEntity
  8
Defpoints
  6
Continuous
 62
     0
100
AcDbPoint
 10
151.6925106831322
 20
211.1171307852008
 30
0.0
  0
POINT
  5
1878
330
186F
100
AcDbEntity
  8
Defpoints
  6
Continuous
 62
     0
100
AcDbPoint
 10
158.6925106831321
 20
219.1171307852008
 30
0.0
  0
POINT
  5
1879
330
186F
100
AcDbEntity
  8
Defpoints
  6
Continuous
 62
     0
100
AcDbPoint
 10
168.0418210945022
 20
219.1171307852008
 30
0.0
  0
ENDBLK
  5
187B
330
186F
100
AcDbEntity
  8
0
100
AcDbBlockEnd
  0
BLOCK
  5
1887
330
187C
100
AcDbEntity
  8
0
100
AcDbBlockBegin
  2
*D74
 70
     1
 10
0.0
 20
0.0
 30
0.0
  3
*D74
  1

  0
LINE
  5
187D
330
187C
100
AcDbEntity
  8
Dimensions
  6
Continuous
 62
   250
370
    25
100
AcDbLine
 10
151.6925106831322
 20
211.1171307852008
 30
0.0
 11
151.6925106831322
 21
228.6329485569127
 31
0.0
  0
LINE
  5
187E
330
187C
100
AcDbEntity
  8
Dimensions
  6
Continuous
 62
   250
370
    25
100
AcDbLine
 10
158.6925106831321
 20
219.1171307852008
 30
0.0
 11
158.6925106831321
 21
228.6329485569127
 31
0.0
  0
LINE
  5
187F
330
187C
100
AcDbEntity
  8
Dimensions
  6
Continuous
 62
   250
370
    25
100
AcDbLine
 10
154.1925106831322
 20
225.4579485569127
 30
0.0
 11
156.1925106831321
 21
225.4579485569127
 31
0.0
  0
LINE
  5
1880
330
187C
100
AcDbEntity
  8
Dimensions
  6
Continuous
 62
   250
370
    25
100
AcDbLine
 10
158.6925106831321
 20
225.4579485569127
 30
0.0
 11
179.6577473172063
 21
225.4579485569127
 31
0.0
  0
SOLID
  5
1881
330
187C
100
AcDbEntity
  8
Dimensions
  6
Continuous
 62
   250
100
AcDbTrace
 10
154.1925106831322
 20
225.8746152235793
 30
0.0
 11
154.1925106831322
 21
225.041281890246
 31
0.0
 12
151.6925106831322
 22
225.4579485569127
 32
0.0
 13
151.6925106831322
 23
225.4579485569127
 33
0.0
  0
SOLID
  5
1882
330
187C
100
AcDbEntity
  8
Dimensions
  6
Continuous
 62
   250
100
AcDbTrace
 10
156.1925106831321
 20
225.8746152235793
 30
0.0
 11
156.1925106831321
 21
225.041281890246
 31
0.0
 12
158.6925106831321
 22
225.4579485569127
 32
0.0
 13
158.6925106831321
 23
225.4579485569127
 33
0.0
  0
MTEXT
  5
1883
330
187C
100
AcDbEntity
  8
Dimensions
  6
Continuous
 62
    18
370
    25
100
AcDbMText
 10
169.8449287633182
 20
230.4266334136657
 30
0.0
 40
3.5
 41
0.0
 71
     1
 72
     1
  1
\A1;7,00
  7
Text Style9
 73
     1
 44
1.0
1001
ACAD
1000
MTEXTBEGIN
1070
    73
1070
     1
1070
    44
1040
1.0
1070
    74
1070
     0
1000
MTEXTEND
  0
POINT
  5
1884
330
187C
100
AcDbEntity
  8
Defpoints
  6
Continuous
 62
     0
100
AcDbPoint
 10
151.6925106831322
 20
211.1171307852008
 30
0.0
  0
POINT
  5
1885
330
187C
100
AcDbEntity
  8
Defpoints
  6
Continuous
 62
     0
100
AcDbPoint
 10
158.6925106831321
 20
219.1171307852008
 30
0.0
  0
POINT
  5
1886
330
187C
100
AcDbEntity
  8
Defpoints
  6
Continuous
 62
     0
100
AcDbPoint
 10
158.6925106831321
 20
225.4579485569127
 30
0.0
  0
ENDBLK
  5
1888
330
187C
100
AcDbEntity
  8
0
100
AcDbBlockEnd
  0
BLOCK
  5
1894
330
1889
100
AcDbEntity
  8
0
100
AcDbBlockBegin
  2
*D75
 70
     1
 10
0.0
 20
0.0
 30
0.0
  3
*D75
  1

  0
LINE
  5
188A
330
1889
100
AcDbEntity
  8
Dimensions
  6
Continuous
 62
   250
370
    25
100
AcDbLine
 10
104.5403435599105
 20
67.49872122579147
 30
0.0
 11
104.5403435599105
 21
83.48221178291586
 31
0.0
  0
LINE
  5
188B
330
1889
100
AcDbEntity
  8
Dimensions
  6
Continuous
 62
   250
370
    25
100
AcDbLine
 10
118.5403435599105
 20
67.49872122579161
 30
0.0
 11
118.5403435599105
 21
83.48221178291586
 31
0.0
  0
LINE
  5
188C
330
1889
100
AcDbEntity
  8
Dimensions
  6
Continuous
 62
   250
370
    25
100
AcDbLine
 10
107.0403435599105
 20
80.30721178291585
 30
0.0
 11
116.0403435599105
 21
80.30721178291585
 31
0.0
  0
LINE
  5
188D
330
1889
100
AcDbEntity
  8
Dimensions
  6
Continuous
 62
   250
370
    25
100
AcDbLine
 10
118.5403435599105
 20
80.30721178291585
 30
0.0
 11
136.9146587261132
 21
80.30721178291585
 31
0.0
  0
SOLID
  5
188E
330
1889
100
AcDbEntity
  8
Dimensions
  6
Continuous
 62
   250
100
AcDbTrace
 10
107.0403435599105
 20
80.72387844958253
 30
0.0
 11
107.0403435599105
 21
79.89054511624918
 31
0.0
 12
104.5403435599105
 22
80.30721178291585
 32
0.0
 13
104.5403435599105
 23
80.30721178291585
 33
0.0
  0
SOLID
  5
188F
330
1889
100
AcDbEntity
  8
Dimensions
  6
Continuous
 62
   250
100
AcDbTrace
 10
116.0403435599105
 20
80.72387844958253
 30
0.0
 11
116.0403435599105
 21
79.89054511624918
 31
0.0
 12
118.5403435599105
 22
80.30721178291585
 32
0.0
 13
118.5403435599105
 23
80.30721178291585
 33
0.0
  0
MTEXT
  5
1890
330
1889
100
AcDbEntity
  8
Dimensions
  6
Continuous
 62
    18
370
    25
100
AcDbMText
 10
124.6833544969181
 20
85.27589663966892
 30
0.0
 40
3.5
 41
0.0
 71
     1
 72
     1
  1
\A1;14,00
  7
Text Style9
 73
     1
 44
1.0
1001
ACAD
1000
MTEXTBEGIN
1070
    73
1070
     1
1070
    44
1040
1.0
1070
    74
1070
     0
1000
MTEXTEND
  0
POINT
  5
1891
330
1889
100
AcDbEntity
  8
Defpoints
  6
Continuous
 62
     0
100
AcDbPoint
 10
104.5403435599105
 20
67.49872122579147
 30
0.0
  0
POINT
  5
1892
330
1889
100
AcDbEntity
  8
Defpoints
  6
Continuous
 62
     0
100
AcDbPoint
 10
118.5403435599105
 20
67.49872122579161
 30
0.0
  0
POINT
  5
1893
330
1889
100
AcDbEntity
  8
Defpoints
  6
Continuous
 62
     0
100
AcDbPoint
 10
118.5403435599105
 20
80.30721178291585
 30
0.0
  0
ENDBLK
  5
1895
330
1889
100
AcDbEntity
  8
0
100
AcDbBlockEnd
  0
BLOCK
  5
18A0
330
1896
100
AcDbEntity
  8
0
100
AcDbBlockBegin
  2
*D76
 70
     1
 10
0.0
 20
0.0
 30
0.0
  3
*D76
  1

  0
LINE
  5
1897
330
1896
100
AcDbEntity
  8
Dimensions
  6
Continuous
 62
   250
370
    25
100
AcDbLine
 10
96.54034355993175
 20
114.0343512088322
 30
0.0
 11
96.54034355993175
 21
123.1813579700695
 31
0.0
  0
LINE
  5
1898
330
1896
100
AcDbEntity
  8
Dimensions
  6
Continuous
 62
   250
370
    25
100
AcDbLine
 10
126.5403435599317
 20
114.0343512088322
 30
0.0
 11
126.5403435599317
 21
123.1813579700695
 31
0.0
  0
LINE
  5
1899
330
1896
100
AcDbEntity
  8
Dimensions
  6
Continuous
 62
   250
370
    25
100
AcDbLine
 10
99.04034355993175
 20
120.0063579700695
 30
0.0
 11
124.0403435599317
 21
120.0063579700695
 31
0.0
  0
SOLID
  5
189A
330
1896
100
AcDbEntity
  8
Dimensions
  6
Continuous
 62
   250
100
AcDbTrace
 10
99.04034355993175
 20
120.4230246367361
 30
0.0
 11
99.04034355993175
 21
119.5896913034028
 31
0.0
 12
96.54034355993175
 22
120.0063579700695
 32
0.0
 13
96.54034355993175
 23
120.0063579700695
 33
0.0
  0
SOLID
  5
189B
330
1896
100
AcDbEntity
  8
Dimensions
  6
Continuous
 62
   250
100
AcDbTrace
 10
124.0403435599317
 20
120.4230246367361
 30
0.0
 11
124.0403435599317
 21
119.5896913034028
 31
0.0
 12
126.5403435599317
 22
120.0063579700695
 32
0.0
 13
126.5403435599317
 23
120.0063579700695
 33
0.0
  0
MTEXT
  5
189C
330
1896
100
AcDbEntity
  8
Dimensions
  6
Continuous
 62
    18
370
    25
100
AcDbMText
 10
105.9042684124292
 20
124.9750428268225
 30
0.0
 40
3.5
 41
0.0
 71
     1
 72
     1
  1
\A1;30,00
  7
Text Style9
 73
     1
 44
1.0
1001
ACAD
1000
MTEXTBEGIN
1070
    73
1070
     1
1070
    44
1040
1.0
1070
    74
1070
     0
1000
MTEXTEND
  0
POINT
  5
189D
330
1896
100
AcDbEntity
  8
Defpoints
  6
Continuous
 62
     0
100
AcDbPoint
 10
96.54034355993175
 20
114.0343512088322
 30
0.0
  0
POINT
  5
189E
330
1896
100
AcDbEntity
  8
Defpoints
  6
Continuous
 62
     0
100
AcDbPoint
 10
126.5403435599317
 20
114.0343512088322
 30
0.0
  0
POINT
  5
189F
330
1896
100
AcDbEntity
  8
Defpoints
  6
Continuous
 62
     0
100
AcDbPoint
 10
126.5403435599317
 20
120.0063579700695
 30
0.0
  0
ENDBLK
  5
18A1
330
1896
100
AcDbEntity
  8
0
100
AcDbBlockEnd
  0
ENDSEC
  0
SECTION
  2
ENTITIES
  0
INSERT
  5
122
330
21
100
AcDbEntity
  8
2dTransBorder
100
AcDbBlockReference
  2
Borders Default Border
 10
0.0
 20
0.0
 30
0.0
  0
INSERT
  5
147
330
21
100
AcDbEntity
  8
2dTransTitleBlock
100
AcDbBlockReference
 66
     1
  2
Title Blocks ISO
 10
325.0
 20
24.363022921185
 30
0.0
  0
ATTRIB
  5
149
330
147
100
AcDbEntity
  8
2dTransTitleBlock
100
AcDbText
 10
362.5
 20
22.40503706205006
 30
0.0
 40
5.003799796104431
  1

  7
Current-ISO
 72
     1
 11
362.5
 21
24.90693696010227
 31
0.0
100
AcDbAttribute
  2
TITLE
 70
     0
 74
     2
  0
ATTRIB
  5
14A
330
147
100
AcDbEntity
  8
2dTransTitleBlock
100
AcDbText
 10
313.9063783434167
 20
13.25000002980232
 30
0.0
 40
3.499999940395355
  1
adjustersandattachment
  7
Current-ISO
 72
     1
 11
340.0
 21
15.0
 31
0.0
100
AcDbAttribute
  2
PART_NUMBER
 70
     0
 74
     2
  0
ATTRIB
  5
14B
330
147
100
AcDbEntity
  8
2dTransTitleBlock
100
AcDbText
 10
277.4584918089563
 20
17.29131447524974
 30
0.0
 40
5.003799796104431
  1

  7
Current-ISO
 72
     1
 11
277.4584918089563
 21
19.79321437330195
 31
0.0
100
AcDbAttribute
  2
COMPANY
 70
     0
 74
     2
  0
ATTRIB
  5
14C
330
147
100
AcDbEntity
  8
2dTransTitleBlock
100
AcDbText
 10
240.5
 20
31.23691185020003
 30
0.0
 40
2.489199936389923
  1
mihara
  7
Current-ISO
 11
240.5
 21
30.50000000000001
 31
0.0
100
AcDbAttribute
  2
AUTHOR
 70
     0
 74
     1
  0
ATTRIB
  5
14D
330
147
100
AcDbEntity
  8
2dTransTitleBlock
100
AcDbText
 10
272.3237301391505
 20
30.8843721287325
 30
0.0
 40
2.489199936389923
  1

  7
Current-ISO
 11
272.3237301391505
 21
30.14746027853247
 31
0.0
100
AcDbAttribute
  2
CHECKED_BY
 70
     0
 74
     1
  0
ATTRIB
  5
14E
330
147
100
AcDbEntity
  8
2dTransTitleBlock
100
AcDbText
 10
297.5
 20
31.06064198946629
 30
0.0
 40
2.489199936389923
  1

  7
Current-ISO
 11
297.5
 21
30.32373013926627
 31
0.0
100
AcDbAttribute
  2
ENG_APPROVED_BY
 70
     0
 74
     1
  0
ATTRIB
  5
14F
330
147
100
AcDbEntity
  8
2dTransTitleBlock
100
AcDbText
 10
334.4501062276157
 20
31.0137570781239
 30
0.0
 40
2.489199936389923
  1

  7
Current-ISO
 72
     2
 11
334.4501062276157
 21
30.27684522792388
 31
0.0
100
AcDbAttribute
  2
ENG_APPROVAL_DATE
 70
     0
 74
     1
  0
ATTRIB
  5
150
330
147
100
AcDbEntity
  8
2dTransTitleBlock
100
AcDbText
 10
360.7342793249953
 20
31.00263252765834
 30
0.0
 40
2.489199936389923
  1
2004/11/11
  7
Current-ISO
 11
360.7342793249953
 21
30.26572067745832
 31
0.0
100
AcDbAttribute
  2
CREATION_DATE
 70
     0
 74
     1
  0
ATTRIB
  5
151
330
147
100
AcDbEntity
  8
2dTransTitleBlock
100
AcDbText
 10
382.3465312428707
 20
11.95823446647772
 30
0.0
 40
3.499999940395355
  1

  7
Current-ISO
 72
     1
 11
382.3465312428707
 21
13.70823443667539
 31
0.0
100
AcDbAttribute
  2
REVISION_NUMBER
 70
     0
 74
     2
  0
ATTRIB
  5
152
330
147
100
AcDbEntity
  8
2dTransTitleBlock
100
AcDbText
 10
393.7269041292272
 20
12.53692439223227
 30
0.0
 40
2.489199936389923
  1
1 
  7
Current-ISO
 72
     1
 11
395.1769564796208
 21
13.78152436042723
 31
0.0
100
AcDbAttribute
  2
Sheet_number
 70
     0
 74
     2
  0
ATTRIB
  5
153
330
147
100
AcDbEntity
  8
2dTransTitleBlock
100
AcDbText
 10
403.6752575223968
 20
12.59363095235244
 30
0.0
 40
2.489199936389923
  1
1 
  7
Current-ISO
 72
     1
 11
405.1253098727904
 21
13.8382309205474
 31
0.0
100
AcDbAttribute
  2
Number_of_sheets
 70
     0
 74
     2
  0
SEQEND
  5
148
330
147
100
AcDbEntity
  8
2dTransTitleBlock
  0
LINE
  5
154
330
21
100
AcDbEntity
  8
Visible Edges
  6
Continuous
 48
0.0
370
    50
100
AcDbLine
 10
119.4452989484454
 20
180.1171307852007
 30
0.0
 11
84.44529894844547
 21
180.1171307852007
 31
0.0
  0
LINE
  5
155
330
21
100
AcDbEntity
  8
Visible Edges
  6
Continuous
 48
0.0
370
    50
100
AcDbLine
 10
79.44529894844544
 20
185.1171307852007
 30
0.0
 11
79.44529894844544
 21
219.1171307852008
 31
0.0
  0
ARC
  5
156
330
21
100
AcDbEntity
  8
Visible Edges
  6
Continuous
 48
0.0
370
    50
100
AcDbCircle
 10
84.44529894844547
 20
185.1171307852007
 30
0.0
 40
5.000000000000008
100
AcDbArc
 50
180.0
 51
270.0
  0
LINE
  5
157
330
21
100
AcDbEntity
  8
Visible Edges
  6
Continuous
 48
0.0
370
    50
100
AcDbLine
 10
119.4452989484454
 20
180.1171307852007
 30
0.0
 11
119.4452989484453
 21
170.1171307852007
 31
0.0
  0
LINE
  5
158
330
21
100
AcDbEntity
  8
Visible Edges
  6
Continuous
 48
0.0
370
    50
100
AcDbLine
 10
79.44529894844544
 20
219.1171307852008
 30
0.0
 11
69.44529894844544
 21
219.1171307852008
 31
0.0
  0
LINE
  5
159
330
21
100
AcDbEntity
  8
Visible Edges
  6
Continuous
 48
0.0
370
    50
100
AcDbLine
 10
69.44529894844544
 20
219.1171307852008
 30
0.0
 11
69.44529894844544
 21
170.1171307852007
 31
0.0
  0
LINE
  5
15A
330
21
100
AcDbEntity
  8
Visible Edges
  6
Continuous
 48
0.0
370
    50
100
AcDbLine
 10
69.44529894844544
 20
170.1171307852007
 30
0.0
 11
119.4452989484453
 21
170.1171307852007
 31
0.0
  0
LINE
  5
15B
330
21
100
AcDbEntity
  8
Hidden Edges
  6
DASHED
 48
24.17794990539551
370
    35
100
AcDbLine
 10
79.44529894844544
 20
207.1171307852007
 30
0.0
 11
69.44529894844544
 21
207.1171307852007
 31
0.0
  0
LINE
  5
15C
330
21
100
AcDbEntity
  8
Hidden Edges
  6
DASHED
 48
24.17794990539551
370
    35
100
AcDbLine
 10
79.44529894844544
 20
215.1171307852008
 30
0.0
 11
69.44529894844544
 21
215.1171307852008
 31
0.0
  0
LINE
  5
15D
330
21
100
AcDbEntity
  8
Hidden Edges
  6
DASHED
 48
24.17794990539551
370
    35
100
AcDbLine
 10
69.44529894844544
 20
207.1171307852007
 30
0.0
 11
79.44529894844544
 21
207.1171307852007
 31
0.0
  0
LINE
  5
15E
330
21
100
AcDbEntity
  8
Hidden Edges
  6
DASHED
 48
24.17794990539551
370
    35
100
AcDbLine
 10
79.44529894844544
 20
215.1171307852008
 30
0.0
 11
69.44529894844544
 21
215.1171307852008
 31
0.0
  0
LINE
  5
15F
330
21
100
AcDbEntity
  8
Hidden Edges
  6
DASHED
 48
24.17794990539551
370
    35
100
AcDbLine
 10
114.4452989484454
 20
180.1171307852007
 30
0.0
 11
114.4452989484454
 21
170.1171307852007
 31
0.0
  0
LINE
  5
160
330
21
100
AcDbEntity
  8
Hidden Edges
  6
DASHED
 48
24.17794990539551
370
    35
100
AcDbLine
 10
108.4452989484454
 20
180.1171307852007
 30
0.0
 11
108.4452989484454
 21
170.1171307852007
 31
0.0
  0
LINE
  5
161
330
21
100
AcDbEntity
  8
Hidden Edges
  6
DASHED
 48
24.17794990539551
370
    35
100
AcDbLine
 10
100.4452989484454
 20
180.1171307852007
 30
0.0
 11
100.4452989484454
 21
170.1171307852007
 31
0.0
  0
LINE
  5
162
330
21
100
AcDbEntity
  8
Hidden Edges
  6
DASHED
 48
24.17794990539551
370
    35
100
AcDbLine
 10
94.4452989484454
 20
180.1171307852007
 30
0.0
 11
94.4452989484454
 21
170.1171307852007
 31
0.0
  0
LINE
  5
163
330
21
100
AcDbEntity
  8
Hidden Edges
  6
DASHED
 48
24.17794990539551
370
    35
100
AcDbLine
 10
114.4452989484454
 20
170.1171307852007
 30
0.0
 11
114.4452989484454
 21
180.1171307852007
 31
0.0
  0
LINE
  5
164
330
21
100
AcDbEntity
  8
Hidden Edges
  6
DASHED
 48
24.17794990539551
370
    35
100
AcDbLine
 10
108.4452989484454
 20
180.1171307852007
 30
0.0
 11
108.4452989484454
 21
170.1171307852007
 31
0.0
  0
LINE
  5
165
330
21
100
AcDbEntity
  8
Hidden Edges
  6
DASHED
 48
24.17794990539551
370
    35
100
AcDbLine
 10
100.4452989484454
 20
170.1171307852007
 30
0.0
 11
100.4452989484454
 21
180.1171307852007
 31
0.0
  0
LINE
  5
166
330
21
100
AcDbEntity
  8
Hidden Edges
  6
DASHED
 48
24.17794990539551
370
    35
100
AcDbLine
 10
94.4452989484454
 20
180.1171307852007
 30
0.0
 11
94.4452989484454
 21
170.1171307852007
 31
0.0
  0
CIRCLE
  5
167
330
21
100
AcDbEntity
  8
Visible Edges
  6
Continuous
 48
0.0
370
    50
100
AcDbCircle
 10
111.4452989484768
 20
251.0356763132055
 30
0.0
 40
3.0
  0
CIRCLE
  5
168
330
21
100
AcDbEntity
  8
Visible Edges
  6
Continuous
 48
0.0
370
    50
100
AcDbCircle
 10
97.44529894847682
 20
251.0356763132055
 30
0.0
 40
3.0
  0
ARC
  5
169
330
21
100
AcDbEntity
  8
Visible Edges
  6
Continuous
 48
0.0
370
    25
100
AcDbCircle
 10
111.4452989484768
 20
251.0356763132055
 30
0.0
 40
2.999999999999963
100
AcDbArc
 50
350.0000000000014
 51
259.9999999999513
  0
ARC
  5
16A
330
21
100
AcDbEntity
  8
Visible Edges
  6
Continuous
 48
0.0
370
    25
100
AcDbCircle
 10
97.4452989484768
 20
251.0356763132055
 30
0.0
 40
2.999999999999964
100
AcDbArc
 50
350.0000000000021
 51
259.9999999999513
  0
LINE
  5
16B
330
21
100
AcDbEntity
  8
Hidden Edges
  6
DASHED
 48
23.36088562011719
370
    35
100
AcDbLine
 10
79.44529894847687
 20
258.0356763132099
 30
0.0
 11
79.44529894847687
 21
243.5425823529152
 31
0.0
  0
LINE
  5
16C
330
21
100
AcDbEntity
  8
Visible Edges
  6
Continuous
 48
0.0
370
    50
100
AcDbLine
 10
119.4452989484768
 20
258.0356763132055
 30
0.0
 11
119.4452989484768
 21
243.8582066795533
 31
0.0
  0
LINE
  5
16D
330
21
100
AcDbEntity
  8
Visible Edges
  6
Continuous
 48
0.0
370
    50
100
AcDbLine
 10
69.44529894847687
 20
258.0356763132055
 30
0.0
 11
119.4452989484768
 21
258.0356763132055
 31
0.0
  0
ARC
  5
16E
330
21
100
AcDbEntity
  8
Visible Edges
  6
Continuous
 48
0.0
370
    50
100
AcDbCircle
 10
104.445298948476
 20
-389.9643236867564
 30
0.0
 40
633.999999999962
100
AcDbArc
 50
88.64429512143674
 51
93.16462502642471
  0
LINE
  5
16F
330
21
100
AcDbEntity
  8
Visible Edges
  6
Continuous
 48
0.0
370
    50
100
AcDbLine
 10
69.44529894847687
 20
243.0688507993457
 30
0.0
 11
69.44529894847687
 21
258.0356763132055
 31
0.0
  0
LINE
  5
170
330
21
100
AcDbEntity
  8
Hidden Edges
  6
DASHED
 48
24.17794990539551
370
    35
100
AcDbLine
 10
79.44529894847686
 20
247.0356763132176
 30
0.0
 11
69.44529894847687
 21
247.0356763132176
 31
0.0
  0
LINE
  5
171
330
21
100
AcDbEntity
  8
Hidden Edges
  6
DASHED
 48
24.17794990539551
370
    35
100
AcDbLine
 10
79.44529894847686
 20
255.0356763132176
 30
0.0
 11
69.44529894847687
 21
255.0356763132176
 31
0.0
  0
LINE
  5
172
330
21
100
AcDbEntity
  8
Hidden Edges
  6
DASHED
 48
24.17794990539551
370
    35
100
AcDbLine
 10
69.44529894847687
 20
247.0356763132176
 30
0.0
 11
79.44529894847686
 21
247.0356763132176
 31
0.0
  0
LINE
  5
173
330
21
100
AcDbEntity
  8
Hidden Edges
  6
DASHED
 48
24.17794990539551
370
    35
100
AcDbLine
 10
79.44529894847686
 20
255.0356763132176
 30
0.0
 11
69.44529894847687
 21
255.0356763132176
 31
0.0
  0
CIRCLE
  5
174
330
21
100
AcDbEntity
  8
Visible Edges
  6
Continuous
 48
0.0
370
    50
100
AcDbCircle
 10
151.6925106831321
 20
211.1171307852007
 30
0.0
 40
4.0
  0
ARC
  5
175
330
21
100
AcDbEntity
  8
Visible Edges
  6
Continuous
 48
0.0
370
    25
100
AcDbCircle
 10
151.6925106831321
 20
211.1171307852008
 30
0.0
 40
3.999999999999973
100
AcDbArc
 50
170.0000000000024
 51
79.99999999995182
  0
LINE
  5
176
330
21
100
AcDbEntity
  8
Hidden Edges
  6
DASHED
 48
23.07468795776367
370
    35
100
AcDbLine
 10
158.6925106831366
 20
180.1171307852007
 30
0.0
 11
144.3769747502305
 21
180.1171307852007
 31
0.0
  0
LINE
  5
177
330
21
100
AcDbEntity
  8
Hidden Edges
  6
DASHED
 48
27.40167617797852
370
    35
100
AcDbLine
 10
144.1994167228404
 20
219.1171307852008
 30
0.0
 11
144.1994167228404
 21
185.1171307852007
 31
0.0
  0
POLYLINE
  5
178
330
21
100
AcDbEntity
  8
Hidden Edges
  6
DASHED
 48
0.0
370
    35
100
AcDb2dPolyline
 66
     1
 10
0.0
 20
0.0
 30
0.0
  0
VERTEX
  5
179
330
178
100
AcDbEntity
  8
Hidden Edges
  6
DASHED
 48
0.0
370
    35
100
AcDbVertex
100
AcDb2dVertex
 10
144.1994076557913
 20
185.1171298315264
 30
0.0
  0
VERTEX
  5
17A
330
178
100
AcDbEntity
  8
Hidden Edges
  6
DASHED
 48
0.0
370
    35
100
AcDbVertex
100
AcDb2dVertex
 10
144.1998272724905
 20
184.8000855734087
 30
0.0
  0
VERTEX
  5
17C
330
178
100
AcDbEntity
  8
Hidden Edges
  6
DASHED
 48
0.0
370
    35
100
AcDbVertex
100
AcDb2dVertex
 10
144.2010861225882
 20
184.4787235548235
 30
0.0
  0
VERTEX
  5
17D
330
178
100
AcDbEntity
  8
Hidden Edges
  6
DASHED
 48
0.0
370
    35
100
AcDbVertex
100
AcDb2dVertex
 10
144.2031460591117
 20
184.1557045271136
 30
0.0
  0
VERTEX
  5
17E
330
178
100
AcDbEntity
  8
Hidden Edges
  6
DASHED
 48
0.0
370
    35
100
AcDbVertex
100
AcDb2dVertex
 10
144.2060452290336
 20
183.8336820890642
 30
0.0
  0
VERTEX
  5
17F
330
178
100
AcDbEntity
  8
Hidden Edges
  6
DASHED
 48
0.0
370
    35
100
AcDbVertex
100
AcDb2dVertex
 10
144.2097836323539
 20
183.5153146078326
 30
0.0
  0
VERTEX
  5
180
330
178
100
AcDbEntity
  8
Hidden Edges
  6
DASHED
 48
0.0
370
    35
100
AcDbVertex
100
AcDb2dVertex
 10
144.2143231221001
 20
183.2032580663897
 30
0.0
  0
VERTEX
  5
181
330
178
100
AcDbEntity
  8
Hidden Edges
  6
DASHED
 48
0.0
370
    35
100
AcDbVertex
100
AcDb2dVertex
 10
144.2196636982719
 20
182.9000253965594
 30
0.0
  0
VERTEX
  5
182
330
178
100
AcDbEntity
  8
Hidden Edges
  6
DASHED
 48
0.0
370
    35
100
AcDbVertex
100
AcDb2dVertex
 10
144.225767213897
 20
182.6075549413897
 30
0.0
  0
VERTEX
  5
183
330
178
100
AcDbEntity
  8
Hidden Edges
  6
DASHED
 48
0.0
370
    35
100
AcDbVertex
100
AcDb2dVertex
 10
144.2324810810846
 20
182.3276396085955
 30
0.0
  0
VERTEX
  5
184
330
178
100
AcDbEntity
  8
Hidden Edges
  6
DASHED
 48
0.0
370
    35
100
AcDbVertex
100
AcDb2dVertex
 10
144.2397290058893
 20
182.0620746900774
 30
0.0
  0
VERTEX
  5
185
330
178
100
AcDbEntity
  8
Hidden Edges
  6
DASHED
 48
0.0
370
    35
100
AcDbVertex
100
AcDb2dVertex
 10
144.2474346943659
 20
181.8126578619219
 30
0.0
  0
VERTEX
  5
186
330
178
100
AcDbEntity
  8
Hidden Edges
  6
DASHED
 48
0.0
370
    35
100
AcDbVertex
100
AcDb2dVertex
 10
144.2555218525691
 20
181.581179647658
 30
0.0
  0
VERTEX
  5
187
330
178
100
AcDbEntity
  8
Hidden Edges
  6
DASHED
 48
0.0
370
    35
100
AcDbVertex
100
AcDb2dVertex
 10
144.2641049214168
 20
181.3644953062273
 30
0.0
  0
VERTEX
  5
188
330
178
100
AcDbEntity
  8
Hidden Edges
  6
DASHED
 48
0.0
370
    35
100
AcDbVertex
100
AcDb2dVertex
 10
144.2732220478817
 20
181.1596365263201
 30
0.0
  0
VERTEX
  5
189
330
178
100
AcDbEntity
  8
Hidden Edges
  6
DASHED
 48
0.0
370
    35
100
AcDbVertex
100
AcDb2dVertex
 10
144.2827969380185
 20
180.9685583402849
 30
0.0
  0
VERTEX
  5
18A
330
178
100
AcDbEntity
  8
Hidden Edges
  6
DASHED
 48
0.0
370
    35
100
AcDbVertex
100
AcDb2dVertex
 10
144.2928295918273
 20
180.7932181646563
 30
0.0
  0
VERTEX
  5
18B
330
178
100
AcDbEntity
  8
Hidden Edges
  6
DASHED
 48
0.0
370
    35
100
AcDbVertex
100
AcDb2dVertex
 10
144.3031292744445
 20
180.6355734159685
 30
0.0
  0
VERTEX
  5
18C
330
178
100
AcDbEntity
  8
Hidden Edges
  6
DASHED
 48
0.0
370
    35
100
AcDbVertex
100
AcDb2dVertex
 10
144.3136959858704
 20
180.4975791265704
 30
0.0
  0
VERTEX
  5
18D
330
178
100
AcDbEntity
  8
Hidden Edges
  6
DASHED
 48
0.0
370
    35
100
AcDbVertex
100
AcDb2dVertex
 10
144.3244152851869
 20
180.3808446218706
 30
0.0
  0
VERTEX
  5
18E
330
178
100
AcDbEntity
  8
Hidden Edges
  6
DASHED
 48
0.0
370
    35
100
AcDbVertex
100
AcDb2dVertex
 10
144.335172731476
 20
180.2855963995196
 30
0.0
  0
VERTEX
  5
18F
330
178
100
AcDbEntity
  8
Hidden Edges
  6
DASHED
 48
0.0
370
    35
100
AcDbVertex
100
AcDb2dVertex
 10
144.3458920307925
 20
180.2117176344134
 30
0.0
  0
VERTEX
  5
190
330
178
100
AcDbEntity
  8
Hidden Edges
  6
DASHED
 48
0.0
370
    35
100
AcDbVertex
100
AcDb2dVertex
 10
144.356496889191
 20
180.1590915014483
 30
0.0
  0
VERTEX
  5
191
330
178
100
AcDbEntity
  8
Hidden Edges
  6
DASHED
 48
0.0
370
    35
100
AcDbVertex
100
AcDb2dVertex
 10
144.3668728657537
 20
180.1276011755206
 30
0.0
  0
VERTEX
  5
192
330
178
100
AcDbEntity
  8
Hidden Edges
  6
DASHED
 48
0.0
370
    35
100
AcDbVertex
100
AcDb2dVertex
 10
144.3769818135077
 20
180.1171298315264
 30
0.0
  0
SEQEND
  5
17B
330
178
100
AcDbEntity
  8
Hidden Edges
  6
DASHED
 48
0.0
370
    35
  0
LINE
  5
193
330
21
100
AcDbEntity
  8
Hidden Edges
  6
DASHED
 48
24.17794990539551
370
    35
100
AcDbLine
 10
144.5150410494948
 20
180.1171307852007
 30
0.0
 11
144.5150410494948
 21
170.1171307852007
 31
0.0
  0
LINE
  5
194
330
21
100
AcDbEntity
  8
Hidden Edges
  6
DASHED
 48
24.17794990539551
370
    35
100
AcDbLine
 10
144.6925106831426
 20
180.1171307852007
 30
0.0
 11
144.6925106831426
 21
170.1171307852007
 31
0.0
  0
LINE
  5
195
330
21
100
AcDbEntity
  8
Visible Edges
  6
Continuous
 48
0.0
370
    50
100
AcDbLine
 10
158.6925106831321
 20
219.1171307852008
 30
0.0
 11
158.6925106831321
 21
170.1171307852007
 31
0.0
  0
LINE
  5
196
330
21
100
AcDbEntity
  8
Visible Edges
  6
Continuous
 48
0.0
370
    50
100
AcDbLine
 10
143.7256851692723
 20
219.1171307852008
 30
0.0
 11
143.7256851692723
 21
170.1171307852007
 31
0.0
  0
LINE
  5
197
330
21
100
AcDbEntity
  8
Visible Edges
  6
Continuous
 48
0.0
370
    50
100
AcDbLine
 10
143.7256851692723
 20
170.1171307852007
 30
0.0
 11
158.6925106831321
 21
170.1171307852007
 31
0.0
  0
LINE
  5
198
330
21
100
AcDbEntity
  8
Visible Edges
  6
Continuous
 48
0.0
370
    50
100
AcDbLine
 10
158.6925106831321
 20
219.1171307852008
 30
0.0
 11
143.7256851692723
 21
219.1171307852008
 31
0.0
  0
LINE
  5
199
330
21
100
AcDbEntity
  8
Hidden Edges
  6
DASHED
 48
24.17794990539551
370
    35
100
AcDbLine
 10
154.6925106831404
 20
180.1171307852007
 30
0.0
 11
154.6925106831404
 21
170.1171307852007
 31
0.0
  0
LINE
  5
19A
330
21
100
AcDbEntity
  8
Hidden Edges
  6
DASHED
 48
24.17794990539551
370
    35
100
AcDbLine
 10
148.6925106831404
 20
180.1171307852007
 30
0.0
 11
148.6925106831404
 21
170.1171307852007
 31
0.0
  0
LINE
  5
19B
330
21
100
AcDbEntity
  8
Hidden Edges
  6
DASHED
 48
24.17794990539551
370
    35
100
AcDbLine
 10
154.6925106831404
 20
170.1171307852007
 30
0.0
 11
154.6925106831404
 21
180.1171307852007
 31
0.0
  0
LINE
  5
19C
330
21
100
AcDbEntity
  8
Hidden Edges
  6
DASHED
 48
24.17794990539551
370
    35
100
AcDbLine
 10
148.6925106831404
 20
180.1171307852007
 30
0.0
 11
148.6925106831404
 21
170.1171307852007
 31
0.0
  0
DIMENSION
  5
19D
330
21
100
AcDbEntity
  8
Dimensions
  6
Continuous
 48
0.0
370
    25
100
AcDbDimension
  2
*D44
 10
46.53437534561168
 20
258.0356763132055
 30
0.0
 11
46.53437534561163
 21
267.038297049904
 31
0.0
 70
   160
  1
<>
 42
14.96682551385979
  3
DEFAULT-ISO
100
AcDbAlignedDimension
 13
69.44529894847687
 23
243.0688507993457
 33
0.0
 14
69.44529894847687
 24
258.0356763132055
 34
0.0
 50
90.0
100
AcDbRotatedDimension
1001
ACAD
1000
DSTYLE
1002
{
1070
   271
1070
     2
1070
   340
1005
6E
1070
   272
1070
     2
1070
    47
1040
0.0
1070
    48
1040
0.0
1002
}
  0
DIMENSION
  5
237
330
21
100
AcDbEntity
  8
Dimensions
  6
Continuous
 48
0.0
370
    25
100
AcDbDimension
  2
*D45
 10
104.4452989484771
 20
-389.9643236867957
 30
0.0
 11
98.21711165832653
 21
229.3085242987634
 31
0.0
 70
   164
  1
<>
 42
634.0000000000018
  3
DEFAULT-ISO
100
AcDbRadialDimension
 15
98.06931933145229
 25
244.0036146854264
 35
0.0
 40
0.0
1001
ACAD
1000
DSTYLE
1002
{
1070
   271
1070
     2
1070
   141
1040
0.0
1070
   340
1005
6E
1070
   272
1070
     2
1070
    47
1040
0.0
1070
    48
1040
0.0
1002
}
  0
DIMENSION
  5
2A2
330
21
100
AcDbEntity
  8
Dimensions
  6
Continuous
 48
0.0
370
    25
100
AcDbDimension
  2
*D46
 10
59.44529894844546
 20
170.1171307852007
 30
0.0
 11
59.44529894844544
 21
200.0314651020235
 31
0.0
 70
   160
  1
<>
 42
49.0
  3
DEFAULT-ISO
100
AcDbAlignedDimension
 13
69.44529894844544
 23
219.1171307852008
 33
0.0
 14
69.44529894844544
 24
170.1171307852007
 34
0.0
 50
90.0
100
AcDbRotatedDimension
1001
ACAD
1000
DSTYLE
1002
{
1070
   271
1070
     2
1070
   340
1005
6E
1070
   272
1070
     2
1070
    47
1040
0.0
1070
    48
1040
0.0
1002
}
  0
DIMENSION
  5
336
330
21
100
AcDbEntity
  8
Dimensions
  6
Continuous
 48
0.0
370
    25
100
AcDbDimension
  2
*D47
 10
119.4452989484453
 20
160.1171307852007
 30
0.0
 11
90.71629025647551
 21
160.1171307852007
 31
0.0
 70
   160
  1
<>
 42
49.99999999999994
  3
DEFAULT-ISO
100
AcDbAlignedDimension
 13
69.44529894844544
 23
170.1171307852007
 33
0.0
 14
119.4452989484453
 24
170.1171307852007
 34
0.0
 50
180.0
100
AcDbRotatedDimension
1001
ACAD
1000
DSTYLE
1002
{
1070
   271
1070
     2
1070
   340
1005
6E
1070
   272
1070
     2
1070
    47
1040
0.0
1070
    48
1040
0.0
1002
}
  0
DIMENSION
  5
3CA
330
21
100
AcDbEntity
  8
Dimensions
  6
Continuous
 48
0.0
370
    25
100
AcDbDimension
  2
*D48
 10
132.1497201672524
 20
170.1171307852007
 30
0.0
 11
132.1497201672524
 21
189.1137828997983
 31
0.0
 70
   160
  1
<>
 42
10.0
  3
DEFAULT-ISO
100
AcDbAlignedDimension
 13
119.4452989484454
 23
180.1171307852007
 33
0.0
 14
119.4452989484453
 24
170.1171307852007
 34
0.0
 50
90.0
100
AcDbRotatedDimension
1001
ACAD
1000
DSTYLE
1002
{
1070
   271
1070
     2
1070
   340
1005
6E
1070
   272
1070
     2
1070
    47
1040
0.0
1070
    48
1040
0.0
1002
}
  0
DIMENSION
  5
464
330
21
100
AcDbEntity
  8
Dimensions
  6
Continuous
 48
0.0
370
    25
100
AcDbDimension
  2
*D49
 10
69.44529894844544
 20
221.6690524776097
 30
0.0
 11
88.44195106304297
 21
221.6690524776097
 31
0.0
 70
   160
  1
<>
 42
10.0
  3
DEFAULT-ISO
100
AcDbAlignedDimension
 13
79.44529894844544
 23
219.1171307852008
 33
0.0
 14
69.44529894844544
 24
219.1171307852008
 34
0.0
 50
180.0
100
AcDbRotatedDimension
1001
ACAD
1000
DSTYLE
1002
{
1070
   271
1070
     2
1070
   340
1005
6E
1070
   272
1070
     2
1070
    47
1040
0.0
1070
    48
1040
0.0
1002
}
  0
DIMENSION
  5
4FE
330
21
100
AcDbEntity
  8
Dimensions
  6
Continuous
 48
0.0
370
    25
100
AcDbDimension
  2
*D50
 10
84.44529894844544
 20
185.1171307852008
 30
0.0
 11
89.37845014790676
 21
190.0502819846607
 31
0.0
 70
   164
  1
<>
 42
4.999999999999971
  3
DEFAULT-ISO
100
AcDbRadialDimension
 15
80.90976504251225
 25
181.5815968792685
 35
0.0
 40
0.0
1001
ACAD
1000
DSTYLE
1002
{
1070
   271
1070
     2
1070
   141
1040
0.0
1070
   340
1005
6E
1070
   272
1070
     2
1070
    47
1040
0.0
1070
    48
1040
0.0
1002
}
  0
DIMENSION
  5
569
330
21
100
AcDbEntity
  8
Dimensions
  6
Continuous
 48
0.0
370
    25
100
AcDbDimension
  2
*D51
 10
157.5574072574871
 20
243.8582066795533
 30
0.0
 11
157.557407257487
 21
267.0418782231646
 31
0.0
 70
   160
  1
<>
 42
14.17746963365212
  3
DEFAULT-ISO
100
AcDbAlignedDimension
 13
119.4452989484768
 23
258.0356763132055
 33
0.0
 14
119.4452989484768
 24
243.8582066795533
 34
0.0
 50
90.0
100
AcDbRotatedDimension
1001
ACAD
1000
DSTYLE
1002
{
1070
   271
1070
     2
1070
   340
1005
6E
1070
   272
1070
     2
1070
    47
1040
0.0
1070
    48
1040
0.0
1002
}
  0
CIRCLE
  5
602
330
21
100
AcDbEntity
  8
Visible Edges
  6
Continuous
 48
0.0
370
    50
100
AcDbCircle
 10
104.5403435599105
 20
67.49872122579148
 30
0.0
 40
3.0
  0
CIRCLE
  5
603
330
21
100
AcDbEntity
  8
Visible Edges
  6
Continuous
 48
0.0
370
    50
100
AcDbCircle
 10
118.5403435599105
 20
67.49872122579162
 30
0.0
 40
3.0
  0
ARC
  5
604
330
21
100
AcDbEntity
  8
Visible Edges
  6
Continuous
 48
0.0
370
    25
100
AcDbCircle
 10
104.5403435599104
 20
67.49872122579148
 30
0.0
 40
2.999999999999959
100
AcDbArc
 50
350.0000000000017
 51
259.9999999999521
  0
ARC
  5
605
330
21
100
AcDbEntity
  8
Visible Edges
  6
Continuous
 48
0.0
370
    25
100
AcDbCircle
 10
118.5403435599104
 20
67.49872122579162
 30
0.0
 40
2.999999999999959
100
AcDbArc
 50
350.0000000000017
 51
259.9999999999521
  0
LINE
  5
606
330
21
100
AcDbEntity
  8
Visible Edges
  6
Continuous
 48
0.0
370
    50
100
AcDbLine
 10
96.54034355991051
 20
60.32125159213947
 30
0.0
 11
96.54034355991051
 21
74.49872122579165
 31
0.0
  0
LINE
  5
607
330
21
100
AcDbEntity
  8
Visible Edges
  6
Continuous
 48
0.0
370
    50
100
AcDbLine
 10
96.54034355991051
 20
74.49872122579165
 30
0.0
 11
126.5403435599105
 21
74.49872122579165
 31
0.0
  0
LINE
  5
608
330
21
100
AcDbEntity
  8
Visible Edges
  6
Continuous
 48
0.0
370
    50
100
AcDbLine
 10
126.5403435599105
 20
74.49872122579165
 30
0.0
 11
126.5403435599105
 21
60.32125159213954
 31
0.0
  0
ARC
  5
609
330
21
100
AcDbEntity
  8
Visible Edges
  6
Continuous
 48
0.0
370
    50
100
AcDbCircle
 10
111.5403435599104
 20
-573.5012787741446
 30
0.0
 40
633.9999999999362
100
AcDbArc
 50
88.64429512143678
 51
91.35570487856311
  0
LINE
  5
60A
330
21
100
AcDbEntity
  8
Visible Edges
  6
Continuous
 48
0.0
370
    50
100
AcDbLine
 10
96.54034355993175
 20
104.0343512088322
 30
0.0
 11
96.54034355993175
 21
114.0343512088322
 31
0.0
  0
LINE
  5
60B
330
21
100
AcDbEntity
  8
Visible Edges
  6
Continuous
 48
0.0
370
    50
100
AcDbLine
 10
126.5403435599317
 20
104.0343512088322
 30
0.0
 11
126.5403435599317
 21
114.0343512088322
 31
0.0
  0
LINE
  5
60C
330
21
100
AcDbEntity
  8
Visible Edges
  6
Continuous
 48
0.0
370
    50
100
AcDbLine
 10
126.5403435599317
 20
114.0343512088322
 30
0.0
 11
96.54034355993289
 21
114.0343512088322
 31
0.0
  0
LINE
  5
60D
330
21
100
AcDbEntity
  8
Visible Edges
  6
Continuous
 48
0.0
370
    50
100
AcDbLine
 10
96.54034355993168
 20
104.0343512088322
 30
0.0
 11
126.5403435599305
 21
104.0343512088322
 31
0.0
  0
LINE
  5
60E
330
21
100
AcDbEntity
  8
Hidden Edges
  6
DASHED
 48
24.17794990539551
370
    35
100
AcDbLine
 10
101.5403435599317
 20
104.0343512088343
 30
0.0
 11
101.5403435599317
 21
114.0343512088343
 31
0.0
  0
LINE
  5
60F
330
21
100
AcDbEntity
  8
Hidden Edges
  6
DASHED
 48
24.17794990539551
370
    35
100
AcDbLine
 10
107.5403435599317
 20
104.0343512088343
 30
0.0
 11
107.5403435599317
 21
114.0343512088343
 31
0.0
  0
LINE
  5
610
330
21
100
AcDbEntity
  8
Hidden Edges
  6
DASHED
 48
24.17794990539551
370
    35
100
AcDbLine
 10
115.5403435599317
 20
104.0343512088343
 30
0.0
 11
115.5403435599317
 21
114.0343512088343
 31
0.0
  0
LINE
  5
611
330
21
100
AcDbEntity
  8
Hidden Edges
  6
DASHED
 48
24.17794990539551
370
    35
100
AcDbLine
 10
121.5403435599317
 20
104.0343512088343
 30
0.0
 11
121.5403435599317
 21
114.0343512088343
 31
0.0
  0
LINE
  5
612
330
21
100
AcDbEntity
  8
Hidden Edges
  6
DASHED
 48
24.17794990539551
370
    35
100
AcDbLine
 10
101.5403435599317
 20
114.0343512088343
 30
0.0
 11
101.5403435599317
 21
104.0343512088343
 31
0.0
  0
LINE
  5
613
330
21
100
AcDbEntity
  8
Hidden Edges
  6
DASHED
 48
24.17794990539551
370
    35
100
AcDbLine
 10
107.5403435599317
 20
104.0343512088343
 30
0.0
 11
107.5403435599317
 21
114.0343512088343
 31
0.0
  0
LINE
  5
614
330
21
100
AcDbEntity
  8
Hidden Edges
  6
DASHED
 48
24.17794990539551
370
    35
100
AcDbLine
 10
115.5403435599317
 20
114.0343512088343
 30
0.0
 11
115.5403435599317
 21
104.0343512088343
 31
0.0
  0
LINE
  5
615
330
21
100
AcDbEntity
  8
Hidden Edges
  6
DASHED
 48
24.17794990539551
370
    35
100
AcDbLine
 10
121.5403435599317
 20
104.0343512088343
 30
0.0
 11
121.5403435599317
 21
114.0343512088343
 31
0.0
  0
DIMENSION
  5
616
330
21
100
AcDbEntity
  8
Dimensions
  6
Continuous
 48
0.0
370
    25
100
AcDbDimension
  2
*D52
 10
80.17771834921022
 20
74.49872122579165
 30
0.0
 11
80.1777183492102
 21
84.68084653234804
 31
0.0
 70
   160
  1
<>
 42
14.17746963365218
  3
DEFAULT-ISO
100
AcDbAlignedDimension
 13
96.54034355991051
 23
60.32125159213947
 33
0.0
 14
96.54034355991051
 24
74.49872122579164
 34
0.0
 50
90.0
100
AcDbRotatedDimension
1001
ACAD
1000
DSTYLE
1002
{
1070
   271
1070
     2
1070
   340
1005
6E
1070
   272
1070
     2
1070
    47
1040
0.0
1070
    48
1040
0.0
1002
}
  0
DIMENSION
  5
6AF
330
21
100
AcDbEntity
  8
Dimensions
  6
Continuous
 48
0.0
370
    25
100
AcDbDimension
  2
*D53
 10
151.5016055168393
 20
60.32125159213953
 30
0.0
 11
151.5016055168393
 21
84.34441309008404
 31
0.0
 70
   160
  1
<>
 42
14.1774696336521
  3
DEFAULT-ISO
100
AcDbAlignedDimension
 13
126.5403435599105
 23
74.49872122579164
 33
0.0
 14
126.5403435599105
 24
60.32125159213954
 34
0.0
 50
90.0
100
AcDbRotatedDimension
1001
ACAD
1000
DSTYLE
1002
{
1070
   271
1070
     2
1070
   340
1005
6E
1070
   272
1070
     2
1070
    47
1040
0.0
1070
    48
1040
0.0
1002
}
  0
DIMENSION
  5
748
330
21
100
AcDbEntity
  8
Dimensions
  6
Continuous
 48
0.0
370
    25
100
AcDbDimension
  2
*D54
 10
111.5403435599105
 20
-573.5012787742085
 30
0.0
 11
111.5403435597225
 21
40.16531044599596
 31
0.0
 70
   164
  1
<>
 42
634.0000000000001
  3
DEFAULT-ISO
100
AcDbRadialDimension
 15
111.5403435597225
 25
60.49872122579159
 35
0.0
 40
0.0
1001
ACAD
1000
DSTYLE
1002
{
1070
   271
1070
     2
1070
   141
1040
0.0
1070
   340
1005
6E
1070
   272
1070
     2
1070
    47
1040
0.0
1070
    48
1040
0.0
1002
}
  0
DIMENSION
  5
7B3
330
21
100
AcDbEntity
  8
Dimensions
  6
Continuous
 48
0.0
370
    25
100
AcDbDimension
  2
*D55
 10
142.5403435599318
 20
114.0343512088322
 30
0.0
 11
142.5403435599317
 21
123.0310033234297
 31
0.0
 70
   160
  1
<>
 42
10.0
  3
DEFAULT-ISO
100
AcDbAlignedDimension
 13
126.5403435599317
 23
104.0343512088322
 33
0.0
 14
126.5403435599317
 24
114.0343512088322
 34
0.0
 50
90.0
100
AcDbRotatedDimension
1001
ACAD
1000
DSTYLE
1002
{
1070
   271
1070
     2
1070
   340
1005
6E
1070
   272
1070
     2
1070
    47
1040
0.0
1070
    48
1040
0.0
1002
}
  0
INSERT
  5
85E
330
21
100
AcDbEntity
  8
Dimensions
100
AcDbBlockReference
  2
2dTransSymbol1
 10
0.0
 20
0.0
 30
0.0
  0
CIRCLE
  5
85F
330
21
100
AcDbEntity
  8
Visible Edges
  6
Continuous
 48
0.0
370
    50
100
AcDbCircle
 10
280.3973364426637
 20
219.9407237426057
 30
0.0
 40
1.25
  0
CIRCLE
  5
860
330
21
100
AcDbEntity
  8
Visible Edges
  6
Continuous
 48
0.0
370
    50
100
AcDbCircle
 10
251.0945731798506
 20
218.0697182211057
 30
0.0
 40
1.25
  0
CIRCLE
  5
861
330
21
100
AcDbEntity
  8
Visible Edges
  6
Continuous
 48
0.0
370
    50
100
AcDbCircle
 10
236.6931454098365
 20
215.1393666561024
 30
0.0
 40
1.25
  0
CIRCLE
  5
862
330
21
100
AcDbEntity
  8
Visible Edges
  6
Continuous
 48
0.0
370
    50
100
AcDbCircle
 10
265.7032126070077
 20
219.6746282487291
 30
0.0
 40
1.25
  0
CIRCLE
  5
863
330
21
100
AcDbEntity
  8
Visible Edges
  6
Continuous
 48
0.0
370
    50
100
AcDbCircle
 10
295.0545051348898
 20
218.8657874481781
 30
0.0
 40
1.25
  0
ARC
  5
864
330
21
100
AcDbEntity
  8
Hidden Edges
  6
DASHED
 48
24.81825065612793
370
    35
100
AcDbCircle
 10
275.9623034376621
 20
59.00182079417425
 30
0.0
 40
159.2499999999998
100
AcDbArc
 50
77.95761055727945
 51
109.3492356271776
  0
LINE
  5
865
330
21
100
AcDbEntity
  8
Visible Edges
  6
Continuous
 48
0.0
370
    50
100
AcDbLine
 10
310.5957635724998
 20
221.3487438912527
 30
0.0
 11
309.0309988073717
 21
214.0137925465052
 31
0.0
  0
ARC
  5
866
330
21
100
AcDbEntity
  8
Visible Edges
  6
Continuous
 48
0.0
370
    50
100
AcDbCircle
 10
275.9623034376631
 20
59.00182079417422
 30
0.0
 40
166.0000000000001
100
AcDbArc
 50
77.95761055727983
 51
109.3492356271779
  0
ARC
  5
867
330
21
100
AcDbEntity
  8
Visible Edges
  6
Continuous
 48
0.0
370
    50
100
AcDbCircle
 10
275.962303437663
 20
59.00182079417496
 30
0.0
 40
158.4999999999994
100
AcDbArc
 50
77.95761055727972
 51
109.349235627178
  0
LINE
  5
868
330
21
100
AcDbEntity
  8
Visible Edges
  6
Continuous
 48
0.0
370
    50
100
AcDbLine
 10
223.4472431966992
 20
208.5491994000461
 30
0.0
 11
220.9623034376631
 21
215.6255737820274
 31
0.0
  0
DIMENSION
  5
869
330
21
100
AcDbEntity
  8
Dimensions
  6
Continuous
 48
0.0
370
    25
100
AcDbDimension
  2
*D56
 10
279.3127490356005
 20
180.5831119170311
 30
0.0
 11
266.9213898913941
 21
180.2927838501848
 31
0.0
 70
   165
  1
<>
 42
0.5478872150213185
  3
DEFAULT-ISO
100
AcDb3PointAngularDimension
 13
223.4472431966992
 23
208.5491994000461
 33
0.0
 14
310.5957635724999
 24
221.3487438912527
 34
0.0
 15
275.9623034376627
 25
59.0018207941743
 35
0.0
1001
ACAD
1000
DSTYLE
1002
{
1070
   179
1070
     2
1070
   340
1005
6E
1070
   272
1070
     2
1070
    47
1040
0.0
1070
    48
1040
0.0
1002
}
  0
LINE
  5
96C
330
21
100
AcDbEntity
  8
Center Mark
 48
14.11223411560058
370
    25
100
AcDbLine
 10
278.4623034376631
 20
59.00182079417433
 30
0.0
 11
273.4623034376631
 21
59.00182079417433
 31
0.0
  0
LINE
  5
96D
330
21
100
AcDbEntity
  8
Center Mark
 48
14.11223411560058
370
    25
100
AcDbLine
 10
275.9623034376631
 20
61.50182079417433
 30
0.0
 11
275.9623034376631
 21
56.50182079417433
 31
0.0
  0
INSERT
  5
98D
330
21
100
AcDbEntity
  8
Section View Lines
100
AcDbBlockReference
  2
2dTransSection0
 10
0.0
 20
0.0
 30
0.0
  0
LINE
  5
98E
330
21
100
AcDbEntity
  8
Visible Edges
  6
Continuous
 48
0.0
370
    50
100
AcDbLine
 10
350.7950565604596
 20
205.1042684134507
 30
0.0
 11
341.0151214341295
 21
207.1906214336216
 31
0.0
  0
LINE
  5
98F
330
21
100
AcDbEntity
  8
Visible Edges
  6
Continuous
 48
0.0
370
    50
100
AcDbLine
 10
351.6263261911129
 20
212.5956962347105
 30
0.0
 11
350.2180379024975
 21
205.9942400244378
 31
0.0
  0
LINE
  5
990
330
21
100
AcDbEntity
  8
Visible Edges
  6
Continuous
 48
0.0
370
    50
100
AcDbLine
 10
350.2180379024975
 20
205.9942400244378
 30
0.0
 11
341.905093045117
 21
207.767640091583
 31
0.0
  0
LINE
  5
991
330
21
100
AcDbEntity
  8
Visible Edges
  6
Continuous
 48
0.0
370
    50
100
AcDbLine
 10
341.905093045117
 20
207.767640091583
 30
0.0
 11
343.3133813337324
 21
214.3690963018563
 31
0.0
  0
LINE
  5
992
330
21
100
AcDbEntity
  8
Visible Edges
  6
Continuous
 48
0.0
370
    50
100
AcDbLine
 10
342.5798861992577
 20
214.5255727783691
 30
0.0
 11
341.0151214341295
 21
207.1906214336216
 31
0.0
  0
LINE
  5
993
330
21
100
AcDbEntity
  8
Visible Edges
  6
Continuous
 48
0.0
370
    50
100
AcDbLine
 10
343.3133813337324
 20
214.3690963018563
 30
0.0
 11
342.5798861992577
 21
214.5255727783691
 31
0.0
  0
LINE
  5
994
330
21
100
AcDbEntity
  8
Visible Edges
  6
Continuous
 48
0.0
370
    50
100
AcDbLine
 10
350.7950565604596
 20
205.1042684134507
 30
0.0
 11
352.3598213255878
 21
212.4392197581983
 31
0.0
  0
LINE
  5
995
330
21
100
AcDbEntity
  8
Visible Edges
  6
Continuous
 48
0.0
370
    50
100
AcDbLine
 10
352.3598213255878
 20
212.4392197581983
 30
0.0
 11
351.6263261911129
 21
212.5956962347105
 31
0.0
  0
MTEXT
  5
996
330
21
100
AcDbEntity
  8
0
  6
Continuous
 62
    18
 48
0.0
370
    50
100
AcDbMText
 10
340.5028255961354
 20
230.7073168249414
 30
0.0
 40
5.24999976158142
 41
0.0
 71
     7
 72
     1
  1
A-A  ( 1 : 4 )
  7
Text Style12
 73
     1
 44
1.0
1001
ACAD
1000
MTEXTBEGIN
1070
    73
1070
     1
1070
    44
1040
1.0
1070
    74
1070
     0
1000
MTEXTEND
  0
DIMENSION
  5
997
330
21
100
AcDbEntity
  8
Dimensions
  6
Continuous
 48
0.0
370
    25
100
AcDbDimension
  2
*D57
 10
338.3962016156643
 20
194.9142397867835
 30
0.0
 11
360.4517464681127
 21
190.2091316219518
 31
0.0
 70
   160
  1
<>
 42
40.00000000000023
  3
DEFAULT-ISO
100
AcDbAlignedDimension
 13
350.7950565604596
 23
205.1042684134507
 33
0.0
 14
341.0151214341295
 24
207.1906214336216
 34
0.0
 50
347.95761055728
100
AcDbRotatedDimension
1001
ACAD
1000
DSTYLE
1002
{
1070
   271
1070
     2
1070
   144
1040
4.0
1070
   340
1005
6E
1070
   272
1070
     2
1070
    47
1040
0.0
1070
    48
1040
0.0
1002
}
  0
DIMENSION
  5
A3B
330
21
100
AcDbEntity
  8
Dimensions
  6
Continuous
 48
0.0
370
    25
100
AcDbDimension
  2
*D58
 10
383.83855460873
 20
205.723863326066
 30
0.0
 11
386.0590426098225
 21
216.1325661627993
 31
0.0
 70
   160
  1
<>
 42
30.0
  3
DEFAULT-ISO
100
AcDbAlignedDimension
 13
350.7950565604596
 23
205.1042684134507
 33
0.0
 14
352.3598213255878
 24
212.4392197581983
 34
0.0
 50
257.9576105572799
100
AcDbRotatedDimension
1001
ACAD
1000
DSTYLE
1002
{
1070
   271
1070
     2
1070
   144
1040
4.0
1070
   340
1005
6E
1070
   272
1070
     2
1070
    47
1040
0.0
1070
    48
1040
0.0
1002
}
  0
DIMENSION
  5
ADF
330
21
100
AcDbEntity
  8
Dimensions
  6
Continuous
 48
0.0
370
    25
100
AcDbDimension
  2
*D59
 10
352.7893762571829
 20
214.4527904835644
 30
0.0
 11
370.9957280905724
 21
210.5688304528254
 31
0.0
 70
   160
  1
<>
 42
3.0
  3
DEFAULT-ISO
100
AcDbAlignedDimension
 13
351.6263261911129
 23
212.5956962347105
 33
0.0
 14
352.3598213255878
 24
212.4392197581983
 34
0.0
 50
167.9576105572796
100
AcDbRotatedDimension
1001
ACAD
1000
DSTYLE
1002
{
1070
   271
1070
     2
1070
   144
1040
4.0
1070
   340
1005
6E
1070
   272
1070
     2
1070
    47
1040
0.0
1070
    48
1040
0.0
1002
}
  0
CIRCLE
  5
B83
330
21
100
AcDbEntity
  8
Visible Edges
  6
Continuous
 48
0.0
370
    50
100
AcDbCircle
 10
272.4300690959138
 20
106.7720048142191
 30
0.0
 40
1.25
  0
CIRCLE
  5
B84
330
21
100
AcDbEntity
  8
Visible Edges
  6
Continuous
 48
0.0
370
    50
100
AcDbCircle
 10
243.4200018987425
 20
102.2367432215924
 30
0.0
 40
1.25
  0
CIRCLE
  5
B85
330
21
100
AcDbEntity
  8
Visible Edges
  6
Continuous
 48
0.0
370
    50
100
AcDbCircle
 10
257.8214296687567
 20
105.1670947865958
 30
0.0
 40
1.25
  0
CIRCLE
  5
B86
330
21
100
AcDbEntity
  8
Visible Edges
  6
Continuous
 48
0.0
370
    50
100
AcDbCircle
 10
287.1241929315697
 20
107.0381003080957
 30
0.0
 40
1.25
  0
ARC
  5
B87
330
21
100
AcDbEntity
  8
Hidden Edges
  6
DASHED
 48
25.76984596252442
370
    35
100
AcDbCircle
 10
282.6891599265675
 20
-53.90080264033642
 30
0.0
 40
159.2500000000006
100
AcDbArc
 50
82.50608001931054
 51
109.3492356271775
  0
LINE
  5
B88
330
21
100
AcDbEntity
  8
Visible Edges
  6
Continuous
 48
0.0
370
    50
100
AcDbLine
 10
304.3390430995744
 20
110.6813426810669
 30
0.0
 11
303.3608857273001
 21
103.2454023804011
 31
0.0
  0
ARC
  5
B89
330
21
100
AcDbEntity
  8
Visible Edges
  6
Continuous
 48
0.0
370
    50
100
AcDbCircle
 10
282.6891599265685
 20
-53.90080264033594
 30
0.0
 40
166.0000000000005
100
AcDbArc
 50
82.50608001931089
 51
109.3492356271779
  0
ARC
  5
B8A
330
21
100
AcDbEntity
  8
Visible Edges
  6
Continuous
 48
0.0
370
    50
100
AcDbCircle
 10
282.6891599265684
 20
-53.90080264033509
 30
0.0
 40
158.4999999999997
100
AcDbArc
 50
82.5060800193108
 51
109.3492356271779
  0
LINE
  5
B8B
330
21
100
AcDbEntity
  8
Visible Edges
  6
Continuous
 48
0.0
370
    50
100
AcDbLine
 10
230.1740996856046
 20
95.64657596553628
 30
0.0
 11
227.6891599265685
 21
102.7229503475176
 31
0.0
  0
DIMENSION
  5
B8C
330
21
100
AcDbEntity
  8
Dimensions
  6
Continuous
 48
0.0
370
    25
100
AcDbDimension
  2
*D60
 10
261.084335412525
 20
63.79707640273811
 30
0.0
 11
273.2312248389792
 21
65.38920799508833
 31
0.0
 70
   165
  1
<>
 42
0.4685014469824578
  3
DEFAULT-ISO
100
AcDb3PointAngularDimension
 13
230.1740996856046
 23
95.64657596553628
 33
0.0
 14
304.3390430995744
 24
110.6813426810669
 34
0.0
 15
282.6891599265678
 25
-53.90080264033665
 35
0.0
1001
ACAD
1000
DSTYLE
1002
{
1070
   179
1070
     2
1070
   340
1005
6E
1070
   272
1070
     2
1070
    47
1040
0.0
1070
    48
1040
0.0
1002
}
  0
INSERT
  5
CAE
330
21
100
AcDbEntity
  8
Section View Lines
100
AcDbBlockReference
  2
2dTransSection1
 10
0.0
 20
0.0
 30
0.0
  0
LINE
  5
CAF
330
21
100
AcDbEntity
  8
Visible Edges
  6
Continuous
 48
0.0
370
    50
100
AcDbLine
 10
349.1166686831659
 20
97.22647879941701
 30
0.0
 11
339.2020816156116
 21
98.53068862911619
 31
0.0
  0
LINE
  5
CB0
330
21
100
AcDbEntity
  8
Visible Edges
  6
Continuous
 48
0.0
370
    50
100
AcDbLine
 10
349.3512320253737
 20
104.7602348373097
 30
0.0
 11
348.4708903903268
 21
98.06788856671056
 31
0.0
  0
LINE
  5
CB1
330
21
100
AcDbEntity
  8
Visible Edges
  6
Continuous
 48
0.0
370
    50
100
AcDbLine
 10
348.4708903903268
 20
98.06788856671056
 30
0.0
 11
340.0434913829055
 21
99.17646692195489
 31
0.0
  0
LINE
  5
CB2
330
21
100
AcDbEntity
  8
Visible Edges
  6
Continuous
 48
0.0
370
    50
100
AcDbLine
 10
340.0434913829055
 20
99.17646692195489
 30
0.0
 11
340.9238330179525
 21
105.8688131925545
 31
0.0
  0
LINE
  5
CB3
330
21
100
AcDbEntity
  8
Visible Edges
  6
Continuous
 48
0.0
370
    50
100
AcDbLine
 10
340.180238987886
 20
105.9666289297819
 30
0.0
 11
339.2020816156116
 21
98.53068862911619
 31
0.0
  0
LINE
  5
CB4
330
21
100
AcDbEntity
  8
Visible Edges
  6
Continuous
 48
0.0
370
    50
100
AcDbLine
 10
340.9238330179525
 20
105.8688131925545
 30
0.0
 11
340.180238987886
 21
105.9666289297819
 31
0.0
  0
LINE
  5
CB5
330
21
100
AcDbEntity
  8
Visible Edges
  6
Continuous
 48
0.0
370
    50
100
AcDbLine
 10
349.1166686831659
 20
97.22647879941701
 30
0.0
 11
350.0948260554403
 21
104.6624191000827
 31
0.0
  0
LINE
  5
CB6
330
21
100
AcDbEntity
  8
Visible Edges
  6
Continuous
 48
0.0
370
    50
100
AcDbLine
 10
350.0948260554403
 20
104.6624191000827
 30
0.0
 11
349.3512320253737
 21
104.7602348373097
 31
0.0
  0
MTEXT
  5
CB7
330
21
100
AcDbEntity
  8
0
  6
Continuous
 48
0.0
370
    50
100
AcDbMText
 10
338.8752286821331
 20
122.5597935889026
 30
0.0
 40
5.24999976158142
 41
0.0
 71
     7
 72
     1
  1
B-B  ( 1 : 4 )
  7
Text Style12
 73
     1
 44
1.0
1001
ACAD
1000
MTEXTBEGIN
1070
    73
1070
     1
1070
    44
1040
1.0
1070
    74
1070
     0
1000
MTEXTEND
  0
DIMENSION
  5
CB8
330
21
100
AcDbEntity
  8
Dimensions
  6
Continuous
 48
0.0
370
    25
100
AcDbDimension
  2
*D61
 10
383.8044220851248
 20
100.2281056791053
 30
0.0
 11
384.9991033769309
 21
109.3100581501443
 31
0.0
 70
   160
  1
<>
 42
30.0
  3
DEFAULT-ISO
100
AcDbAlignedDimension
 13
349.1166686831659
 23
97.22647879941701
 33
0.0
 14
350.0948260554403
 24
104.6624191000827
 34
0.0
 50
262.5060800193104
100
AcDbRotatedDimension
1001
ACAD
1000
DSTYLE
1002
{
1070
   271
1070
     2
1070
   144
1040
4.0
1070
   340
1005
6E
1070
   272
1070
     2
1070
    47
1040
0.0
1070
    48
1040
0.0
1002
}
  0
DIMENSION
  5
D5E
330
21
100
AcDbEntity
  8
Dimensions
  6
Continuous
 48
0.0
370
    25
100
AcDbDimension
  2
*D62
 10
336.9469871588221
 20
81.38748833399541
 30
0.0
 11
356.0145384056075
 21
78.87925600975349
 31
0.0
 70
   160
  1
<>
 42
39.99999999999977
  3
DEFAULT-ISO
100
AcDbAlignedDimension
 13
349.1166686831659
 23
97.22647879941701
 33
0.0
 14
339.2020816156116
 24
98.53068862911619
 34
0.0
 50
352.5060800193106
100
AcDbRotatedDimension
1001
ACAD
1000
DSTYLE
1002
{
1070
   271
1070
     2
1070
   144
1040
4.0
1070
   340
1005
6E
1070
   272
1070
     2
1070
    47
1040
0.0
1070
    48
1040
0.0
1002
}
  0
DIMENSION
  5
E02
330
21
100
AcDbEntity
  8
Dimensions
  6
Continuous
 48
0.0
370
    25
100
AcDbDimension
  2
*D63
 10
350.271013391313
 20
106.001793058116
 30
0.0
 11
368.4774697243388
 21
103.6068330712065
 31
0.0
 70
   160
  1
<>
 42
3.0
  3
DEFAULT-ISO
100
AcDbAlignedDimension
 13
349.3512320253737
 23
104.7602348373097
 33
0.0
 14
350.0948260554403
 24
104.6624191000827
 34
0.0
 50
172.50608001931
100
AcDbRotatedDimension
1001
ACAD
1000
DSTYLE
1002
{
1070
   271
1070
     2
1070
   144
1040
4.0
1070
   340
1005
6E
1070
   272
1070
     2
1070
    47
1040
0.0
1070
    48
1040
0.0
1002
}
  0
LINE
  5
EA6
330
21
100
AcDbEntity
  8
Center Mark
 48
14.11223411560058
370
    25
100
AcDbLine
 10
285.1891599265685
 20
-53.90080264033544
 30
0.0
 11
280.1891599265685
 21
-53.90080264033544
 31
0.0
  0
LINE
  5
EA7
330
21
100
AcDbEntity
  8
Center Mark
 48
14.11223411560058
370
    25
100
AcDbLine
 10
282.6891599265685
 20
-51.40080264033544
 30
0.0
 11
282.6891599265685
 21
-56.40080264033544
 31
0.0
  0
LINE
  5
EA8
330
21
100
AcDbEntity
  8
Center Mark
 48
21.16840171813965
370
    25
100
AcDbLine
 10
242.5053475968521
 20
105.8734873022274
 30
0.0
 11
244.3346562006329
 21
98.5999991409575
 31
0.0
  0
LINE
  5
EA9
330
21
100
AcDbEntity
  8
Center Mark
 48
21.16840171813965
370
    25
100
AcDbLine
 10
235.7784911079461
 20
218.7761107367373
 30
0.0
 11
237.6077997117268
 21
211.5026225754674
 31
0.0
  0
LINE
  5
EAA
330
21
100
AcDbEntity
  8
Center Mark
 48
21.16840171813965
370
    25
100
AcDbLine
 10
251.6737904995202
 20
214.36472061023
 30
0.0
 11
250.5153558601811
 21
221.7747158319814
 31
0.0
  0
LINE
  5
EAB
330
21
100
AcDbEntity
  8
Center Mark
 48
21.16840171813965
370
    25
100
AcDbLine
 10
265.9421665859826
 20
215.9322491931106
 30
0.0
 11
265.4642586280328
 21
223.4170073043476
 31
0.0
  0
LINE
  5
EAC
330
21
100
AcDbEntity
  8
Center Mark
 48
21.16840171813965
370
    25
100
AcDbLine
 10
280.2940359844726
 20
216.192146810577
 30
0.0
 11
280.5006369008546
 21
223.6893006746344
 31
0.0
  0
LINE
  5
EAD
330
21
100
AcDbEntity
  8
Center Mark
 48
21.16840171813965
370
    25
100
AcDbLine
 10
294.6098109959793
 20
215.1422478521998
 30
0.0
 11
295.4991992738004
 21
222.5893270441564
 31
0.0
  0
ARC
  5
EAE
330
21
100
AcDbEntity
  8
Centerline
 48
26.73543930053711
370
    25
100
AcDbCircle
 10
275.9623034376631
 20
59.00182079417433
 30
0.0
 40
161.0000000000003
100
AcDbArc
 50
81.85501904300368
 51
105.451827141454
  0
DIMENSION
  5
EAF
330
21
100
AcDbEntity
  8
Dimensions
  6
Continuous
 48
0.0
370
    25
100
AcDbDimension
  2
*D64
 10
248.5536017493486
 20
205.0452759543093
 30
0.0
 11
231.0645412375736
 21
200.6496893724681
 31
0.0
 70
   165
  1
<>
 42
0.091314535836887
  3
DEFAULT-ISO
100
AcDb3PointAngularDimension
 13
235.7784911079461
 23
218.7761107367373
 33
0.0
 14
251.6737904995202
 24
214.36472061023
 34
0.0
 15
275.9623034376625
 25
59.00182079417518
 35
0.0
1001
ACAD
1000
DSTYLE
1002
{
1070
   179
1070
     2
1070
   340
1005
6E
1070
   272
1070
     2
1070
    47
1040
0.0
1070
    48
1040
0.0
1002
}
  0
DIMENSION
  5
FC2
330
21
100
AcDbEntity
  8
Dimensions
  6
Continuous
 48
0.0
370
    25
100
AcDbDimension
  2
*D65
 10
275.9623034376636
 20
59.00182079417453
 30
0.0
 11
270.2950213802574
 21
199.6837522940788
 31
0.0
 70
   164
  1
<>
 42
634.0000000000009
  3
DEFAULT-ISO
100
AcDbRadialDimension
 15
269.5824064784241
 25
217.3733678434774
 35
0.0
 40
0.0
1001
ACAD
1000
DSTYLE
1002
{
1070
   271
1070
     2
1070
   144
1040
4.0
1070
   141
1040
0.0
1070
   340
1005
6E
1070
   272
1070
     2
1070
    47
1040
0.0
1070
    48
1040
0.0
1002
}
  0
LINE
  5
1032
330
21
100
AcDbEntity
  8
Center Mark
 48
21.16840171813965
370
    25
100
AcDbLine
 10
258.4006469884263
 20
101.4620971757201
 30
0.0
 11
257.2422123490872
 21
108.8720923974715
 31
0.0
  0
LINE
  5
1033
330
21
100
AcDbEntity
  8
Center Mark
 48
21.16840171813965
370
    25
100
AcDbLine
 10
272.6690230748886
 20
103.0296257586006
 30
0.0
 11
272.1911151169389
 21
110.5143838698376
 31
0.0
  0
LINE
  5
1034
330
21
100
AcDbEntity
  8
Center Mark
 48
21.16840171813965
370
    25
100
AcDbLine
 10
287.0208924733787
 20
103.289523376067
 30
0.0
 11
287.2274933897608
 21
110.7866772401244
 31
0.0
  0
ARC
  5
1035
330
21
100
AcDbEntity
  8
Centerline
 48
24.2755298614502
370
    25
100
AcDbCircle
 10
282.6891599265685
 20
-53.90080264033544
 30
0.0
 40
161.0
100
AcDbArc
 50
87.08695655465309
 51
105.4518271414538
  0
DIMENSION
  5
1036
330
21
100
AcDbEntity
  8
Dimensions
  6
Continuous
 48
0.0
370
    25
100
AcDbDimension
  2
*D66
 10
255.3898696921834
 20
91.55966880362166
 30
0.0
 11
237.9363675553379
 21
87.17076634142992
 31
0.0
 70
   165
  1
<>
 42
0.0913145358368859
  3
DEFAULT-ISO
100
AcDb3PointAngularDimension
 13
242.5053475968521
 23
105.8734873022274
 33
0.0
 14
258.4006469884263
 24
101.4620971757201
 34
0.0
 15
282.6891599265689
 25
-53.90080264033723
 35
0.0
1001
ACAD
1000
DSTYLE
1002
{
1070
   179
1070
     2
1070
   340
1005
6E
1070
   272
1070
     2
1070
    47
1040
0.0
1070
    48
1040
0.0
1002
}
  0
DIMENSION
  5
1149
330
21
100
AcDbEntity
  8
Dimensions
  6
Continuous
 48
0.0
370
    25
100
AcDbDimension
  2
*D67
 10
282.689159926569
 20
-53.90080264033546
 30
0.0
 11
271.440260420921
 21
89.46272321338737
 31
0.0
 70
   164
  1
<>
 42
634.0000000000004
  3
DEFAULT-ISO
100
AcDbRadialDimension
 15
270.2906973799507
 25
104.1135262241069
 35
0.0
 40
0.0
1001
ACAD
1000
DSTYLE
1002
{
1070
   271
1070
     2
1070
   144
1040
4.0
1070
   141
1040
0.0
1070
   340
1005
6E
1070
   272
1070
     2
1070
    47
1040
0.0
1070
    48
1040
0.0
1002
}
  0
INSERT
  5
11CD
330
21
100
AcDbEntity
  8
Dimensions
100
AcDbBlockReference
  2
2dTransSymbol2
 10
0.0
 20
0.0
 30
0.0
  0
INSERT
  5
11E0
330
21
100
AcDbEntity
  8
Dimensions
100
AcDbBlockReference
  2
2dTransSymbol3
 10
0.0
 20
0.0
 30
0.0
  0
DIMENSION
  5
11E1
330
21
100
AcDbEntity
  8
Dimensions
  6
Continuous
 48
0.0
370
    25
100
AcDbDimension
  2
*D68
 10
282.6891599265679
 20
-53.90080264033539
 30
0.0
 11
221.7108674535584
 21
78.65629679592777
 31
0.0
 70
   164
  1
<>
 42
643.9999999999994
  3
DEFAULT-ISO
100
AcDbRadialDimension
 15
215.4045112353702
 25
92.36531117452623
 35
0.0
 40
0.0
1001
ACAD
1000
DSTYLE
1002
{
1070
   271
1070
     2
1070
   144
1040
4.0
1070
   141
1040
0.0
1070
   340
1005
6E
1070
   272
1070
     2
1070
    47
1040
0.0
1070
    48
1040
0.0
1002
}
  0
DIMENSION
  5
1251
330
21
100
AcDbEntity
  8
Dimensions
  6
Continuous
 48
0.0
370
    25
100
AcDbDimension
  2
*D69
 10
275.9623034376631
 20
59.00182079417446
 30
0.0
 11
216.2658250254504
 21
191.9017983162303
 31
0.0
 70
   164
  1
<>
 42
644.0000000000013
  3
DEFAULT-ISO
100
AcDbRadialDimension
 15
209.9933254768649
 25
205.8660231949223
 35
0.0
 40
0.0
1001
ACAD
1000
DSTYLE
1002
{
1070
   271
1070
     2
1070
   144
1040
4.0
1070
   141
1040
0.0
1070
   340
1005
6E
1070
   272
1070
     2
1070
    47
1040
0.0
1070
    48
1040
0.0
1002
}
  0
MTEXT
  5
12C1
330
21
100
AcDbEntity
  8
Text
  6
Continuous
370
     5
100
AcDbMText
 10
275.8743311847237
 20
168.6226333792038
 30
0.0
 40
3.499999940395355
 41
61.69016838073726
 71
     1
 72
     1
  1
{Through holes on both sides}
  7
DEFAULT-ISO
 73
     2
 44
0.7831142544746399
1001
ACAD
1000
MTEXTBEGIN
1070
    73
1070
     2
1070
    44
1040
0.7831142544746399
1070
    74
1070
     0
1000
MTEXTEND
  0
MTEXT
  5
12C2
330
21
100
AcDbEntity
  8
Text
  6
Continuous
370
     5
100
AcDbMText
 10
283.9675452777384
 20
53.61915374165777
 30
0.0
 40
3.499999940395355
 41
61.6901683807373
 71
     1
 72
     1
  1
{Through holes on both sides}
  7
DEFAULT-ISO
 73
     2
 44
0.7831142544746399
1001
ACAD
1000
MTEXTBEGIN
1070
    73
1070
     2
1070
    44
1040
0.7831142544746399
1070
    74
1070
     0
1000
MTEXTEND
  0
DIMENSION
  5
12C3
330
21
100
AcDbEntity
  8
Dimensions
  6
Continuous
 48
0.0
370
    25
100
AcDbDimension
  2
*D70
 10
111.4452989484768
 20
274.2517519078877
 30
0.0
 11
85.56763589687163
 21
274.2517519078877
 31
0.0
 70
   160
  1
<>
 42
14.0
  3
DEFAULT-ISO
100
AcDbAlignedDimension
 13
97.44529894847682
 23
251.0356763132055
 33
0.0
 14
111.4452989484768
 24
251.0356763132055
 34
0.0
 50
180.0
100
AcDbRotatedDimension
1001
ACAD
1000
DSTYLE
1002
{
1070
   271
1070
     2
1070
   340
1005
6E
1070
   272
1070
     2
1070
    47
1040
0.0
1070
    48
1040
0.0
1002
}
  0
DIMENSION
  5
135C
330
21
100
AcDbEntity
  8
Dimensions
  6
Continuous
 48
0.0
370
    25
100
AcDbDimension
  2
*D71
 10
119.4452989484768
 20
274.2517519078877
 30
0.0
 11
128.2613637394252
 21
274.2517519078877
 31
0.0
 70
   160
  1
<>
 42
8.000000000000042
  3
DEFAULT-ISO
100
AcDbAlignedDimension
 13
111.4452989484768
 23
251.0356763132055
 33
0.0
 14
119.4452989484768
 24
258.0356763132055
 34
0.0
 50
180.0
100
AcDbRotatedDimension
1001
ACAD
1000
DSTYLE
1002
{
1070
   271
1070
     2
1070
   340
1005
6E
1070
   272
1070
     2
1070
    47
1040
0.0
1070
    48
1040
0.0
1002
}
  0
DIMENSION
  5
13F6
330
21
100
AcDbEntity
  8
Dimensions
  6
Continuous
 48
0.0
370
    25
100
AcDbDimension
  2
*D72
 10
139.0535686055078
 20
258.0356763132054
 30
0.0
 11
139.0535686055078
 21
267.0277722394422
 31
0.0
 70
   160
  1
<>
 42
7.000000000000028
  3
DEFAULT-ISO
100
AcDbAlignedDimension
 13
111.4452989484768
 23
251.0356763132055
 33
0.0
 14
119.4452989484768
 24
258.0356763132055
 34
0.0
 50
270.0
100
AcDbRotatedDimension
1001
ACAD
1000
DSTYLE
1002
{
1070
   271
1070
     2
1070
   340
1005
6E
1070
   272
1070
     2
1070
    47
1040
0.0
1070
    48
1040
0.0
1002
}
  0
DIMENSION
  5
1492
330
21
100
AcDbEntity
  8
Dimensions
  6
Continuous
 48
0.0
370
    25
100
AcDbDimension
  2
*D73
 10
168.0418210945022
 20
219.1171307852008
 30
0.0
 11
168.0418210945021
 21
201.7048405837542
 31
0.0
 70
   160
  1
<>
 42
8.0
  3
DEFAULT-ISO
100
AcDbAlignedDimension
 13
151.6925106831322
 23
211.1171307852008
 33
0.0
 14
158.6925106831321
 24
219.1171307852008
 34
0.0
 50
90.0
100
AcDbRotatedDimension
1001
ACAD
1000
DSTYLE
1002
{
1070
   271
1070
     2
1070
   340
1005
6E
1070
   272
1070
     2
1070
    47
1040
0.0
1070
    48
1040
0.0
1002
}
  0
DIMENSION
  5
152E
330
21
100
AcDbEntity
  8
Dimensions
  6
Continuous
 48
0.0
370
    25
100
AcDbDimension
  2
*D74
 10
158.6925106831321
 20
225.4579485569127
 30
0.0
 11
174.3703380402622
 21
225.4579485569127
 31
0.0
 70
   160
  1
<>
 42
6.999999999999943
  3
DEFAULT-ISO
100
AcDbAlignedDimension
 13
151.6925106831322
 23
211.1171307852008
 33
0.0
 14
158.6925106831321
 24
219.1171307852008
 34
0.0
 50
180.0
100
AcDbRotatedDimension
1001
ACAD
1000
DSTYLE
1002
{
1070
   271
1070
     2
1070
   340
1005
6E
1070
   272
1070
     2
1070
    47
1040
0.0
1070
    48
1040
0.0
1002
}
  0
INSERT
  5
15D9
330
21
100
AcDbEntity
  8
Dimensions
100
AcDbBlockReference
  2
2dTransSymbol4
 10
0.0
 20
0.0
 30
0.0
  0
DIMENSION
  5
15DA
330
21
100
AcDbEntity
  8
Dimensions
  6
Continuous
 48
0.0
370
    25
100
AcDbDimension
  2
*D75
 10
118.5403435599105
 20
80.30721178291585
 30
0.0
 11
130.4180066115157
 21
80.30721178291585
 31
0.0
 70
   160
  1
<>
 42
14.0
  3
DEFAULT-ISO
100
AcDbAlignedDimension
 13
104.5403435599105
 23
67.49872122579147
 33
0.0
 14
118.5403435599105
 24
67.49872122579161
 34
0.0
 50
180.0
100
AcDbRotatedDimension
1001
ACAD
1000
DSTYLE
1002
{
1070
   271
1070
     2
1070
   340
1005
6E
1070
   272
1070
     2
1070
    47
1040
0.0
1070
    48
1040
0.0
1002
}
  0
DIMENSION
  5
1673
330
21
100
AcDbEntity
  8
Dimensions
  6
Continuous
 48
0.0
370
    25
100
AcDbDimension
  2
*D76
 10
126.5403435599317
 20
120.0063579700695
 30
0.0
 11
111.8024607725929
 21
120.0063579700695
 31
0.0
 70
   160
  1
<>
 42
30.0
  3
DEFAULT-ISO
100
AcDbAlignedDimension
 13
96.54034355993175
 23
114.0343512088322
 33
0.0
 14
126.5403435599317
 24
114.0343512088322
 34
0.0
100
AcDbRotatedDimension
1001
ACAD
1000
DSTYLE
1002
{
1070
   271
1070
     2
1070
   340
1005
6E
1070
   272
1070
     2
1070
    47
1040
0.0
1070
    48
1040
0.0
1002
}
  0
INSERT
  5
1718
330
21
100
AcDbEntity
  8
Dimensions
100
AcDbBlockReference
  2
2dTransSymbol5
 10
0.0
 20
0.0
 30
0.0
  0
ENDSEC
  0
SECTION
  2
OBJECTS
  0
DICTIONARY
  5
C
330
0
100
AcDbDictionary
281
     1
  3
ACAD_COLOR
350
1C
  3
ACAD_GROUP
350
D
  3
ACAD_LAYOUT
350
1A
  3
ACAD_MATERIAL
350
1B
  3
ACAD_MLINESTYLE
350
17
  3
ACAD_PLOTSETTINGS
350
19
  3
ACAD_PLOTSTYLENAME
350
E
  3
ACDBHEADERROUNDTRIPXREC
350
18A7
  3
AcDbVariableDictionary
350
18A2
  3
DWGPROPS
350
18A6
  0
DICTIONARY
  5
1C
102
{ACAD_REACTORS
330
C
102
}
330
C
100
AcDbDictionary
281
     1
  0
DICTIONARY
  5
D
102
{ACAD_REACTORS
330
C
102
}
330
C
100
AcDbDictionary
281
     1
  0
DICTIONARY
  5
1A
102
{ACAD_REACTORS
330
C
102
}
330
C
100
AcDbDictionary
281
     1
  3
Layout1
350
20
  3
Layout2
350
28
  3
Model
350
24
  0
DICTIONARY
  5
1B
102
{ACAD_REACTORS
330
C
102
}
330
C
100
AcDbDictionary
281
     1
  0
DICTIONARY
  5
17
102
{ACAD_REACTORS
330
C
102
}
330
C
100
AcDbDictionary
281
     1
  3
Standard
350
18
  0
DICTIONARY
  5
19
102
{ACAD_REACTORS
330
C
102
}
330
C
100
AcDbDictionary
281
     1
  0
ACDBDICTIONARYWDFLT
  5
E
102
{ACAD_REACTORS
330
C
102
}
330
C
100
AcDbDictionary
281
     1
  3
Normal
350
F
100
AcDbDictionaryWithDefault
340
F
  0
DICTIONARY
  5
18A7
102
{ACAD_REACTORS
330
C
102
}
330
C
100
AcDbDictionary
281
     1
  3
COLORDICT
350
18A9
  3
MATERIALDICT
350
18A8
  0
DICTIONARY
  5
18A2
102
{ACAD_REACTORS
330
C
102
}
330
C
100
AcDbDictionary
281
     1
  3
DIMASSOC
350
18A4
  3
HIDETEXT
350
18A3
  3
PROJECTNAME
350
18A5
  0
XRECORD
  5
18A6
102
{ACAD_REACTORS
330
C
102
}
330
C
100
AcDbXrecord
280
     1
  1
DWGPROPS COOKIE
  2

  3

  4
mihara
  6

  7

  8

  9

300
=
301
=
302
=
303
=
304
=
305
=
306
=
307
=
308
=
309
=
 40
0.0004636342592593
 41
2453383.746943403
 42
2453383.746943403
  1

 90
        0
  0
LAYOUT
  5
20
102
{ACAD_XDICTIONARY
360
18AA
102
}
102
{ACAD_REACTORS
330
1A
102
}
330
1A
100
AcDbPlotSettings
  1

  2

  4

  6

 40
0.0
 41
0.0
 42
0.0
 43
0.0
 44
0.0
 45
0.0
 46
0.0
 47
0.0
 48
0.0
 49
0.0
140
0.0
141
0.0
142
1.0
143
1.0
 70
   688
 72
     0
 73
     0
 74
     5
  7

 75
    16
147
1.0
148
0.0
149
0.0
100
AcDbLayout
  1
Layout1
 70
     1
 71
     1
 10
0.0
 20
0.0
 11
709.676
 21
548.3859999999999
 12
0.0
 22
0.0
 32
0.0
 14
0.0
 24
0.0
 34
0.0
 15
709.676
 25
548.3859999999999
 35
0.0
146
0.0
 13
0.0
 23
0.0
 33
0.0
 16
1.0
 26
0.0
 36
0.0
 17
0.0
 27
1.0
 37
0.0
 76
     0
330
1D
  0
LAYOUT
  5
28
102
{ACAD_XDICTIONARY
360
18AE
102
}
102
{ACAD_REACTORS
330
1A
102
}
330
1A
100
AcDbPlotSettings
  1

  2

  4

  6

 40
0.0
 41
0.0
 42
0.0
 43
0.0
 44
0.0
 45
0.0
 46
0.0
 47
0.0
 48
0.0
 49
0.0
140
0.0
141
0.0
142
1.0
143
1.0
 70
   688
 72
     0
 73
     0
 74
     5
  7

 75
    16
147
1.0
148
0.0
149
0.0
100
AcDbLayout
  1
Layout2
 70
     1
 71
     2
 10
0.0
 20
0.0
 11
12.0
 21
9.0
 12
0.0
 22
0.0
 32
0.0
 14
0.0
 24
0.0
 34
0.0
 15
0.0
 25
0.0
 35
0.0
146
0.0
 13
0.0
 23
0.0
 33
0.0
 16
1.0
 26
0.0
 36
0.0
 17
0.0
 27
1.0
 37
0.0
 76
     0
330
25
  0
LAYOUT
  5
24
102
{ACAD_XDICTIONARY
360
18AC
102
}
102
{ACAD_REACTORS
330
1A
102
}
330
1A
100
AcDbPlotSettings
  1

  2

  4

  6

 40
0.0
 41
0.0
 42
0.0
 43
0.0
 44
0.0
 45
0.0
 46
0.0
 47
0.0
 48
0.0
 49
0.0
140
0.0
141
0.0
142
1.0
143
1.0
 70
  1712
 72
     0
 73
     0
 74
     0
  7

 75
     0
147
1.0
148
0.0
149
0.0
100
AcDbLayout
  1
Model
 70
     1
 71
     0
 10
0.0
 20
0.0
 11
12.0
 21
9.0
 12
0.0
 22
0.0
 32
0.0
 14
0.0
 24
0.0
 34
0.0
 15
0.0
 25
0.0
 35
0.0
146
0.0
 13
0.0
 23
0.0
 33
0.0
 16
1.0
 26
0.0
 36
0.0
 17
0.0
 27
1.0
 37
0.0
 76
     0
330
21
  0
MLINESTYLE
  5
18
102
{ACAD_REACTORS
330
17
102
}
330
17
100
AcDbMlineStyle
  2
STANDARD
 70
     0
  3

 62
   256
 51
90.0
 52
90.0
 71
     2
 49
0.5
 62
   256
  6
BYLAYER
 49
-0.5
 62
   256
  6
BYLAYER
  0
ACDBPLACEHOLDER
  5
F
102
{ACAD_REACTORS
330
E
102
}
330
E
  0
XRECORD
  5
18A9
102
{ACAD_REACTORS
330
18A7
102
}
330
18A7
100
AcDbXrecord
280
     1
340
1C
  0
XRECORD
  5
18A8
102
{ACAD_REACTORS
330
18A7
102
}
330
18A7
100
AcDbXrecord
280
     1
340
1B
  0
DICTIONARYVAR
  5
18A4
102
{ACAD_REACTORS
330
18A2
102
}
330
18A2
100
DictionaryVariables
280
     0
  1
1
  0
DICTIONARYVAR
  5
18A3
102
{ACAD_REACTORS
330
18A2
102
}
330
18A2
100
DictionaryVariables
280
     0
  1
1
  0
DICTIONARYVAR
  5
18A5
102
{ACAD_REACTORS
330
18A2
102
}
330
18A2
100
DictionaryVariables
280
     0
  1

  0
DICTIONARY
  5
18AA
330
20
100
AcDbDictionary
280
     1
281
     1
  3
ACAD_XREC_ROUNDTRIP
360
18AB
  0
DICTIONARY
  5
18AE
330
28
100
AcDbDictionary
280
     1
281
     1
  3
ACAD_XREC_ROUNDTRIP
360
18AF
  0
DICTIONARY
  5
18AC
330
24
100
AcDbDictionary
280
     1
281
     1
  3
ACAD_XREC_ROUNDTRIP
360
18AD
  0
XRECORD
  5
18AB
102
{ACAD_REACTORS
330
18AA
102
}
330
18AA
100
AcDbXrecord
280
     1
102
SHADEPLOT
 70
     0
102
SHADEPLOTRESLEVEL
 70
     2
102
SHADEPLOTCUSTOMDPI
 70
   300
  0
XRECORD
  5
18AF
102
{ACAD_REACTORS
330
18AE
102
}
330
18AE
100
AcDbXrecord
280
     1
102
SHADEPLOT
 70
     0
102
SHADEPLOTRESLEVEL
 70
     2
102
SHADEPLOTCUSTOMDPI
 70
   300
  0
XRECORD
  5
18AD
102
{ACAD_REACTORS
330
18AC
102
}
330
18AC
100
AcDbXrecord
280
     1
102
SHADEPLOT
 70
     0
102
SHADEPLOTRESLEVEL
 70
     2
102
SHADEPLOTCUSTOMDPI
 70
   300
  0
ENDSEC
  0
EOF
